osu file format v14

[General]
AudioFilename: justmovingonnow.mp3
AudioLeadIn: 800
PreviewTime: 60056
Countdown: 0
SampleSet: Soft
StackLeniency: 0.7
Mode: 0
LetterboxInBreaks: 0
WidescreenStoryboard: 0

[Editor]
Bookmarks: 1273,60948,71002,71327,81705,86894,89327
DistanceSpacing: 1.3
BeatDivisor: 4
GridSize: 4
TimelineZoom: 1.3

[Metadata]
Title:Just Moving On Now
TitleUnicode:Just Moving On Now
Artist:AKINO from bless4
ArtistUnicode:AKINO from bless4
Creator:kakifly
Version:Extra
Source:
Tags:艦隊これくしょん 艦これ kantai collection kancolle 海色 miiro shimakaze combined fleet cut short version setz meyrink kibbleru
BeatmapID:678468
BeatmapSetID:302054

[Difficulty]
HPDrainRate:7.5
CircleSize:4.2
OverallDifficulty:8.5
ApproachRate:9.3
SliderMultiplier:1.9
SliderTickRate:2

[Events]
//Background and Video events
0,0,"shimakaze.jpg",0,0
//Break Periods
//Storyboard Layer 0 (Background)
//Storyboard Layer 1 (Fail)
//Storyboard Layer 2 (Pass)
//Storyboard Layer 3 (Foreground)
//Storyboard Sound Samples

[TimingPoints]
1273,324.324324324324,4,2,0,40,1,0
1273,-166.666666666667,4,2,0,40,0,0
8408,-100,4,2,1,90,0,0
8489,-100,4,2,1,60,0,0
8732,-100,4,2,1,90,0,0
8813,-100,4,2,1,60,0,0
9056,-100,4,2,1,70,0,0
11975,-100,4,2,3,70,0,0
16678,-100,4,2,1,70,0,0
16840,-100,4,2,3,70,0,0
20083,-100,4,2,0,60,0,0
20408,-100,4,2,1,80,0,0
20489,-100,4,2,0,60,0,0
20732,-100,4,2,1,70,0,0
23002,-100,4,2,0,70,0,0
23164,-100,4,2,0,85,0,0
24137,-125,4,2,0,70,0,0
24624,-111.111111111111,4,2,3,70,0,0
26570,-111.111111111111,4,2,3,90,0,0
27218,-133.333333333333,4,2,1,50,0,0
27300,-133.333333333333,4,2,5,40,0,0
36948,-133.333333333333,4,2,1,75,0,0
37435,-117.647058823529,4,2,1,60,0,0
45056,-133.333333333333,4,2,1,60,0,0
45381,-117.647058823529,4,2,1,70,0,0
47651,-117.647058823529,4,2,1,60,0,0
47975,-117.647058823529,4,2,1,70,0,0
55759,-111.111111111111,4,2,1,70,0,0
57705,-111.111111111111,4,2,1,75,0,0
59489,-111.111111111111,4,2,0,90,0,0
59813,-111.111111111111,4,2,3,90,0,0
60948,-100,4,2,1,80,0,1
71002,-100,4,2,1,80,0,0
71327,-100,4,2,1,80,0,1
81705,-117.647058823529,4,2,1,80,0,0
81786,-117.647058823529,4,2,1,65,0,0
82354,-117.647058823529,4,2,3,65,0,0
85759,-133.333333333333,4,2,3,70,0,0
86894,-133.333333333333,4,2,3,90,0,0
87218,-133.333333333333,4,2,1,30,0,0
87867,-133.333333333333,4,2,1,20,0,0
88516,-133.333333333333,4,2,1,10,0,0

[Colours]
Combo1 : 247,197,91
Combo2 : 51,124,234
Combo3 : 0,63,140
Combo4 : 200,34,80
Combo5 : 171,124,82

[HitObjects]
189,112,1273,6,0,P|237:100|317:84,1,113.999996520996,2|0,0:0|0:0,0:0:0:0:
393,128,1759,1,0,0:0:0:0:
261,252,1921,2,0,P|264:223|271:191,1,56.9999982604981,0|0,0:0|0:0,0:0:0:0:
136,132,2245,2,0,P|161:119|189:112,1,56.9999982604981,0|0,0:0|0:0,0:0:0:0:
164,240,2570,6,0,B|116:240|84:232|84:232|52:204,1,113.999996520996,2|0,0:0|0:0,0:0:0:0:
137,132,3056,1,0,0:0:0:0:
261,252,3218,1,0,0:0:0:0:
176,332,3381,2,0,P|144:324|104:312,1,56.9999982604981
304,188,3705,1,2,0:0:0:0:
304,188,3786,1,2,0:0:0:0:
304,188,3867,6,0,P|308:244|312:316,1,113.999996520996,2|0,0:0|0:0,0:0:0:0:
212,356,4354,1,0,0:0:0:0:
124,228,4516,2,0,P|160:216|204:204,1,56.9999982604981,2|0,0:0|0:0,0:0:0:0:
320,92,4840,2,0,P|280:84|248:80,1,56.9999982604981,0|0,0:0|0:0,0:0:0:0:
304,188,5164,6,0,P|344:188|408:136,1,113.999996520996,2|0,0:0|0:0,0:0:0:0:
136,114,5813,2,0,P|129:171|124:228,1,113.999996520996,2|0,0:0|0:0,0:0:0:0:
311,301,6300,1,0,0:0:0:0:
311,301,6381,1,0,0:0:0:0:
311,301,6462,6,0,P|307:244|304:187,1,113.999996520996,2|0,0:0|0:0,0:0:0:0:
124,240,6948,2,0,P|112:284|132:352,1,113.999996520996,0|0,0:0|0:0,0:0:0:0:
311,301,7435,2,0,P|352:292|384:280,1,56.9999982604981,2|0,0:0|0:0,0:0:0:0:
264,168,7759,6,0,P|221:172|179:177,1,85.4999973907472,0|2,0:0|0:0,0:0:0:0:
124,240,8083,2,0,P|128:276|132:300,1,56.9999982604981
416,244,8408,5,8,0:0:0:0:
444,208,8489,1,0,1:1:0:0:
436,160,8570,1,0,1:1:0:0:
396,136,8651,1,0,1:1:0:0:
364,92,8732,1,8,0:0:0:0:
368,44,8813,1,0,1:1:0:0:
400,8,8894,1,0,1:1:0:0:
448,4,8975,1,0,1:1:0:0:
432,72,9056,6,0,P|360:64|240:56,1,190,4|2,0:0|0:0,0:0:0:0:
148,148,9543,1,0,0:0:0:0:
232,276,9705,1,8,0:0:0:0:
320,124,9867,1,8,0:0:0:0:
60,112,10029,1,8,0:0:0:0:
246,175,10191,6,0,P|341:168|436:160,1,190,10|0,0:0|0:0,0:0:0:0:
436,160,10840,1,2,0:0:0:0:
432,144,10921,1,2,0:0:0:0:
428,124,11002,1,2,0:0:0:0:
388,264,11164,1,2,0:0:0:0:
488,64,11327,1,2,0:0:0:0:
246,176,11489,6,0,P|242:248|238:372,1,190,4|0,0:0|0:0,0:0:0:0:
388,264,11975,2,0,P|384:216|376:160,1,95,8|0,0:0|0:0,0:0:0:0:
128,176,12300,1,2,0:0:0:0:
280,272,12462,1,2,0:0:0:0:
168,92,12624,1,8,0:0:0:0:
172,320,12786,6,0,L|224:312|276:304,1,95,0|2,0:0|0:0,0:0:0:0:
400,152,13110,1,0,0:0:0:0:
324,48,13272,1,8,0:0:0:0:
388,264,13435,1,0,0:0:0:0:
496,200,13597,1,2,0:0:0:0:
284,172,13759,1,2,0:0:0:0:
448,364,13921,1,8,0:0:0:0:
400,152,14083,6,0,P|352:144|200:120,1,190,2|2,0:0|0:0,0:0:0:0:
148,156,14489,1,2,0:0:0:0:
148,156,14570,1,8,0:0:0:0:
172,252,14732,1,0,0:0:0:0:
88,64,14894,1,2,0:0:0:0:
60,196,15056,1,2,0:0:0:0:
284,172,15218,1,8,0:0:0:0:
0,128,15381,1,0,0:0:0:0:
84,308,15543,5,2,0:0:0:0:
148,156,15705,1,0,0:0:0:0:
144,136,15786,1,8,0:0:0:0:
140,120,15867,1,8,0:0:0:0:
60,196,16029,1,0,0:0:0:0:
240,316,16191,1,2,0:0:0:0:
284,172,16354,5,0,0:0:0:0:
252,176,16435,1,0,0:0:0:0:
240,208,16516,1,8,0:0:0:0:
256,236,16597,1,0,0:0:0:0:
288,236,16678,6,0,P|280:148|268:36,1,190,4|0,0:0|0:0,0:0:0:0:
140,120,17164,2,0,P|132:176|128:220,1,95,8|0,0:0|0:0,0:0:0:0:
240,316,17489,1,2,0:0:0:0:
364,188,17651,1,2,0:0:0:0:
144,292,17813,1,8,0:0:0:0:
376,320,17975,6,0,L|428:304|480:288,1,95,0|2,0:0|0:0,0:0:0:0:
348,156,18300,1,2,0:0:0:0:
356,172,18381,1,2,0:0:0:0:
364,188,18462,1,8,0:0:0:0:
472,156,18624,1,0,0:0:0:0:
260,200,18786,1,2,0:0:0:0:
376,320,18948,1,2,0:0:0:0:
280,116,19110,1,8,0:0:0:0:
192,276,19272,1,8,0:0:0:0:
192,276,19354,1,8,0:0:0:0:
192,276,19435,5,2,0:0:0:0:
260,200,19597,1,0,0:0:0:0:
120,328,19759,1,8,0:0:0:0:
376,320,19921,1,0,0:0:0:0:
260,200,20083,5,2,0:0:0:0:
292,180,20164,1,2,0:0:0:0:
304,144,20245,1,2,0:0:0:0:
280,116,20327,1,2,0:0:0:0:
240,100,20408,5,8,0:0:0:0:
288,80,20489,1,2,0:0:0:0:
340,72,20570,1,2,0:0:0:0:
392,72,20651,1,2,0:0:0:0:
428,112,20732,5,2,0:0:0:0:
348,240,20894,1,8,0:0:0:0:
180,152,21056,1,0,0:0:0:0:
424,200,21218,1,0,0:0:0:0:
240,276,21381,1,8,0:0:0:0:
144,84,21543,1,2,0:0:0:0:
240,276,21705,5,10,0:0:0:0:
200,264,21786,1,2,0:0:0:0:
160,252,21867,1,2,0:0:0:0:
120,244,21948,1,2,0:0:0:0:
88,272,22029,5,2,0:0:0:0:
232,176,22191,1,0,0:0:0:0:
32,196,22354,1,8,0:0:0:0:
152,340,22516,1,0,0:0:0:0:
144,84,22678,1,2,0:0:0:0:
120,244,22840,1,2,0:0:0:0:
336,216,23002,5,2,0:0:0:0:
32,196,23164,1,2,0:0:0:0:
36,224,23489,5,2,0:0:0:0:
40,252,23813,1,2,0:0:0:0:
120,244,24137,6,0,B|168:244|204:260|204:260|184:288,1,114,2|0,0:0|0:0,0:0:0:0:
44,284,24462,1,2,0:0:0:0:
48,312,24786,5,2,0:0:0:0:
108,156,24948,1,8,0:0:0:0:
216,284,25110,1,8,0:3:0:0:
204,280,25191,1,8,0:3:0:0:
192,276,25272,1,12,0:3:0:0:
244,204,25435,1,2,0:0:0:0:
300,332,25597,1,8,0:0:0:0:
120,244,25759,1,2,0:0:0:0:
224,100,25921,5,0,0:0:0:0:
216,284,26083,1,2,0:0:0:0:
108,156,26245,1,8,0:0:0:0:
244,204,26408,1,2,0:0:0:0:
232,200,26489,1,2,0:0:0:0:
220,196,26570,5,10,0:0:0:0:
368,116,26732,1,8,0:0:0:0:
388,140,27218,6,0,L|380:292,1,142.500005435944,4|0,0:0|0:0,0:0:0:0:
444,348,27705,1,0,0:0:0:0:
492,276,27867,2,0,P|489:240|486:205,1,71.2500027179719,0|0,0:0|0:0,0:0:0:0:
388,140,28191,2,0,P|352:148|308:160,1,71.2500027179719,0|0,0:0|0:0,0:0:0:0:
260,260,28516,6,0,B|304:284|368:268|368:268|388:240,1,142.500005435944,0|0,0:0|0:0,0:0:0:0:
312,168,29002,1,0,0:0:0:0:
192,176,29164,2,0,P|144:188|116:196,1,71.2500027179719
244,330,29489,2,0,P|253:295|260:260,1,71.2500027179719
164,352,29813,6,0,P|232:360|324:372,2,142.500005435944,2|0|0,0:0|0:0|0:0,0:0:0:0:
72,268,30624,1,0,0:0:0:0:
160,208,30786,1,0,0:0:0:0:
244,330,30948,1,0,0:0:0:0:
72,268,31110,6,0,P|68:228|64:184,1,71.2500027179719,0|0,0:0|0:0,0:0:0:0:
246,160,31435,2,0,P|242:204|238:244,1,71.2500027179719
136,100,31759,2,0,L|172:84|208:68,1,71.2500027179719
310,242,32083,2,0,P|275:238|240:232,1,71.2500027179719
404,152,32408,6,0,P|412:208|424:300,1,142.500005435944,2|0,0:0|0:0,0:0:0:0:
344,360,32894,1,0,0:0:0:0:
240,256,33056,2,0,P|274:248|310:242,1,71.2500027179719
336,130,33381,2,0,P|370:139|404:152,1,71.2500027179719
236,132,33705,6,0,B|176:156|132:128|132:128|112:84,1,142.500005435944
200,48,34191,1,0,0:0:0:0:
336,130,34354,2,0,P|333:176|328:215,1,71.2500027179719
164,256,34678,2,0,P|161:220|159:184,1,71.2500027179719
336,130,35002,6,0,P|403:145|439:205,1,142.500005435944,2|0,0:0|0:0,0:0:0:0:
240,256,35489,1,0,0:0:0:0:
178,115,35651,2,0,P|188:81|200:48,1,71.2500027179719
336,130,35975,1,2,0:0:0:0:
240,256,36137,1,2,0:0:0:0:
220,280,36948,5,8,0:0:0:0:
80,104,37110,1,8,0:0:0:0:
64,128,37435,6,0,P|116:120|240:104,1,161.500003080368,4|0,0:0|0:0,0:0:0:0:
272,216,37921,2,0,L|224:204|176:192,1,80.750001540184,8|0,0:0|0:0,0:0:0:0:
168,16,38245,1,2,0:0:0:0:
352,96,38408,1,2,0:0:0:0:
272,216,38570,1,8,0:0:0:0:
276,80,38732,6,0,B|356:60|400:60|400:60|444:76,1,161.500003080368,0|0,0:0|0:0,0:0:0:0:
384,184,39218,2,0,P|392:232|404:280,1,80.750001540184,8|0,0:0|0:0,0:0:0:0:
488,164,39543,1,2,0:0:0:0:
352,96,39705,1,2,0:0:0:0:
191,208,39867,2,0,L|228:212|272:216,1,80.750001540184,8|0,0:0|0:0,0:0:0:0:
164,100,40191,6,0,B|92:104|44:144|44:144|40:180,1,161.500003080368,2|8,0:0|0:0,0:0:0:0:
191,208,40678,1,0,0:0:0:0:
280,132,40840,1,2,0:0:0:0:
104,32,41002,1,2,0:0:0:0:
104,244,41164,1,8,0:0:0:0:
276,208,41327,1,0,0:0:0:0:
96,160,41489,6,0,P|55:154|15:150,1,80.750001540184
191,208,41813,2,0,P|188:248|185:289,1,80.750001540184,8|0,0:0|0:0,0:0:0:0:
352,180,42137,1,2,0:0:0:0:
460,144,42300,1,2,0:0:0:0:
280,132,42462,1,8,0:0:0:0:
408,248,42624,1,0,0:0:0:0:
352,85,42786,6,0,P|274:105|198:131,1,161.500003080368,0|8,0:0|0:0,0:0:0:0:
128,216,43272,1,0,0:0:0:0:
208,332,43435,1,2,0:0:0:0:
352,180,43597,1,2,0:0:0:0:
211,159,43759,2,0,P|216:199|224:239,1,80.750001540184,8|0,0:0|0:0,0:0:0:0:
352,180,44083,5,2,0:0:0:0:
128,216,44245,2,0,L|84:228|40:240,1,80.750001540184,0|8,0:0|0:0,0:0:0:0:
84,336,44570,1,2,0:0:0:0:
224,240,44732,1,2,0:0:0:0:
52,132,44894,1,0,0:0:0:0:
192,132,45056,6,0,P|248:124|316:116,1,106.875004076958,8|0,0:0|0:0,0:0:0:0:
352,180,45381,5,4,0:0:0:0:
312,280,45543,1,0,0:0:0:0:
192,132,45705,1,8,0:0:0:0:
308,32,45867,1,0,0:0:0:0:
224,240,46029,1,2,0:0:0:0:
104,140,46191,1,2,0:0:0:0:
272,165,46354,2,0,P|312:172|352:180,1,80.750001540184,8|0,0:0|0:0,0:0:0:0:
224,240,46678,5,2,0:0:0:0:
128,296,46840,1,0,0:0:0:0:
104,140,47002,1,8,0:0:0:0:
312,280,47164,1,0,0:0:0:0:
44,288,47327,5,8,0:3:0:0:
38,265,47408,1,8,0:3:0:0:
34,238,47489,1,8,0:3:0:0:
30,212,47570,1,8,0:3:0:0:
56,164,47651,5,8,0:0:0:0:
104,140,47732,1,8,0:0:0:0:
156,148,47813,1,8,0:0:0:0:
184,192,47894,1,8,0:0:0:0:
112,212,47975,6,0,P|104:128|96:28,1,161.500003080368,4|8,0:0|0:0,0:0:0:0:
212,0,48462,1,0,0:0:0:0:
320,48,48624,2,0,P|372:36|408:20,1,80.750001540184,2|2,0:0|0:0,0:0:0:0:
336,172,48948,2,0,P|318:208|303:246,1,80.750001540184,8|0,0:0|0:0,0:0:0:0:
468,240,49272,6,0,P|460:192|452:160,1,80.750001540184,2|0,0:0|0:0,0:0:0:0:
312,280,49597,1,8,0:0:0:0:
392,352,49759,1,0,0:0:0:0:
488,248,49921,1,2,0:0:0:0:
352,88,50083,2,0,B|304:64|224:80|224:80|228:120,1,161.500003080368,8|8,0:0|0:0,0:0:0:0:
312,280,50570,6,0,P|384:264|480:236,1,161.500003080368,2|8,0:0|0:0,0:0:0:0:
488,140,51056,1,0,0:0:0:0:
352,88,51218,1,2,0:0:0:0:
312,180,51381,1,2,0:0:0:0:
448,56,51543,1,8,0:0:0:0:
232,116,51705,1,0,0:0:0:0:
400,328,51867,6,0,P|404:248|408:156,1,161.500003080368,2|8,0:0|0:0,0:0:0:0:
312,180,52354,1,0,0:0:0:0:
496,280,52516,1,2,0:0:0:0:
312,180,52678,2,0,P|276:212|296:324,1,161.500003080368,8|8,0:0|0:0,0:0:0:0:
496,280,53164,6,0,P|456:264|412:252,1,80.750001540184,2|0,0:0|0:0,0:0:0:0:
312,180,53489,2,0,B|256:164|180:192|180:192|200:228,1,161.500003080368,8|2,0:0|0:0,0:0:0:0:
280,276,53975,1,0,0:0:0:0:
260,72,54137,2,0,P|208:64|172:64,1,80.750001540184,8|0,0:0|0:0,0:0:0:0:
68,144,54462,5,2,0:0:0:0:
180,232,54624,1,2,0:0:0:0:
184,208,54705,1,2,0:0:0:0:
188,188,54786,1,8,0:0:0:0:
164,56,54948,1,8,0:0:0:0:
68,144,55110,1,0,0:0:0:0:
292,180,55272,2,0,P|348:172|388:164,1,80.750001540184,8|2,0:0|0:0,0:0:0:0:
180,232,55597,1,2,0:0:0:0:
180,232,55678,1,2,0:0:0:0:
180,232,55759,6,0,B|120:220|44:248|44:248|24:280,1,170.999994781494,4|2,0:0|0:0,0:0:0:0:
156,352,56245,1,2,0:0:0:0:
156,352,56327,1,2,0:0:0:0:
156,352,56408,1,8,0:0:0:0:
192,212,56570,1,0,0:0:0:0:
72,360,56732,1,2,0:0:0:0:
272,276,56894,1,2,0:0:0:0:
72,168,57056,6,0,P|64:228|48:352,1,170.999994781494,0|2,0:0|0:0,0:0:0:0:
72,360,57705,1,8,0:0:0:0:
272,276,57867,1,2,0:0:0:0:
72,168,58029,1,2,0:0:0:0:
148,252,58191,1,0,0:0:0:0:
224,128,58354,6,0,P|216:80|208:40,1,85.4999973907472,2|0,0:0|0:0,0:0:0:0:
72,168,58678,1,8,0:0:0:0:
280,232,58840,1,0,0:0:0:0:
308,68,59002,1,2,0:0:0:0:
108,92,59164,1,2,0:0:0:0:
228,304,59327,1,8,0:0:0:0:
400,80,59489,1,4,0:0:0:0:
424,104,59813,5,12,0:0:0:0:
152,20,59975,1,8,0:0:0:0:
128,56,60948,6,0,P|132:116|144:260,1,190,4|8,0:0|0:0,0:0:0:0:
236,312,61435,1,0,0:0:0:0:
308,200,61597,2,0,P|300:144|288:88,1,95,2|2,0:0|0:0,0:0:0:0:
236,312,61921,1,8,0:0:0:0:
412,264,62083,6,0,P|417:174|420:64,1,190,2|0,0:0|0:0,0:0:0:0:
296,40,62570,2,0,B|256:40|228:52|228:52|212:76,1,95,8|0,0:0|0:0,0:0:0:0:
308,200,62894,1,2,0:0:0:0:
392,100,63056,1,2,0:0:0:0:
208,168,63218,1,8,0:0:0:0:
412,264,63381,1,0,0:0:0:0:
473,51,63543,6,0,B|416:24|332:16|332:16|296:40,1,190,2|8,0:0|0:0,0:0:0:0:
208,168,64029,1,0,0:0:0:0:
288,304,64191,1,2,0:0:0:0:
396,176,64354,1,2,0:0:0:0:
176,248,64516,1,8,0:0:0:0:
308,200,64678,6,0,P|372:204|508:216,1,190,2|0,0:0|0:0,0:0:0:0:
392,100,65164,1,8,0:0:0:0:
384,312,65327,1,2,0:0:0:0:
388,296,65408,1,2,0:0:0:0:
392,280,65489,1,2,0:0:0:0:
288,304,65651,1,2,0:0:0:0:
472,308,65813,1,8,0:0:0:0:
308,200,65975,1,0,0:0:0:0:
188,328,66137,6,0,P|136:336|80:344,1,95,2|0,0:0|0:0,0:0:0:0:
215,180,66462,2,0,P|261:189|308:199,1,95,8|0,0:0|0:0,0:0:0:0:
288,304,66786,1,2,0:0:0:0:
204,160,66948,1,2,0:0:0:0:
392,120,67110,1,8,0:0:0:0:
308,200,67272,1,0,0:0:0:0:
120,248,67435,6,0,P|116:180|108:48,1,190,2|8,0:0|0:0,0:0:0:0:
20,172,67921,1,0,0:0:0:0:
204,160,68083,2,0,P|248:144|308:112,1,95,2|2,0:0|0:0,0:0:0:0:
208,56,68408,1,8,0:0:0:0:
120,248,68570,5,2,0:0:0:0:
132,244,68651,1,2,0:0:0:0:
144,240,68732,1,2,0:0:0:0:
288,160,68894,1,0,0:0:0:0:
120,104,69056,1,8,0:0:0:0:
232,304,69218,1,0,0:0:0:0:
348,244,69381,1,2,0:0:0:0:
204,160,69543,1,2,0:0:0:0:
312,364,69705,1,8,0:0:0:0:
288,160,69867,1,0,0:0:0:0:
80,360,70029,5,8,0:3:0:0:
120,344,70110,1,8,0:3:0:0:
160,336,70191,1,8,0:3:0:0:
204,336,70272,1,8,0:3:0:0:
240,360,70354,5,8,0:0:0:0:
232,332,70435,1,2,0:0:0:0:
232,304,70516,1,2,0:0:0:0:
240,276,70597,1,2,0:0:0:0:
260,256,70678,6,0,P|292:264|316:272,1,47.5,2|2,0:0|0:0,0:0:0:0:
288,160,70840,2,0,P|268:160|224:164,1,47.5,2|2,0:0|0:0,0:0:0:0:
384,216,71002,2,0,P|416:212|452:204,1,47.5,10|2,0:0|0:0,0:0:0:0:
404,68,71164,2,0,P|384:88|364:116,1,47.5,10|10,0:0|0:0,0:0:0:0:
320,300,71327,6,0,P|396:292|520:280,1,190,2|8,0:0|0:0,0:0:0:0:
488,156,71813,1,0,0:0:0:0:
288,160,71975,2,0,P|232:176|172:200,1,95,2|2,0:0|0:0,0:0:0:0:
384,216,72300,1,8,0:0:0:0:
272,60,72462,6,0,B|196:48|112:76|112:76|88:116,1,190,2|0,0:0|0:0,0:0:0:0:
279,254,72948,2,0,P|285:207|288:160,1,95,8|0,0:0|0:0,0:0:0:0:
188,196,73272,1,2,0:0:0:0:
384,216,73435,1,2,0:0:0:0:
264,76,73597,1,8,0:0:0:0:
96,144,73759,1,2,0:0:0:0:
96,144,73840,1,2,0:0:0:0:
96,144,73921,6,0,P|100:208|104:252,1,95,2|0,0:0|0:0,0:0:0:0:
264,348,74245,2,0,P|272:301|279:254,1,95,8|0,0:0|0:0,0:0:0:0:
264,76,74570,1,2,0:0:0:0:
188,196,74732,1,2,0:0:0:0:
360,112,74894,1,8,0:0:0:0:
96,144,75056,1,2,0:0:0:0:
348,144,75218,6,0,P|404:136|448:128,1,95,2|0,0:0|0:0,0:0:0:0:
412,40,75543,1,8,0:0:0:0:
388,232,75705,1,0,0:0:0:0:
264,76,75867,5,2,0:0:0:0:
364,252,76029,1,2,0:0:0:0:
180,188,76191,5,8,0:0:0:0:
344,272,76354,1,2,0:0:0:0:
344,272,76435,1,2,0:0:0:0:
344,272,76516,6,0,P|284:280|140:304,1,190,2|8,0:0|0:0,0:0:0:0:
264,76,77002,1,0,0:0:0:0:
272,248,77164,1,2,0:0:0:0:
152,100,77327,1,2,0:0:0:0:
368,156,77489,1,8,0:0:0:0:
180,188,77651,1,2,0:0:0:0:
288,56,77813,6,0,B|360:16|440:48|440:48|452:100,1,190,2|8,0:0|0:0,0:0:0:0:
368,156,78300,2,0,P|304:148|248:136,1,95,0|2,0:0|0:0,0:0:0:0:
456,72,78624,1,2,0:0:0:0:
432,248,78786,1,8,0:0:0:0:
296,88,78948,1,2,0:0:0:0:
292,72,79029,1,2,0:0:0:0:
288,56,79110,5,2,0:0:0:0:
456,72,79272,1,0,0:0:0:0:
296,216,79435,1,8,0:0:0:0:
360,28,79597,1,2,0:0:0:0:
464,152,79759,1,2,0:0:0:0:
216,112,79921,1,2,0:0:0:0:
360,28,80083,5,8,0:0:0:0:
348,284,80245,1,8,0:0:0:0:
328,296,81056,5,8,0:3:0:0:
280,288,81137,1,8,0:3:0:0:
232,280,81218,1,8,0:3:0:0:
184,272,81300,1,2,0:0:0:0:
152,236,81381,5,8,0:0:0:0:
288,164,81543,1,0,0:0:0:0:
288,368,81705,6,0,P|208:360|120:352,1,161.500003080368,2|0,0:0|0:0,0:0:0:0:
152,236,82191,1,2,0:0:0:0:
288,164,82354,1,8,0:0:0:0:
128,352,82516,2,0,B|80:344|-4:336|-4:336|8:364,1,161.500003080368,2|2,0:0|0:0,0:0:0:0:
152,236,83002,5,2,0:0:0:0:
44,192,83164,2,0,P|28:156|84:44,1,161.500003080368,2|2,0:0|0:0,0:0:0:0:
168,40,83651,1,0,0:0:0:0:
288,164,83813,2,0,P|296:224|304:268,1,80.750001540184,2|0,0:0|0:0,0:0:0:0:
152,236,84137,1,2,0:0:0:0:
396,120,84300,6,0,L|392:292,1,161.500003080368,4|0,0:0|0:0,0:0:0:0:
308,340,84786,1,2,0:0:0:0:
152,236,84948,1,8,0:0:0:0:
288,164,85110,1,2,0:0:0:0:
208,352,85272,1,2,0:0:0:0:
152,236,85435,5,8,0:0:0:0:
132,164,85759,1,8,0:0:0:0:
176,100,86083,1,8,0:0:0:0:
208,172,86408,2,0,P|136:164|36:156,1,142.500005435944,8|0,0:0|0:0,0:0:0:0:
288,164,86894,1,4,0:1:0:0:
256,192,86975,12,0,89327,0:0:0:0:
