osu file format v14

[General]
AudioFilename: justmovingonnow.mp3
AudioLeadIn: 800
PreviewTime: 60056
Countdown: 0
SampleSet: Soft
StackLeniency: 0.7
Mode: 0
LetterboxInBreaks: 0
WidescreenStoryboard: 0

[Editor]
Bookmarks: 1273,60948,71002,71327,81705,86894,89327
DistanceSpacing: 1.2
BeatDivisor: 4
GridSize: 4
TimelineZoom: 1.3

[Metadata]
Title:Just Moving On Now
TitleUnicode:Just Moving On Now
Artist:AKINO from bless4
ArtistUnicode:AKINO from bless4
Creator:kakifly
Version:Easy
Source:
Tags:艦隊これくしょん 艦これ kantai collection kancolle 海色 miiro shimakaze combined fleet cut short version setz meyrink kibbleru
BeatmapID:678346
BeatmapSetID:302054

[Difficulty]
HPDrainRate:2
CircleSize:3
OverallDifficulty:3
ApproachRate:3
SliderMultiplier:0.799999999999999
SliderTickRate:1

[Events]
//Background and Video events
0,0,"shimakaze.jpg",0,0
//Break Periods
//Storyboard Layer 0 (Background)
//Storyboard Layer 1 (Fail)
//Storyboard Layer 2 (Pass)
//Storyboard Layer 3 (Foreground)
//Storyboard Sound Samples

[TimingPoints]
1273,324.324324324324,4,2,0,40,1,0
8408,-100,4,2,1,40,0,0
9056,-100,4,2,1,70,0,0
11975,-100,4,2,3,70,0,0
16678,-100,4,2,1,70,0,0
16840,-100,4,2,3,70,0,0
23002,-100,4,2,0,70,0,0
23164,-100,4,2,0,85,0,0
24624,-100,4,2,3,70,0,0
26570,-100,4,2,3,90,0,0
27218,-100,4,2,1,50,0,0
27300,-100,4,2,5,40,0,0
36948,-100,4,2,1,75,0,0
37435,-100,4,2,1,60,0,0
45381,-100,4,2,1,70,0,0
47651,-100,4,2,1,60,0,0
47975,-100,4,2,1,70,0,0
55759,-100,4,2,1,70,0,0
57705,-100,4,2,1,75,0,0
59489,-100,4,2,0,90,0,0
59813,-100,4,2,3,90,0,0
60948,-100,4,2,1,80,0,1
71002,-100,4,2,1,80,0,0
71327,-100,4,2,1,80,0,1
81705,-100,4,2,1,80,0,0
81786,-100,4,2,1,65,0,0
82354,-100,4,2,3,65,0,0
85759,-100,4,2,3,70,0,0
86894,-100,4,2,3,90,0,0
87218,-100,4,2,1,30,0,0
87867,-100,4,2,1,20,0,0
88516,-100,4,2,1,10,0,0

[Colours]
Combo1 : 247,197,91
Combo2 : 51,124,234
Combo3 : 0,63,140
Combo4 : 200,34,80
Combo5 : 171,124,82

[HitObjects]
124,92,1273,6,0,P|128:152|132:216,2,120,2|0|0,0:0|0:0|0:0,0:0:0:0:
212,48,2570,2,0,B|264:28|324:40|324:40|360:80,1,160,2|0,0:0|0:0,0:0:0:0:
388,164,3543,1,0,0:0:0:0:
308,216,3867,6,0,P|256:224|140:240,1,160,2|2,0:0|0:0,0:0:0:0:
56,216,4840,1,0,0:0:0:0:
120,144,5164,2,0,B|156:108|228:108|228:108|272:140,1,160,2|2,0:0|0:0,0:0:0:0:
308,216,6137,1,0,0:0:0:0:
252,292,6462,6,0,P|216:284|124:268,2,120,2|0|2,0:0|0:0|0:0,0:0:0:0:
308,216,7759,2,0,P|348:224|396:240,1,79.9999999999999,0|0,0:0|0:0,0:0:0:0:
408,328,8408,2,0,P|360:340|320:348,1,79.9999999999999,8|8,0:0|0:0,0:0:0:0:
252,292,9056,6,0,P|212:288|172:280,1,79.9999999999999,4|2,0:0|0:0,0:0:0:0:
108,208,9705,2,0,B|148:176|192:172|192:172|228:184,1,120,8|10,0:0|0:0,0:0:0:0:
308,216,10516,2,0,P|344:224|392:232,2,79.9999999999999,0|2|2,0:0|0:0|0:0,0:0:0:0:
218,181,11489,6,0,P|209:121|202:62,1,120,4|8,0:0|0:0,0:0:0:0:
292,28,12300,2,0,B|332:28|376:48|376:48|396:76,1,120,2|0,0:0|0:0,0:0:0:0:
396,172,13110,2,0,P|356:172|312:168,1,79.9999999999999,0|0,0:0|0:0,0:0:0:0:
218,181,13759,1,2,0:0:0:0:
256,268,14083,6,0,P|315:271|375:277,1,120,2|8,0:0|0:0,0:0:0:0:
472,260,14894,2,0,P|484:224|492:180,1,79.9999999999999,2|8,0:0|0:0,0:0:0:0:
396,172,15543,2,0,P|356:168|308:168,1,79.9999999999999,2|8,0:0|0:0,0:0:0:0:
218,181,16191,1,2,0:0:0:0:
120,288,16678,6,0,B|76:292|36:276|36:276|8:240,1,120,4|8,0:0|0:0,0:0:0:0:
48,160,17489,2,0,P|80:152|132:144,1,79.9999999999999,2|8,0:0|0:0,0:0:0:0:
218,181,18137,2,0,P|278:189|306:193,2,79.9999999999999,2|8|0,0:0|0:0|0:0,0:0:0:0:
127,144,19110,1,8,0:0:0:0:
104,236,19435,6,0,P|108:300|112:360,2,120,2|8|8,0:0|0:0|0:0,0:0:0:0:
127,144,20732,2,0,P|168:140|224:140,1,79.9999999999999,2|0,0:0|0:0,0:0:0:0:
240,228,21381,2,0,P|284:236|324:236,1,79.9999999999999,8|10,0:0|0:0,0:0:0:0:
412,264,22029,6,0,B|424:216|412:184|412:184|376:152,2,120,2|8|2,0:0|0:0|0:0,0:0:0:0:
292,344,23489,2,0,L|204:356|204:356,2,79.9999999999999,2|2|2,0:0|0:0|0:0,0:0:0:0:
292,248,24462,6,0,P|232:244|164:244,1,120,2|8,0:0|0:0,0:0:0:0:
76,244,25272,2,0,P|68:212|56:152,1,79.9999999999999,12|8,0:3|0:0,0:0:0:0:
104,80,25921,2,0,P|148:76|188:76,1,79.9999999999999,0|8,0:0|0:0,0:0:0:0:
276,104,26570,1,8,0:0:0:0:
404,245,27218,6,0,P|348:265|284:241,1,120,4|0,0:0|0:0,0:0:0:0:
220,184,28029,1,0,0:0:0:0:
276,104,28354,2,0,P|336:100|412:96,1,120
484,132,29164,2,0,P|488:164|492:212,1,79.9999999999999
404,245,29813,6,0,P|348:265|284:241,2,120,2|0|0,0:0|0:0|0:0,0:0:0:0:
491,211,31110,2,0,P|488:171|484:132,1,79.9999999999999
392,108,31759,2,0,P|384:72|376:12,1,79.9999999999999
284,40,32408,6,0,B|228:0|164:24|164:24|140:60,1,160,2|0,0:0|0:0,0:0:0:0:
156,148,33381,1,0,0:0:0:0:
224,216,33705,2,0,P|280:212|348:204,2,120,0|0|0,0:0|0:0|0:0,0:0:0:0:
156,148,35002,6,0,P|104:136|32:208,1,160,2|0,0:0|0:0,0:0:0:0:
100,272,35975,1,2,0:0:0:0:
348,124,36948,6,0,L|344:80,1,40,8|8,0:0|0:0,0:0:0:0:
252,108,37435,2,0,P|260:172|268:232,2,120,4|8|2,0:0|0:0|0:0,0:0:0:0:
168,60,38732,2,0,P|132:56|84:52,1,79.9999999999999,2|2,0:0|0:0,0:0:0:0:
48,188,39543,2,0,P|96:180|136:176,1,79.9999999999999,2|8,0:0|0:0,0:0:0:0:
208,232,40191,6,0,P|256:248|324:228,2,120,2|0|8,0:0|0:0|0:0,0:0:0:0:
128,176,41489,2,0,P|124:132|124:88,1,79.9999999999999,0|8,0:0|0:0,0:0:0:0:
212,60,42137,2,0,P|251:60|291:64,1,79.9999999999999,2|8,0:0|0:0,0:0:0:0:
304,160,42786,6,0,L|260:168|216:176,1,79.9999999999999,2|8,0:0|0:0,0:0:0:0:
128,176,43435,2,0,L|132:220|136:264,1,79.9999999999999,2|8,0:0|0:0,0:0:0:0:
224,296,44083,2,0,P|248:308|336:280,2,120,2|0|8,0:0|0:0|0:0,0:0:0:0:
136,256,45381,6,0,B|96:260|44:276|44:276|16:300,2,120,4|0|8,0:0|0:0|0:0,0:0:0:0:
224,296,46678,2,0,P|268:300|356:312,2,120,8|0|8,0:0|0:0|0:0,0:0:0:0:
212,200,47975,6,0,L|208:156|204:112,2,79.9999999999999,4|8|2,0:0|0:0|0:0,0:0:0:0:
224,296,48948,1,8,0:0:0:0:
308,248,49272,2,0,P|320:248|400:256,1,79.9999999999999,2|8,0:0|0:0,0:0:0:0:
460,316,49921,2,0,P|484:288|512:244,1,79.9999999999999,2|0,0:0|0:0,0:0:0:0:
444,180,50570,6,0,P|440:136|436:88,2,79.9999999999999,2|8|2,0:0|0:0|0:0,0:0:0:0:
388,254,51543,1,8,0:0:0:0:
308,204,51867,2,0,P|252:196|216:192,1,79.9999999999999,2|8,0:0|0:0,0:0:0:0:
172,272,52516,2,0,P|132:272|80:268,1,79.9999999999999,2|0,0:0|0:0,0:0:0:0:
52,184,53164,6,0,P|48:152|44:92,1,79.9999999999999,2|8,0:0|0:0,0:0:0:0:
128,56,53813,2,0,P|168:56|216:60,1,79.9999999999999,2|8,0:0|0:0,0:0:0:0:
272,132,54462,2,0,B|316:144|360:132|360:132|392:104,1,120,2|8,0:0|0:0,0:0:0:0:
428,28,55272,1,8,0:0:0:0:
284,21,55759,6,0,P|220:33|124:57,1,160,4|2,0:0|0:0,0:0:0:0:
88,196,56894,2,0,P|140:216|208:188,1,120,2|8,0:0|0:0,0:0:0:0:
272,132,57705,2,0,P|312:136|352:144,1,79.9999999999999,2|8,0:0|0:0,0:0:0:0:
372,236,58354,6,0,P|320:244|288:248,1,79.9999999999999,2|8,0:0|0:0,0:0:0:0:
224,316,59002,2,0,B|176:320|140:300|140:300|120:272,2,120,2|4|8,0:0|0:0|0:0,0:0:0:0:
468,164,60948,6,0,L|471:124|474:84,1,79.9999999999999,4|8,0:0|0:0,0:0:0:0:
388,40,61597,2,0,P|348:28|284:72,1,120,2|2,0:0|0:0,0:0:0:0:
260,160,62408,2,0,P|308:152|392:144,1,120,0|2,0:0|0:0,0:0:0:0:
468,164,63218,1,8,0:0:0:0:
420,248,63543,6,0,P|424:287|431:327,2,79.9999999999999,2|8|2,0:0|0:0|0:0,0:0:0:0:
468,164,64516,1,8,0:0:0:0:
377,135,64840,2,0,P|317:143|249:163,2,120,0|2|8,0:0|0:0|0:0,0:0:0:0:
468,164,66137,6,0,L|464:208|460:248,1,79.9999999999999,2|8,0:0|0:0,0:0:0:0:
396,316,66786,2,0,P|352:312|308:300,1,79.9999999999999,2|8,0:0|0:0,0:0:0:0:
232,264,67435,2,0,P|204:268|140:284,2,79.9999999999999,2|8|2,0:0|0:0|0:0,0:0:0:0:
317,303,68408,1,8,0:0:0:0:
356,216,68732,6,0,B|404:224|444:200|444:200|464:168,1,120,2|0,0:0|0:0,0:0:0:0:
364,68,69705,2,0,B|316:60|276:84|276:84|256:116,1,120,8|8,0:0|0:3,0:0:0:0:
188,232,70678,2,0,P|136:228|92:224,1,79.9999999999999,2|8,0:0|0:0,0:0:0:0:
64,140,71327,6,0,P|112:128|152:120,1,79.9999999999999,2|8,0:0|0:0,0:0:0:0:
236,148,71975,2,0,P|288:164|352:128,1,120,2|2,0:0|0:0,0:0:0:0:
372,44,72786,2,0,B|320:36|276:36|276:36|244:52,1,120,2|2,0:0|0:0,0:0:0:0:
160,56,73597,1,8,0:0:0:0:
92,124,73921,6,0,P|52:116|8:104,2,79.9999999999999,2|8|2,0:0|0:0|0:0,0:0:0:0:
168,180,74894,1,8,0:0:0:0:
96,240,75218,2,0,L|104:288|112:336,1,79.9999999999999,2|8,0:0|0:0,0:0:0:0:
204,344,75867,2,0,P|207:304|211:264,1,79.9999999999999,2|8,0:0|0:0,0:0:0:0:
168,180,76516,6,0,P|172:128|184:48,2,120,2|0|8,0:0|0:0|0:0,0:0:0:0:
211,265,77813,2,0,P|255:261|303:253,1,79.9999999999999,0|8,0:0|0:0,0:0:0:0:
348,180,78462,2,0,P|388:192|428:208,1,79.9999999999999,2|8,0:0|0:0,0:0:0:0:
492,276,79110,6,0,P|456:300|376:292,1,120,2|2,0:0|0:0,0:0:0:0:
404,104,80245,2,0,P|452:100|492:100,1,79.9999999999999,8|0,0:0|0:0,0:0:0:0:
468,192,80894,2,0,P|400:188|344:180,1,120,0|8,0:0|0:0,0:0:0:0:
264,228,81705,6,0,P|220:244|152:212,2,120,2|2|0,0:0|0:0|0:0,0:0:0:0:
348,180,83002,2,0,P|408:188|468:192,2,120,2|2|0,0:0|0:0|0:0,0:0:0:0:
280,112,84300,6,0,B|244:96|204:96|204:96|164:116,1,120,4|2,0:0|0:0,0:0:0:0:
120,200,85110,1,2,0:0:0:0:
204,248,85435,2,0,P|256:252|292:256,2,79.9999999999999,8|8|8,0:0|0:0|0:0,0:0:0:0:
120,200,86408,2,0,P|80:196|-4:196,1,120,8|4,0:0|0:1,0:0:0:0:
256,192,87056,12,0,89327,0:0:0:0:
