osu file format v14

[General]
AudioFilename: tatoe.mp3
AudioLeadIn: 0
PreviewTime: 6538
Countdown: 0
SampleSet: Normal
StackLeniency: 0.7
Mode: 0
LetterboxInBreaks: 0
WidescreenStoryboard: 0

[Editor]
DistanceSpacing: 1.1
BeatDivisor: 6
GridSize: 4
TimelineZoom: 1.8

[Metadata]
Title:MIIRO vs. Ai no Scenario
TitleUnicode:海色 vs. アイのシナリオ
Artist:AKINO from bless4 & CHiCO with HoneyWorks
ArtistUnicode:AKINO from bless4 & CHiCO with HoneyWorks
Creator:monstrata
Version:Tatoe
Source:
Tags:kyshiro sukinathan ktgster pishifat smoothie world walaowey toybot sheela901 yuii- Sharkie みいろ tv size opening kantai collection kancolle fleet girls magic kaito 1412 まじっく快斗1412 艦隊これくしょん -艦これ-
BeatmapID:735272
BeatmapSetID:325158

[Difficulty]
HPDrainRate:6.5
CircleSize:4
OverallDifficulty:9
ApproachRate:9.5
SliderMultiplier:1.8
SliderTickRate:1

[Events]
//Background and Video events
0,0,"miiro_no_scenario.png",0,0
//Break Periods
//Storyboard Layer 0 (Background)
//Storyboard Layer 1 (Fail)
//Storyboard Layer 2 (Pass)
//Storyboard Layer 3 (Foreground)
//Storyboard Sound Samples

[TimingPoints]
0,307.692307692308,4,2,1,60,1,0
1076,-133.333333333333,4,2,1,60,0,0
3692,-145.560407569141,4,1,1,60,0,0
7230,-100,4,1,1,60,0,0
17230,-133.333333333333,4,2,1,45,0,0
25948,-133.333333333333,4,2,1,15,0,0
26051,-117.647058823529,4,2,1,60,0,0
26153,-117.647058823529,4,2,1,15,0,0
26256,-105.263157894737,4,2,1,60,0,0
26358,-105.263157894737,4,2,1,15,0,0
26461,-95.2380952380952,4,2,1,60,0,0
26564,-95.2380952380952,4,2,1,15,0,0
26666,-86.9565217391304,4,2,1,60,0,0
26769,-86.9565217391304,4,2,1,15,0,0
26871,-80,4,2,1,60,0,0
26974,-80,4,2,1,15,0,0
27076,-100,4,1,1,60,0,0
36923,-133.333333333333,4,2,1,45,0,0
46769,-100,4,2,1,60,0,0
55692,333.333333333333,4,2,1,45,1,0
55692,-133.333333333333,4,2,1,45,0,0
56692,333.333333333333,4,1,1,70,1,1
67275,-100,4,2,1,70,0,0
67358,-100,4,1,1,70,0,1
79025,-100,4,1,1,50,0,0

[Colours]
Combo1 : 0,64,128
Combo2 : 0,255,255
Combo3 : 128,0,255
Combo4 : 192,192,192

[HitObjects]
243,164,1076,6,0,L|301:175,1,45.0000017166138,2|0,0:0|0:0,0:0:0:0:
309,146,1230,6,0,L|463:117,1,135.000005149841,6|0,0:0|0:0,0:0:0:0:
472,37,1692,1,0,0:0:0:0:
303,19,1846,2,0,P|286:83|308:146,1,135.000005149842,2|0,0:0|0:0,0:0:0:0:
371,210,2307,1,0,0:0:0:0:
433,273,2461,6,0,P|433:311|408:358,1,67.5000025749208,2|0,0:0|0:0,0:0:0:0:
346,293,2769,2,0,P|313:312|259:314,1,67.5000025749208,2|0,0:0|0:0,0:0:0:0:
285,227,3076,1,2,0:0:0:0:
224,161,3230,1,0,0:0:0:0:
136,180,3384,1,2,0:0:0:0:
108,265,3538,1,0,0:0:0:0:
195,245,3692,6,0,P|224:181|49:200,1,371.250014162064,6|2,0:2|2:2,0:0:0:0:
49,198,4923,5,0,2:0:0:0:
167,331,5076,1,2,2:0:0:0:
224,161,5230,1,2,2:0:0:0:
108,265,5384,5,0,2:0:0:0:
163,95,5538,1,2,2:0:0:0:
285,227,5692,1,2,2:0:0:0:
253,77,5846,5,0,2:0:0:0:
195,245,6000,1,2,2:0:0:0:
73,113,6153,1,2,2:0:0:0:
23,283,6307,5,0,2:0:0:0:
163,95,6461,1,2,2:0:0:0:
255,310,6615,1,2,2:0:0:0:
135,180,6769,2,0,L|47:86,1,123.659998320657,0|0,2:0|2:0,0:0:0:0:
65,41,7230,6,0,B|30:158|30:158|50:227,1,180,4|2,0:0|0:3,0:0:0:0:
195,245,7692,2,0,L|304:224,1,90,8|0,0:0|0:0,0:0:0:0:
407,204,8000,1,0,0:0:0:0:
357,278,8153,1,0,0:0:0:0:
333,153,8307,2,0,P|366:124|409:113,1,90,8|0,0:0|0:0,0:0:0:0:
430,328,8615,6,0,P|397:357|353:368,1,90,2|0,0:2|0:0,0:0:0:0:
283,227,8923,1,8,0:0:0:0:
407,204,9076,2,0,L|489:232,2,45,2|0|2,0:2|0:0|0:2,0:0:0:0:
243,147,9384,1,2,0:2:0:0:
357,278,9538,1,8,0:0:0:0:
413,114,9692,6,0,P|372:73|312:66,1,90,4|0,0:0|0:0,0:0:0:0:
333,153,10000,1,2,0:3:0:0:
488,163,10153,2,0,P|503:106|479:51,1,90,8|0,0:0|0:0,0:0:0:0:
333,153,10461,1,2,0:2:0:0:
401,294,10615,1,0,0:0:0:0:
413,114,10769,1,8,0:0:0:0:
253,193,10923,1,0,0:0:0:0:
395,384,11076,5,2,0:2:0:0:
333,153,11230,1,0,0:0:0:0:
164,322,11384,1,8,0:0:0:0:
407,204,11538,2,0,L|510:153,1,90,2|2,0:2|0:3,0:0:0:0:
179,144,11846,1,0,0:0:0:0:
321,331,12000,1,8,0:0:0:0:
413,114,12153,6,0,P|372:73|257:106,1,180,4|2,0:0|0:3,0:0:0:0:
164,321,12615,2,0,P|120:332|77:320,1,90,8|0,0:0|0:0,0:0:0:0:
179,144,12923,1,2,0:2:0:0:
248,280,13076,1,0,0:0:0:0:
95,185,13230,2,0,P|89:121|109:82,1,90,8|0,0:0|0:0,0:0:0:0:
332,239,13538,5,2,0:2:0:0:
86,271,13692,1,0,0:0:0:0:
186,51,13846,1,8,0:0:0:0:
248,280,14000,2,0,P|258:323|246:366,1,90,2|2,0:2|0:3,0:0:0:0:
2,312,14307,2,0,P|-8:268|3:225,1,90,0|8,0:0|0:0,0:0:0:0:
179,144,14615,1,2,0:2:0:0:
179,144,14692,1,2,0:2:0:0:
179,144,14769,5,8,0:0:0:0:
248,280,14923,1,2,0:2:0:0:
263,103,15076,1,8,0:0:0:0:
95,185,15230,1,2,0:2:0:0:
110,0,15384,1,8,0:0:0:0:
172,237,15538,2,0,L|164:351,1,90,2|0,0:2|0:0,0:0:0:0:
332,243,15846,5,2,0:2:0:0:
179,144,16000,1,8,0:2:0:0:
248,280,16153,1,0,0:0:0:0:
263,103,16306,1,8,0:0:0:0:
86,271,16461,1,0,0:0:0:0:
86,271,16538,1,0,0:0:0:0:
86,271,16615,1,10,0:0:0:0:
110,0,16769,1,10,0:0:0:0:
179,144,16923,5,0,2:0:0:0:
179,144,17230,6,0,L|171:231,2,67.5000025749208,2|0|0,0:0|0:0|0:0,0:0:0:0:
186,51,17692,2,0,P|237:13|326:35,1,135.000005149842,2|0,0:0|0:0,0:0:0:0:
355,97,18153,1,0,0:3:0:0:
314,179,18307,6,0,B|294:224|294:224|320:332,1,135.000005149842,2|0,0:0|0:0,0:0:0:0:
403,325,18769,2,0,L|499:342,1,67.5000025749208,2|0,0:0|0:0,0:0:0:0:
466,260,19077,2,0,L|562:277,2,67.5000025749208,2|0|0,0:0|0:0|0:0,0:0:0:0:
378,237,19538,1,0,0:0:0:0:
314,301,19692,6,0,P|238:308|185:259,1,135.000005149842,2|0,0:0|0:0,0:0:0:0:
140,200,20153,2,0,B|140:154|140:154|191:140|206:85,1,135.000005149842,2|0,0:0|0:0,0:0:0:0:
116,64,20615,1,0,0:0:0:0:
46,122,20769,6,0,L|47:214|47:214,1,67.5000025749208,2|0,0:0|0:0,0:0:0:0:
82,273,21076,2,0,P|142:293|217:250,1,135.000005149842,2|0,0:0|0:0,0:0:0:0:
228,176,21538,2,0,L|320:152,1,67.5000025749208,2|0,0:0|0:0,0:0:0:0:
316,68,21846,2,0,L|408:44,2,67.5000025749208,2|0|2,0:0|0:0|0:0,0:0:0:0:
228,94,22307,1,0,0:0:0:0:
140,68,22461,6,2,L|48:44,1,67.5000025749208,2|0,0:0|0:0,0:0:0:0:
74,142,22769,2,0,L|214:178,1,135.000005149842,2|0,0:0|0:0,0:0:0:0:
293,156,23230,2,0,P|288:216|207:268,1,135.000005149842,2|0,0:0|0:0,0:0:0:0:
147,291,23692,1,0,0:0:0:0:
168,202,23846,6,0,L|202:71,1,135.000005149842,2|0,0:0|0:0,0:0:0:0:
280,24,24307,1,0,0:0:0:0:
437,113,24461,2,0,P|476:173|466:248,2,135.000005149842,2|2|2,0:0|0:0|0:0,0:0:0:0:
360,67,25230,1,2,0:0:0:0:
281,110,25384,1,0,0:0:0:0:
353,246,25538,1,2,0:0:0:0:
357,158,25692,1,0,0:0:0:0:
202,151,25846,6,0,L|125:190,1,45.0000017166138,2|0,1:2|0:0,0:0:0:0:
198,239,26051,6,0,L|193:325,1,51.0000009727478
272,286,26256,6,0,L|344:333,1,56.9999984779358
353,246,26461,6,0,L|430:207,1,62.9999980773926,0|0,1:0|0:0,0:0:0:0:
357,158,26666,6,0,L|361:71,1,69.0000013160706
281,110,26871,6,0,L|208:62,1,75
126,103,27076,6,0,L|43:146,1,90,4|0,0:0|0:0,0:0:0:0:
277,199,27384,2,0,L|360:156,1,90,8|0,0:0|0:0,0:0:0:0:
205,61,27692,1,2,0:2:0:0:
198,240,27846,1,0,0:0:0:0:
281,110,28000,1,8,0:0:0:0:
121,192,28153,6,0,P|108:248|125:292,1,90,2|2,0:3|0:2,0:0:0:0:
349,334,28461,2,0,P|362:278|345:234,1,90,0|8,0:0|0:0,0:0:0:0:
281,110,28769,2,0,P|267:165|284:209,1,90
427,296,29076,1,0,0:0:0:0:
358,158,29230,1,8,0:0:0:0:
273,287,29384,6,0,L|152:321,1,90,0|2,0:0|0:2,0:0:0:0:
35,168,29692,2,0,L|156:202,1,90,0|8,0:0|0:0,0:0:0:0:
359,262,30000,2,0,L|273:287,1,90,0|2,0:0|3:2,0:0:0:0:
99,286,30307,1,0,0:0:0:0:
202,151,30461,1,8,0:0:0:0:
186,311,30615,6,0,P|152:360|24:338,1,180,2|2,0:3|0:3,0:0:0:0:
115,126,31076,2,0,L|236:160,1,90,8|0,0:0|0:0,0:0:0:0:
353,246,31384,1,2,0:2:0:0:
186,311,31538,1,0,3:0:0:0:
280,110,31692,2,0,P|312:78|354:65,1,90,8|0,0:0|0:0,0:0:0:0:
350,335,32000,6,0,P|318:366|276:379,1,90,4|0,0:0|0:0,0:0:0:0:
202,151,32307,1,8,0:0:0:0:
272,287,32461,1,0,0:0:0:0:
280,110,32615,1,2,3:2:0:0:
198,240,32769,1,0,0:0:0:0:
206,62,32923,2,0,L|299:122,1,90,8|2,0:0|0:2,0:0:0:0:
434,205,33230,6,0,P|443:265|360:339,2,180,2|8|0,0:3|0:0|0:0,0:0:0:0:
202,151,34000,1,0,3:0:0:0:
353,246,34153,1,8,0:0:0:0:
360,67,34307,1,2,0:2:0:0:
272,287,34461,6,0,P|305:325|357:337,1,90,4|0,0:0|0:0,0:0:0:0:
281,110,34769,2,0,P|248:72|196:60,1,90,8|0,0:0|0:0,0:0:0:0:
195,329,35076,1,2,0:3:0:0:
353,246,35230,1,2,0:2:0:0:
353,246,35307,1,0,0:0:0:0:
353,246,35384,1,8,0:0:0:0:
202,151,35538,6,0,L|89:209,1,90,2|0,0:3|0:0,0:0:0:0:
272,287,35846,1,2,3:2:0:0:
281,110,36000,1,8,0:0:0:0:
195,329,36153,2,0,P|228:367|280:379,1,90,6|0,0:2|0:0,0:0:0:0:
353,246,36461,1,2,3:2:0:0:
326,259,36537,1,0,0:0:0:0:
300,273,36614,1,0,0:0:0:0:
273,287,36691,1,0,0:0:0:0:
247,300,36768,1,0,0:0:0:0:
221,314,36845,1,0,0:0:0:0:
195,329,36923,6,0,L|52:275,1,135.000005149842,4|0,0:0|0:0,0:0:0:0:
125,221,37384,1,0,2:0:0:0:
223,170,37538,2,0,L|294:196,1,67.5000025749208,2|0,2:0|2:0,0:0:0:0:
188,244,37846,2,0,L|116:217,1,67.5000025749208,2|0,2:0|2:0,0:0:0:0:
275,26,38153,6,0,L|418:80,1,135.000005149842,2|0,2:0|2:0,0:0:0:0:
413,241,38615,2,0,L|287:194,1,135.000005149842,2|0,2:0|2:0,0:0:0:0:
212,50,39076,2,0,L|275:26,1,67.5000025749208,2|2,2:0|2:0,0:0:0:0:
413,146,39384,6,0,L|285:194,1,135.000005149842,2|0,2:0|2:0,0:0:0:0:
86,99,39846,2,0,L|213:50,1,135.000005149842,2|0,2:0|2:0,0:0:0:0:
189,245,40307,2,0,L|125:268,1,67.5000025749208,2|2,2:0|2:0,0:0:0:0:
200,147,40615,6,0,B|300:104|300:180|396:136,2,202.500007724762,2|2|2,2:0|2:0|2:0,0:0:0:0:
189,245,41692,1,0,2:0:0:0:
189,245,41846,6,0,L|178:311,1,67.5000025749208,2|0,2:0|2:0,0:0:0:0:
279,362,42153,2,0,L|268:295,1,67.5000025749208,2|0,2:0|2:0,0:0:0:0:
200,179,42461,2,0,L|189:245,1,67.5000025749208,2|0,2:0|2:0,0:0:0:0:
290,296,42769,2,0,L|279:229,1,67.5000025749208,2|0,2:0|2:0,0:0:0:0:
223,46,43076,6,0,L|200:179,1,135.000005149842,2|0,2:0|2:0,0:0:0:0:
397,189,43538,2,0,L|293:104,1,135.000005149842,2|0,2:0|2:0,0:0:0:0:
185,268,44000,2,0,L|248:244,1,67.5000025749208,2|2,2:0|2:0,0:0:0:0:
419,57,44307,6,0,L|271:112,1,135.000005149842,2|0,2:0|2:0,0:0:0:0:
93,327,44769,2,0,L|240:271,1,135.000005149842,2|0,2:0|2:0,0:0:0:0:
290,180,45230,2,0,L|216:207,1,67.5000025749208,2|2,2:0|2:0,0:0:0:0:
222,367,45538,6,0,P|286:337|307:264,1,135.000005149842,8|2,2:3|2:0,0:0:0:0:
290,17,46000,2,0,P|226:47|205:120,1,135.000005149842,8|0,0:3|0:0,0:0:0:0:
256,192,46461,1,4,0:3:0:0:
473,299,46769,6,0,L|434:209,1,90,4|0,0:0|0:0,0:0:0:0:
401,132,47076,1,2,0:3:0:0:
346,204,47230,1,0,0:0:0:0:
311,121,47384,2,0,P|335:69|376:44,2,90,2|0|2,0:0|0:0|0:3,0:0:0:0:
290,275,47846,1,0,0:0:0:0:
437,216,48000,5,2,0:0:0:0:
346,204,48153,1,0,0:0:0:0:
324,358,48307,2,0,P|369:377|445:351,1,90,2|0,0:3|0:0,0:0:0:0:
256,192,48615,1,2,0:0:0:0:
235,345,48769,1,4,2:0:0:0:
381,289,48923,1,2,0:0:0:0:
311,121,49076,2,0,L|214:109,1,90,12|0,0:0|0:0,0:0:0:0:
75,91,49384,5,0,0:0:0:0:
180,192,49538,1,2,0:3:0:0:
155,48,49692,1,0,0:0:0:0:
91,180,49846,2,0,P|97:227|137:271,1,90,2|0,0:0|0:0,0:0:0:0:
269,204,50153,1,2,0:3:0:0:
180,192,50307,1,0,0:0:0:0:
160,347,50461,5,2,0:0:0:0:
215,276,50615,1,0,0:0:0:0:
91,180,50769,2,0,L|23:267,1,90,8|0,0:3|0:0,0:0:0:0:
248,359,51076,1,12,0:3:0:0:
180,192,51230,1,0,0:0:0:0:
160,347,51384,1,2,0:3:0:0:
269,204,51538,1,2,3:2:0:0:
199,38,51692,5,4,2:0:0:0:
215,276,51846,1,0,0:0:0:0:
450,227,52000,1,12,0:3:0:0:
235,121,52154,1,0,0:0:0:0:
160,347,52307,1,2,3:3:0:0:
358,216,52461,1,2,0:0:0:0:
91,180,52615,1,2,0:3:0:0:
248,359,52769,1,8,0:3:0:0:
323,132,52923,5,10,0:0:0:0:
125,263,53076,1,2,0:0:0:0:
199,38,53230,1,8,0:3:0:0:
358,216,53384,1,2,0:0:0:0:
91,180,53538,1,10,0:0:0:0:
323,132,53691,1,12,0:3:0:0:
248,359,53846,1,2,0:3:0:0:
144,108,54000,1,2,0:3:0:0:
413,143,54153,5,12,0:3:0:0:
160,347,54307,1,2,0:0:0:0:
110,26,54461,1,0,0:3:0:0:
358,216,54615,1,10,0:3:0:0:
69,335,54769,1,0,0:3:0:0:
199,38,54923,1,6,0:3:0:0:
391,299,55076,1,2,0:0:0:0:
407,340,55152,1,2,0:0:0:0:
424,382,55229,1,2,3:2:0:0:
201,196,55692,6,0,P|190:273|252:318,2,135.000005149842
391,114,56692,6,0,L|479:130,1,90,4|0,0:2|0:0,0:0:0:0:
288,219,57025,2,0,L|377:203,1,90,8|0,0:0|0:0,0:0:0:0:
186,291,57358,2,0,L|275:308,2,90,2|0|8,0:3|0:0|0:0,0:0:0:0:
185,106,57858,6,0,P|266:135|287:219,1,180,2|2,0:2|0:2,0:0:0:0:
201,196,58358,1,8,0:0:0:0:
292,113,58525,2,0,L|384:30,1,90,2|0,0:2|0:0,0:0:0:0:
169,16,58858,1,2,0:3:0:0:
115,163,59025,2,0,P|110:208|127:250,1,90,8|0,0:0|0:0,0:0:0:0:
372,261,59358,6,0,P|376:216|359:174,1,90,2|0,0:2|0:0,0:0:0:0:
185,106,59692,2,0,L|100:176,1,90,8|0,0:0|0:0,0:0:0:0:
300,317,60025,1,2,0:3:0:0:
272,139,60192,1,0,0:0:0:0:
130,253,60358,1,8,0:0:0:0:
285,228,60525,6,0,L|386:213,1,90,2|0,0:3|3:0,0:0:0:0:
185,106,60858,2,0,L|84:121,1,90,2|8,0:2|0:0,0:0:0:0:
215,285,61191,2,0,L|316:270,1,90,0|2,0:0|0:3,0:0:0:0:
115,163,61525,2,0,L|14:178,1,90,2|8,0:2|0:0,0:0:0:0:
144,342,61858,1,0,0:0:0:0:
144,342,61941,1,0,0:0:0:0:
144,342,62025,6,0,P|186:372|249:369,1,90,4|0,0:0|0:0,0:0:0:0:
272,139,62358,2,0,P|230:109|167:112,1,90,8|0,0:0|0:0,0:0:0:0:
130,253,62691,1,2,0:2:0:0:
285,228,62858,1,0,0:0:0:0:
259,50,63025,1,8,0:0:0:0:
201,196,63191,1,2,0:3:0:0:
369,260,63358,6,0,L|483:303,1,90,2|0,0:2|0:0,0:0:0:0:
228,374,63691,2,0,L|143:342,1,90,8|0,0:0|0:0,0:0:0:0:
272,139,64025,1,2,0:2:0:0:
300,317,64191,1,0,0:0:0:0:
201,196,64358,1,8,0:0:0:0:
259,50,64524,1,2,0:3:0:0:
285,228,64691,5,2,0:2:0:0:
117,164,64858,1,0,0:0:0:0:
357,172,65025,1,8,0:0:0:0:
226,379,65191,1,2,0:2:0:0:
272,139,65358,1,2,0:2:0:0:
456,298,65525,1,2,0:2:0:0:
215,285,65691,1,8,0:0:0:0:
343,81,65858,1,2,0:2:0:0:
300,317,66025,5,4,0:2:0:0:
201,196,66191,1,0,0:0:0:0:
357,172,66358,1,8,0:0:0:0:
226,379,66525,1,2,3:2:0:0:
196,377,66608,1,0,3:0:0:0:
168,366,66691,1,8,3:1:0:0:
145,347,66775,1,0,3:0:0:0:
129,322,66858,1,0,3:0:0:0:
122,293,66941,1,0,3:0:0:0:
125,263,67025,5,8,3:1:0:0:
171,245,67108,1,0,3:0:0:0:
204,207,67191,1,8,3:1:0:0:
214,158,67274,1,0,3:0:0:0:
198,110,67358,6,0,P|168:80|107:67,1,90,4|0,0:0|0:0,0:0:0:0:
44,231,67691,2,0,P|81:256|125:263,1,90,8|0,0:0|0:0,0:0:0:0:
285,228,68025,1,2,0:3:0:0:
117,164,68192,1,0,0:0:0:0:
215,285,68358,1,8,0:0:0:0:
357,172,68525,6,0,L|248:186,1,90,2|2,0:2|3:3,0:0:0:0:
126,297,68858,2,0,L|234:282,1,90,0|8,0:0|0:0,0:0:0:0:
429,116,69191,2,0,L|320:130,1,90,0|2,0:0|0:3,0:0:0:0:
117,164,69525,1,2,0:2:0:0:
285,228,69691,1,8,0:0:0:0:
259,50,69858,1,2,0:3:0:0:
32,132,70025,6,0,P|27:176|46:220,1,90,2|0,0:2|0:0,0:0:0:0:
369,259,70358,2,0,P|374:214|355:171,1,90,8|0,0:0|0:0,0:0:0:0:
185,106,70691,1,2,0:2:0:0:
285,228,70858,1,0,0:0:0:0:
429,116,71025,1,8,0:0:0:0:
272,139,71191,6,0,L|188:205,1,90,2|2,0:2|0:3,0:0:0:0:
33,132,71525,2,0,L|116:65,1,90,0|8,0:0|0:0,0:0:0:0:
130,251,71858,2,0,L|60:307,1,90,2|2,0:2|0:3,0:0:0:0:
185,106,72191,1,2,3:0:0:0:
285,228,72358,1,8,0:0:0:0:
117,164,72525,1,2,0:3:0:0:
259,50,72691,6,0,P|307:56|357:117,1,90,4|0,0:0|0:0,0:0:0:0:
143,340,73025,2,0,P|95:334|45:273,1,90,8|0,0:0|0:0,0:0:0:0:
272,139,73358,1,2,0:3:0:0:
300,317,73525,1,0,0:0:0:0:
201,196,73691,1,8,0:0:0:0:
259,50,73858,1,2,0:3:0:0:
285,228,74025,6,0,L|304:345,1,90,4|0,0:0|0:0,0:0:0:0:
117,164,74358,2,0,L|98:47,1,90,8|0,0:0|0:0,0:0:0:0:
357,172,74691,1,2,0:3:0:0:
215,285,74858,1,0,0:0:0:0:
103,75,75025,1,8,0:0:0:0:
272,139,75191,1,2,0:3:0:0:
143,340,75358,5,2,0:2:0:0:
117,164,75525,1,0,0:0:0:0:
285,228,75691,1,8,0:0:0:0:
130,251,75858,5,2,0:2:0:0:
259,50,76025,1,2,0:3:0:0:
369,259,76191,1,2,2:0:0:0:
117,164,76358,5,8,0:0:0:0:
343,81,76525,1,2,0:2:0:0:
297,315,76691,6,0,L|308:367,1,45,8|0,0:0|0:0,0:0:0:0:
187,106,76858,2,0,L|176:54,1,45,0|0,0:0|0:0,0:0:0:0:
58,307,77025,2,0,L|6:318,1,45,8|0,0:0|0:0,0:0:0:0:
285,228,77191,2,0,L|337:217,1,45,0|0,0:0|0:0,0:0:0:0:
103,75,77358,6,0,L|92:23,1,45,8|0,0:0|0:0,0:0:0:0:
213,284,77525,2,0,L|224:336,1,45,0|0,0:0|0:0,0:0:0:0:
343,81,77691,2,0,L|395:70,1,45,8|0,0:0|0:0,0:0:0:0:
117,164,77858,2,0,L|65:175,1,45,0|0,0:0|0:0,0:0:0:0:
369,259,78025,5,2,0:3:0:0:
173,13,78191,1,8,0:3:0:0:
59,307,78358,1,4,0:3:0:0:
437,201,78525,5,2,0:3:0:0:
187,106,78691,1,8,0:3:0:0:
229,370,78858,1,4,0:3:0:0:
343,81,79025,5,4,0:0:0:0:
256,192,79108,12,0,80691,0:0:0:0:
