osu file format v14

[General]
AudioFilename: tatoe.mp3
AudioLeadIn: 0
PreviewTime: 6538
Countdown: 0
SampleSet: Soft
StackLeniency: 0.7
Mode: 0
LetterboxInBreaks: 0
WidescreenStoryboard: 0

[Editor]
DistanceSpacing: 1
BeatDivisor: 4
GridSize: 4
TimelineZoom: 1.8

[Metadata]
Title:MIIRO vs. Ai no Scenario
TitleUnicode:海色 vs. アイのシナリオ
Artist:AKINO from bless4 & CHiCO with HoneyWorks
ArtistUnicode:AKINO from bless4 & CHiCO with HoneyWorks
Creator:monstrata
Version:Normal
Source:
Tags:kyshiro sukinathan ktgster pishifat smoothie world walaowey toybot sheela901 yuii- Sharkie みいろ tv size opening kantai collection kancolle fleet girls magic kaito 1412 まじっく快斗1412 艦隊これくしょん -艦これ-
BeatmapID:729927
BeatmapSetID:325158

[Difficulty]
HPDrainRate:4
CircleSize:3
OverallDifficulty:4.5
ApproachRate:5.4
SliderMultiplier:0.95
SliderTickRate:1

[Events]
//Background and Video events
0,0,"miiro_no_scenario.png",0,0
//Break Periods
//Storyboard Layer 0 (Background)
//Storyboard Layer 1 (Fail)
//Storyboard Layer 2 (Pass)
//Storyboard Layer 3 (Foreground)
//Storyboard Sound Samples

[TimingPoints]
0,307.692307692308,4,2,1,60,1,0
1076,-100,4,2,1,60,0,0
3692,-100,4,1,1,60,0,0
4923,-100,4,1,1,60,0,0
7230,-100,4,1,1,60,0,0
17230,-100,4,2,1,45,0,0
27076,-100,4,1,1,60,0,0
36923,-100,4,2,1,45,0,0
46769,-100,4,2,1,60,0,0
55692,333.333333333333,4,2,1,45,1,0
56692,333.333333333333,4,1,1,70,1,1
66025,-105.263157894737,4,1,1,70,0,1
67275,-100,4,2,1,70,0,0
67358,-100,4,1,1,70,0,1
79025,-100,4,1,1,50,0,0

[Colours]
Combo1 : 0,64,128
Combo2 : 0,255,255
Combo3 : 128,0,255
Combo4 : 192,192,192

[HitObjects]
271,236,1230,6,0,L|379:272,2,95,6|0|2,0:0|0:0|0:0,0:0:0:0:
181,204,2153,2,0,L|125:222,1,47.5,0|0,0:0|0:0,0:0:0:0:
90,234,2461,2,0,P|83:288|139:354,2,142.5,2|0|2,0:0|0:0|0:0,0:0:0:0:
111,141,3692,2,0,B|120:105|120:105|229:74,2,142.5,6|0|2,0:2|0:0|2:2,0:0:0:0:
90,234,4923,6,0,B|81:274|81:274|15:295|0:338,2,142.5,0|0|0,2:0|2:0|2:0,0:0:0:0:
182,203,6153,2,0,B|275:164|275:244|367:204,1,190,2|0,2:0|2:0,0:0:0:0:
490,136,7230,6,0,L|512:284,1,142.5,4|8,0:0|0:0,0:0:0:0:
435,337,8000,2,0,L|387:374,2,47.5,0|0|8,0:0|0:0|0:0,0:0:0:0:
421,242,8615,2,0,P|384:215|334:202,1,95,2|8,0:2|0:0,0:0:0:0:
290,189,9076,2,0,B|274:233|274:233|285:280|285:280|266:323,1,142.5,2|8,0:2|0:0,0:0:0:0:
246,366,9692,6,0,P|210:327|119:338,1,142.5,4|8,0:0|0:0,0:0:0:0:
32,347,10461,2,0,L|-10:380,2,47.5,2|0|8,0:2|0:0|0:0,0:0:0:0:
67,259,11076,2,0,L|103:172,1,95,2|8,0:2|0:0,0:0:0:0:
120,126,11538,2,0,B|192:100|192:152|258:125,1,142.5,2|8,0:2|0:0,0:0:0:0:
300,103,12153,6,0,L|271:256,1,142.5,4|8,0:0|0:0,0:0:0:0:
185,279,12923,2,0,L|131:297,2,47.5,2|0|8,0:2|0:0|0:0,0:0:0:0:
261,338,13538,2,0,L|314:356,2,47.5,2|0|8,0:2|0:0|0:0,0:0:0:0:
219,362,14000,1,2,0:2:0:0:
124,350,14307,2,0,B|77:343|77:343|50:298,1,95,0|2,0:0|0:2,0:0:0:0:
33,258,14769,6,0,P|73:239|97:182,1,95,8|8,0:0|0:0,0:0:0:0:
182,155,15384,2,0,P|178:199|215:248,1,95,8|0,0:0|0:0,0:0:0:0:
286,289,16000,1,8,0:2:0:0:
368,242,16307,1,8,0:0:0:0:
368,147,16615,2,0,L|333:87,1,47.5,2|2,0:0|0:0,0:0:0:0:
201,96,17230,6,0,P|215:161|163:234,2,142.5,2|2|0,0:0|0:0|0:3,0:0:0:0:
121,148,18461,2,0,P|85:207|98:276,2,142.5,0|0|0,0:0|0:0|0:0,0:0:0:0:
185,225,19692,6,0,B|280:230|280:230|334:271,2,142.5,2|2|0,0:0|0:0|0:0,0:0:0:0:
134,305,20923,2,0,B|38:299|38:299|-15:259,2,142.5,0|0|2,0:0|0:0|0:0,0:0:0:0:
217,349,22153,6,0,P|252:371|313:373,2,95,2|2|2,0:0|0:0|0:0,0:0:0:0:
191,256,23076,2,0,L|130:241,1,47.5,0|2,0:0|0:0,0:0:0:0:
98,233,23384,2,0,P|66:261|49:319,2,95,0|0|0,0:0|0:0|0:0,0:0:0:0:
165,165,24307,2,0,L|226:150,1,47.5,0|2,0:0|0:0,0:0:0:0:
257,142,24615,6,0,B|362:167,2,95,0|0|2,0:0|0:0|0:0,0:0:0:0:
186,78,25538,2,0,B|133:90,1,47.5,2|0,0:0|0:0,0:0:0:0:
93,100,25846,5,2,1:2:0:0:
93,100,27076,5,4,0:0:0:0:
186,78,27384,1,8,0:0:0:0:
251,147,27692,2,0,P|249:195|212:248,1,95,2|8,0:2|0:0,0:0:0:0:
236,282,28153,2,0,B|194:262|194:262|158:295|94:295|57:254,1,190,2|0,0:3|0:0,0:0:0:0:
35,167,29076,1,0,0:0:0:0:
129,190,29384,6,0,B|221:165|221:165|275:72,1,190,2|0,0:3|0:0,0:0:0:0:
324,160,30307,2,0,L|289:220,1,47.5,0|8,0:0|0:0,0:0:0:0:
277,243,30615,2,0,P|345:248|397:305,1,142.5,2|8,0:3|0:0,0:0:0:0:
304,337,31384,2,0,L|248:359,2,47.5,2|0|8,0:2|3:0|0:0,0:0:0:0:
387,383,32000,6,0,P|447:364|460:248,1,190,4|2,0:0|3:2,0:0:0:0:
407,172,32923,1,8,0:0:0:0:
330,229,33230,2,0,L|405:310,2,95,2|8|0,0:3|0:0|0:0,0:0:0:0:
320,134,34153,1,8,0:0:0:0:
398,80,34461,6,0,P|414:125|406:171,1,95,4|8,0:0|0:0,0:0:0:0:
492,213,35076,2,0,P|461:248|417:265,1,95,2|8,0:3|0:0,0:0:0:0:
369,255,35538,2,0,B|350:252|331:231|331:231|289:265|231:246,1,142.5,2|8,0:3|0:0,0:0:0:0:
192,246,36153,2,0,P|192:179|144:126,1,142.5,6|0,0:2|0:0,0:0:0:0:
103,213,36923,5,4,0:0:0:0:
103,213,37538,2,0,L|57:311,1,95,2|2,2:0|2:0,0:0:0:0:
149,336,38153,2,0,B|240:376|240:300|336:348,1,190,2|0,2:0|0:0,0:0:0:0:
420,381,39076,1,2,2:0:0:0:
493,322,39384,6,0,P|490:248|398:194,1,190,2|0,2:0|0:0,0:0:0:0:
320,249,40307,1,2,2:0:0:0:
232,211,40615,2,0,B|144:173|144:173|87:189,2,142.5,2|2|2,2:0|2:0|2:0,0:0:0:0:
309,154,41846,5,2,2:0:0:0:
309,154,42153,2,0,L|404:85,2,95,2|2|2,2:0|2:0|2:0,0:0:0:0:
221,115,43076,2,0,B|178:91|130:118|130:118|100:229,1,190,2|0,2:0|0:0,0:0:0:0:
83,301,44000,1,2,2:0:0:0:
173,274,44307,6,0,B|232:243|292:281|292:281|369:256,1,190,2|0,2:0|0:0,0:0:0:0:
443,231,45230,1,2,2:0:0:0:
461,138,45538,2,0,P|428:92|338:79,2,142.5,8|8|4,2:3|0:3|0:3,0:0:0:0:
371,168,46769,6,0,B|323:178|323:178|264:155,1,95,4|2,0:0|0:3,0:0:0:0:
217,89,47384,2,0,P|189:132|207:224,1,142.5,2|0,0:0|0:0,0:0:0:0:
223,261,48000,2,0,L|324:303,1,95,2|2,0:0|0:3,0:0:0:0:
372,370,48615,2,0,P|401:326|379:232,1,142.5,2|12,0:0|0:0,0:0:0:0:
367,197,49230,6,0,L|265:154,1,95,0|2,0:0|0:3,0:0:0:0:
189,127,49846,2,0,B|156:196|216:196|180:264,1,142.5,2|0,0:0|0:0,0:0:0:0:
140,289,50461,2,0,P|93:294|51:262,1,95,2|8,0:0|0:3,0:0:0:0:
22,178,51076,2,0,B|42:134|15:87|15:87|80:80,1,142.5,12|2,0:3|3:2,0:0:0:0:
256,192,51692,12,10,55230,2:3:0:0:
163,209,56692,6,0,P|138:254|144:318,1,95,4|8,0:2|0:0,0:0:0:0:
234,277,57358,2,0,L|286:266,1,47.5,2|0,0:3|0:0,0:0:0:0:
305,224,57692,2,0,L|357:214,1,47.5,8|2,0:0|0:2,0:0:0:0:
376,172,58025,2,0,L|475:151,2,95,0|8|0,0:0|0:0|0:0,0:0:0:0:
290,129,59025,1,8,0:0:0:0:
210,181,59358,6,0,P|158:181|106:143,1,95,2|8,0:2|0:0,0:0:0:0:
186,89,60025,2,0,L|229:43,1,47.5,2|0,0:3|0:0,0:0:0:0:
263,65,60358,2,0,L|324:47,1,47.5,8|2,0:0|0:3,0:0:0:0:
342,83,60691,2,0,L|435:105,2,95,0|8|2,3:0|0:0|0:3,0:0:0:0:
273,149,61691,1,8,0:0:0:0:
294,242,62025,6,0,P|273:279|209:310,1,95,4|8,0:0|0:0,0:0:0:0:
136,282,62691,2,0,L|84:296,2,47.5,2|0|8,0:2|0:0|0:0,0:0:0:0:
203,214,63358,2,0,P|224:177|288:146,1,95,2|8,0:2|0:0,0:0:0:0:
361,174,64025,2,0,L|412:159,2,47.5,2|0|8,0:2|0:0|0:0,0:0:0:0:
294,242,64691,6,0,P|273:279|128:274,1,190,2|2,0:2|0:2,0:0:0:0:
73,218,65691,2,0,L|75:150,1,47.5,8|2,0:0|0:2,0:0:0:0:
76,124,66025,6,0,B|104:116|104:116|132:124|132:124|160:116|160:116|188:124|188:124|216:116|216:116|244:124|244:124|272:116|272:116|300:124|300:124|328:116|328:116|356:108,1,270.749992770195,4|8,0:2|3:1,0:0:0:0:
428,112,67358,6,0,L|392:211,1,95,4|8,0:0|0:0,0:0:0:0:
358,289,68025,2,0,L|306:298,1,47.5,2|0,0:3|0:0,0:0:0:0:
264,305,68358,1,8,0:0:0:0:
182,258,68691,2,0,P|170:206|188:152,2,95,2|8|2,3:3|0:0|0:3,0:0:0:0:
265,211,69691,1,8,0:0:0:0:
347,259,70025,6,0,P|399:271|453:253,1,95,2|8,0:2|0:0,0:0:0:0:
394,176,70691,2,0,L|361:115,1,47.5,2|0,0:2|0:0,0:0:0:0:
350,91,71025,1,8,0:0:0:0:
254,86,71358,2,0,B|251:117|251:117|259:149|259:149|252:179,2,95,2|8|2,0:3|0:0|0:3,0:0:0:0:
307,6,72358,1,8,0:0:0:0:
402,11,72691,6,0,L|461:14,2,47.5,4|0|8,0:0|0:0|0:0,0:0:0:0:
350,91,73358,1,2,0:3:0:0:
254,86,73691,1,8,0:0:0:0:
201,166,74025,2,0,L|141:162,2,47.5,4|0|8,0:0|0:0|0:0,0:0:0:0:
244,251,74691,1,2,0:3:0:0:
339,256,75025,1,8,0:0:0:0:
381,339,75358,6,0,P|430:355|488:337,1,95,2|8,0:2|0:0,0:0:0:0:
510,316,75858,2,0,P|526:251|511:205,1,95,2|2,0:2|2:0,0:0:0:0:
491,187,76358,1,8,0:0:0:0:
433,260,76691,2,0,L|369:256,1,47.5,8|0,0:0|0:0,0:0:0:0:
344,281,77025,2,0,L|280:277,1,47.5,8|0,0:0|0:0,0:0:0:0:
255,302,77358,1,8,0:0:0:0:
160,296,77691,1,8,0:0:0:0:
102,220,78025,6,0,B|77:179|77:179|88:115,1,95,2|4,0:3|0:3,0:0:0:0:
130,119,78525,2,0,B|174:102|174:102|197:60,1,95,2|4,0:3|0:3,0:0:0:0:
215,16,79025,1,4,0:0:0:0:
256,192,79191,12,0,80691,0:0:0:0:
