osu file format v14

[General]
AudioFilename: tatoe.mp3
AudioLeadIn: 0
PreviewTime: 6538
Countdown: 0
SampleSet: Soft
StackLeniency: 0.7
Mode: 0
LetterboxInBreaks: 0
WidescreenStoryboard: 0

[Editor]
DistanceSpacing: 2
BeatDivisor: 4
GridSize: 4
TimelineZoom: 1.9

[Metadata]
Title:MIIRO vs. Ai no Scenario
TitleUnicode:海色 vs. アイのシナリオ
Artist:AKINO from bless4 & CHiCO with HoneyWorks
ArtistUnicode:AKINO from bless4 & CHiCO with HoneyWorks
Creator:monstrata
Version:Extra
Source:
Tags:kyshiro sukinathan ktgster pishifat smoothie world walaowey toybot sheela901 yuii- Sharkie みいろ tv size opening kantai collection kancolle fleet girls magic kaito 1412 まじっく快斗1412 艦隊これくしょん -艦これ-
BeatmapID:723891
BeatmapSetID:325158

[Difficulty]
HPDrainRate:6
CircleSize:4
OverallDifficulty:8.6
ApproachRate:9.1
SliderMultiplier:1.7
SliderTickRate:1

[Events]
//Background and Video events
0,0,"miiro_no_scenario.png",0,0
//Break Periods
//Storyboard Layer 0 (Background)
//Storyboard Layer 1 (Fail)
//Storyboard Layer 2 (Pass)
//Storyboard Layer 3 (Foreground)
//Storyboard Sound Samples

[TimingPoints]
0,307.692307692308,4,2,1,60,1,0
1076,-133.333333333333,4,2,1,60,0,0
3692,-133.333333333333,4,1,1,60,0,0
7230,-100,4,1,1,60,0,0
17230,-133.333333333333,4,2,1,45,0,0
25948,-133.333333333333,4,2,1,15,0,0
26051,-117.647058823529,4,2,1,60,0,0
26153,-117.647058823529,4,2,1,15,0,0
26256,-105.263157894737,4,2,1,60,0,0
26358,-105.263157894737,4,2,1,15,0,0
26461,-95.2380952380952,4,2,1,60,0,0
26564,-95.2380952380952,4,2,1,15,0,0
26666,-86.9565217391304,4,2,1,60,0,0
26769,-86.9565217391304,4,2,1,15,0,0
26871,-80,4,2,1,60,0,0
26974,-80,4,2,1,15,0,0
27076,-100,4,1,1,60,0,0
36923,-133.333333333333,4,2,1,45,0,0
46769,-100,4,2,1,60,0,0
55692,333.333333333333,4,2,1,45,1,0
55692,-133.333333333333,4,2,1,45,0,0
56692,333.333333333333,4,1,1,70,1,1
67275,-100,4,2,1,70,0,0
67358,-100,4,1,1,70,0,1
79025,-100,4,1,1,50,0,0

[Colours]
Combo1 : 0,64,128
Combo2 : 0,255,255
Combo3 : 128,0,255
Combo4 : 192,192,192

[HitObjects]
389,205,1076,6,0,L|434:190,1,42.5000016212464,2|0,0:0|0:0,0:0:0:0:
426,230,1230,6,0,L|511:246,1,63.7500024318696,6|0,0:0|0:0,0:0:0:0:
433,320,1538,2,0,L|443:406,1,63.7500024318696,0|0,0:0|0:0,0:0:0:0:
349,354,1846,2,0,L|270:390,1,63.7500024318696,2|0,0:0|0:0,0:0:0:0:
290,284,2153,2,0,L|230:220,1,63.7500024318696,0|0,0:0|0:0,0:0:0:0:
288,171,2461,6,0,L|348:235,1,63.7500024318696,2|0,0:0|0:0,0:0:0:0:
340,108,2769,2,0,L|404:48,1,63.7500024318696,2|0,0:0|0:0,0:0:0:0:
277,56,3076,2,0,L|217:-8,1,63.7500024318696,2|0,0:0|0:0,0:0:0:0:
225,119,3384,2,0,L|161:179,1,63.7500024318696,2|0,0:0|0:0,0:0:0:0:
26,176,3692,6,0,P|13:256|44:303,1,127.500004863739,6|0,0:2|2:0,0:0:0:0:
186,280,4153,2,0,P|199:200|168:153,1,127.500004863739,0|0,0:0|2:0,0:0:0:0:
106,228,4615,1,2,2:2:0:0:
374,339,4923,5,0,2:0:0:0:
403,214,5076,1,2,2:0:0:0:
279,185,5230,1,2,2:0:0:0:
374,339,5384,5,0,2:0:0:0:
417,218,5537,1,2,2:0:0:0:
297,174,5691,1,2,2:0:0:0:
374,339,5846,5,0,2:0:0:0:
432,223,5999,1,2,2:0:0:0:
318,165,6153,1,2,2:0:0:0:
374,339,6307,5,0,2:0:0:0:
445,231,6460,1,2,2:0:0:0:
340,160,6614,1,2,2:0:0:0:
374,339,6769,6,0,B|428:355|471:336|471:336|456:310,1,127.500004863739,0|0,2:0|2:0,0:0:0:0:
322,271,7230,6,0,B|205:283|205:283|146:262,1,170,4|2,0:0|0:3,0:0:0:0:
136,181,7692,2,0,L|216:208,1,85,8|0,0:0|0:0,0:0:0:0:
174,349,8000,2,0,L|93:321,1,85,0|0,0:0|0:0,0:0:0:0:
55,153,8307,2,0,P|83:112|151:99,1,85,8|0,0:0|0:0,0:0:0:0:
297,236,8615,6,0,P|269:277|201:290,2,85,2|0|8,0:2|0:0|0:0,0:0:0:0:
298,97,9076,2,0,P|266:52|230:35,1,85,2|2,0:2|0:2,0:0:0:0:
216,208,9384,1,2,0:2:0:0:
348,167,9538,1,8,0:0:0:0:
215,122,9692,6,0,P|166:138|141:250,1,170,4|2,0:0|0:3,0:0:0:0:
382,245,10153,2,0,P|411:223|432:174,1,85,8|0,0:0|0:0,0:0:0:0:
297,236,10461,1,2,0:2:0:0:
416,323,10615,1,0,0:0:0:0:
348,167,10769,1,8,0:0:0:0:
211,226,10923,1,0,0:0:0:0:
382,245,11076,5,2,0:2:0:0:
314,89,11230,1,0,0:0:0:0:
211,226,11384,1,8,0:0:0:0:
416,323,11538,2,0,P|457:286|466:248,1,85,2|2,0:2|0:3,0:0:0:0:
262,157,11846,1,0,0:0:0:0:
332,315,12000,1,8,0:0:0:0:
434,177,12153,6,0,P|414:110|298:95,1,170,4|2,0:0|0:3,0:0:0:0:
126,217,12615,2,0,P|144:280|178:305,1,85,8|0,0:0|0:0,0:0:0:0:
332,315,12923,1,2,0:2:0:0:
211,226,13076,1,0,0:0:0:0:
382,245,13230,2,0,P|411:282|417:319,1,85,8|0,0:0|0:0,0:0:0:0:
247,307,13538,5,2,0:2:0:0:
348,167,13692,1,0,0:0:0:0:
332,315,13846,1,8,0:0:0:0:
162,299,14000,2,0,L|54:288,1,85,2|2,0:2|0:3,0:0:0:0:
177,148,14307,2,0,L|285:159,1,85,0|8,0:0|0:0,0:0:0:0:
198,377,14615,1,2,0:2:0:0:
198,377,14692,1,2,0:2:0:0:
198,377,14769,5,8,0:0:0:0:
126,217,14923,1,2,0:2:0:0:
297,236,15076,1,8,0:0:0:0:
77,290,15230,1,2,0:2:0:0:
177,148,15384,1,8,0:0:0:0:
247,307,15538,2,0,L|288:396,1,85,2|0,0:2|0:0,0:0:0:0:
382,245,15846,1,2,0:2:0:0:
162,299,16000,5,8,0:2:0:0:
332,315,16153,1,0,0:0:0:0:
177,148,16307,5,8,0:0:0:0:
247,307,16461,1,0,0:0:0:0:
399,98,16615,5,10,0:0:0:0:
211,226,16769,1,10,0:0:0:0:
382,245,17230,6,0,P|310:244|264:179,1,127.500004863739,2|0,0:0|0:0,0:0:0:0:
348,167,17692,2,0,P|420:168|464:224,1,127.500004863739,2|0,0:0|0:0,0:0:0:0:
483,288,18153,1,0,0:3:0:0:
404,326,18307,1,2,0:0:0:0:
404,326,18461,6,0,B|340:356|340:304|276:336,1,127.500004863739,0|2,0:0|0:0,0:0:0:0:
200,364,18923,2,0,P|237:334|247:251,1,127.500004863739,0|0,0:0|0:0,0:0:0:0:
188,202,19384,1,0,0:0:0:0:
107,227,19538,1,0,0:0:0:0:
107,227,19692,6,0,L|86:318,2,63.7500024318696,2|0|0,0:0|0:0|0:0,0:0:0:0:
125,145,20153,2,0,P|167:119|243:137,1,127.500004863739,2|0,0:0|0:0,0:0:0:0:
272,213,20615,1,0,0:0:0:0:
357,225,20769,2,0,P|388:203|410:158,1,63.7500024318696,2|0,0:0|0:0,0:0:0:0:
325,146,21076,6,0,B|307:271|307:271|331:296|332:343,1,191.250007295609,2|2,0:0|0:0,0:0:0:0:
244,331,21692,1,0,0:0:0:0:
244,331,21846,2,0,P|224:306|217:275,1,63.7500024318696,2|0,0:0|0:0,0:0:0:0:
182,198,22153,6,0,L|263:211,1,63.7500024318696,2|0,0:0|0:0,0:0:0:0:
300,142,22461,2,0,L|381:155,1,63.7500024318696,2|0,0:0|0:0,0:0:0:0:
418,86,22769,2,0,L|499:99,2,63.7500024318696,2|0|0,0:0|0:0|0:0,0:0:0:0:
334,71,23230,6,0,B|279:63|279:63|229:83|223:130,1,127.500004863739,2|0,0:0|0:0,0:0:0:0:
240,195,23692,1,0,0:0:0:0:
346,261,23846,2,0,L|300:141,1,127.500004863739,2|0,0:0|0:0,0:0:0:0:
240,195,24307,1,0,0:0:0:0:
305,335,24461,6,0,P|356:344|424:289,2,127.500004863739,2|2|2,0:0|0:0|0:0,0:0:0:0:
222,315,25230,2,0,B|170:302|170:302|141:330|91:323,1,127.500004863739,2|2,0:0|0:0,0:0:0:0:
114,238,25692,1,0,0:0:0:0:
127,151,25846,6,0,L|137:81,1,42.5000016212464,2|0,1:2|0:0,0:0:0:0:
202,145,26051,6,0,L|208:96,1,48.1666675853729,0|0,0:0|0:0,0:0:0:0:
277,139,26256,6,0,L|287:69,1,53.8333318958283,0|0,0:0|0:0,0:0:0:0:
352,133,26461,6,0,L|360:73,1,59.4999981842042,0|0,1:0|0:0,0:0:0:0:
427,127,26666,6,0,L|437:57,1,65.1666679096222,0|0,0:0|0:0,0:0:0:0:
502,120,26871,6,0,L|511:49,1,70.8333333333333,0|0,0:0|0:0,0:0:0:0:
387,253,27076,6,0,L|372:365,1,85,4|0,0:0|0:0,0:0:0:0:
162,266,27384,2,0,L|240:233,1,85,8|0,0:0|0:0,0:0:0:0:
397,168,27692,1,2,0:2:0:0:
251,148,27846,1,0,0:0:0:0:
387,253,28000,1,8,0:0:0:0:
407,83,28153,6,0,P|345:100|317:139,1,85,2|2,0:3|0:2,0:0:0:0:
377,338,28461,2,0,P|439:321|467:282,1,85,0|8,0:0|0:0,0:0:0:0:
319,201,28769,2,0,L|214:244,1,85,0|0,0:0|0:0,0:0:0:0:
83,298,29076,1,0,0:0:0:0:
229,318,29230,1,8,0:0:0:0:
71,382,29384,6,0,P|23:358|0:304,1,85,0|2,0:0|0:2,0:0:0:0:
107,130,29692,2,0,P|155:154|178:208,1,85,0|8,0:0|0:0,0:0:0:0:
229,318,30000,2,0,L|115:303,1,85,0|2,0:0|3:2,0:0:0:0:
319,201,30307,1,0,0:0:0:0:
377,338,30460,1,8,0:0:0:0:
240,233,30615,6,0,P|233:192|249:151,1,85,2|0,0:3|0:0,0:0:0:0:
397,167,30923,1,2,0:3:0:0:
309,286,31076,2,0,L|213:325,1,85,8|0,0:0|0:0,0:0:0:0:
95,214,31384,1,2,0:2:0:0:
240,233,31538,1,0,3:0:0:0:
83,298,31692,2,0,P|41:280|14:239,1,85,8|0,0:0|0:0,0:0:0:0:
251,148,32000,6,0,B|275:112|330:104|364:128|364:128|421:101,2,170,4|8|2,0:0|0:0|3:2,0:0:0:0:
162,266,32769,1,0,0:0:0:0:
319,201,32923,1,8,0:0:0:0:
173,182,33076,1,2,0:2:0:0:
309,286,33230,6,0,B|392:320|392:256|476:296,2,170,2|8|0,0:3|0:0|0:0,0:0:0:0:
173,182,34000,1,0,3:0:0:0:
230,318,34153,1,8,0:0:0:0:
319,201,34307,1,2,0:2:0:0:
95,214,34461,6,0,P|77:273|100:325,1,85,4|0,0:0|0:0,0:0:0:0:
319,201,34769,2,0,P|337:142|314:90,1,85,8|0,0:0|0:0,0:0:0:0:
107,130,35076,1,2,0:3:0:0:
240,233,35230,1,2,0:2:0:0:
240,233,35307,1,0,0:0:0:0:
241,234,35384,1,8,0:0:0:0:
263,65,35538,6,0,L|179:4,1,85,2|0,0:3|0:0,0:0:0:0:
173,182,35846,1,2,3:2:0:0:
329,117,36000,1,8,0:0:0:0:
107,130,36153,2,0,P|88:176|101:223,1,85,6|0,0:2|0:0,0:0:0:0:
230,318,36461,1,2,3:2:0:0:
247,291,36537,1,0,0:0:0:0:
254,260,36614,1,0,0:0:0:0:
247,229,36691,1,0,0:0:0:0:
230,203,36768,1,0,0:0:0:0:
203,186,36845,1,0,0:0:0:0:
173,182,36923,6,0,L|41:222,1,127.500004863739,4|0,0:0|0:0,0:0:0:0:
39,303,37384,1,0,2:0:0:0:
105,355,37538,2,0,L|184:331,1,63.7500024318696,2|0,2:0|2:0,0:0:0:0:
178,252,37846,2,0,L|117:271,1,63.7500024318696,2|0,2:0|2:0,0:0:0:0:
244,304,38153,2,0,P|304:287|338:224,1,127.500004863739,2|0,2:0|2:0,0:0:0:0:
240,105,38615,2,0,P|224:165|262:226,1,127.500004863739,2|0,2:0|2:0,0:0:0:0:
307,155,39076,1,2,2:0:0:0:
307,155,39384,6,0,B|394:144|394:144|445:169,1,127.500004863739,2|0,2:0|2:0,0:0:0:0:
366,309,39846,2,0,B|279:320|279:320|228:295,1,127.500004863739,2|0,2:0|2:0,0:0:0:0:
336,232,40307,1,2,2:0:0:0:
336,232,40615,2,0,B|427:190|427:275|529:225,2,191.250007295609,2|2|2,2:0|2:0|2:0,0:0:0:0:
82,184,41846,6,0,P|44:185|10:202,1,63.7500024318696,2|0,2:0|2:0,0:0:0:0:
63,263,42153,2,0,P|44:296|42:334,1,63.7500024318696,2|0,2:0|2:0,0:0:0:0:
121,318,42461,2,0,P|140:350|172:371,1,63.7500024318696,2|0,2:0|2:0,0:0:0:0:
197,295,42769,2,0,P|235:293|269:276,1,63.7500024318696,2|0,2:0|2:0,0:0:0:0:
215,217,43076,2,0,P|242:164|222:96,1,127.500004863739,2|0,2:0|2:0,0:0:0:0:
101,89,43538,2,0,P|74:142|94:210,1,127.500004863739,2|0,2:0|2:0,0:0:0:0:
197,295,44000,2,0,P|235:293|269:276,1,63.7500024318696,2|2,2:0|2:0,0:0:0:0:
158,153,44307,6,0,L|25:183,1,127.500004863739,2|0,2:0|2:0,0:0:0:0:
197,295,44769,2,0,L|329:264,1,127.500004863739,2|0,2:0|2:0,0:0:0:0:
277,202,45230,2,0,L|214:216,1,63.7500024318696,2|2,2:0|2:0,0:0:0:0:
178,372,45538,1,8,2:3:0:0:
483,279,46000,1,8,0:3:0:0:
251,61,46461,1,4,0:3:0:0:
214,216,46769,6,0,L|194:298,1,85,4|0,0:0|0:0,0:0:0:0:
281,164,47076,2,0,L|300:246,1,85,2|0,0:3|0:0,0:0:0:0:
384,95,47384,2,0,L|365:178,1,85,2|0,0:0|0:0,0:0:0:0:
452,44,47692,2,0,L|480:161,1,85,2|0,0:3|0:0,0:0:0:0:
445,318,48000,6,0,P|412:333|362:328,1,85,2|0,0:0|0:0,0:0:0:0:
345,180,48307,2,0,P|378:165|428:170,1,85,2|0,0:3|0:0,0:0:0:0:
276,335,48615,1,2,0:0:0:0:
261,189,48769,2,0,P|264:152|293:112,1,85,4|2,2:0|0:0,0:0:0:0:
395,249,49076,1,12,0:0:0:0:
227,266,49230,6,0,L|129:275,1,85,0|0,0:0|0:0,0:0:0:0:
67,350,49538,2,0,L|152:358,1,85,2|0,0:3|0:0,0:0:0:0:
312,258,49846,2,0,L|214:267,1,85,2|0,0:0|0:0,0:0:0:0:
152,358,50153,2,0,L|236:365,1,85,2|0,0:3|0:0,0:0:0:0:
395,249,50461,5,2,0:0:0:0:
261,189,50615,1,0,0:0:0:0:
363,327,50769,2,0,P|412:333|458:305,1,85,8|0,0:3|0:0,0:0:0:0:
345,180,51076,1,12,0:3:0:0:
279,336,51230,1,0,0:0:0:0:
279,336,51307,1,0,0:0:0:0:
279,336,51384,1,0,0:0:0:0:
395,249,51538,1,2,3:2:0:0:
295,111,51692,5,4,2:0:0:0:
312,258,51846,1,0,0:0:0:0:
378,102,52000,1,12,0:3:0:0:
212,120,52153,1,0,0:0:0:0:
345,180,52307,1,2,3:3:0:0:
245,42,52461,1,2,0:0:0:0:
179,198,52615,1,2,0:3:0:0:
295,111,52769,1,12,0:3:0:0:
129,129,52923,5,10,0:0:0:0:
227,265,53076,1,2,0:0:0:0:
378,102,53230,1,8,0:3:0:0:
212,120,53383,1,2,0:0:0:0:
279,336,53538,1,10,0:0:0:0:
345,180,53692,1,12,0:3:0:0:
129,129,53846,1,2,0:3:0:0:
227,265,54000,1,2,0:3:0:0:
295,111,54153,5,12,0:3:0:0:
279,336,54307,1,2,0:0:0:0:
212,120,54461,1,0,0:3:0:0:
414,21,54615,1,10,0:3:0:0:
261,189,54769,1,0,0:3:0:0:
74,63,54923,1,6,0:3:0:0:
295,111,55076,1,2,0:0:0:0:
295,111,55153,1,2,0:0:0:0:
295,111,55230,1,2,2:0:0:0:
295,111,55692,6,0,L|236:247,2,127.500004863739
461,93,56692,6,0,P|504:134|513:172,1,85,4|0,0:2|0:0,0:0:0:0:
363,327,57025,2,0,P|320:286|311:248,1,85,8|0,0:0|0:0,0:0:0:0:
295,111,57358,1,2,0:3:0:0:
429,171,57525,1,0,0:0:0:0:
261,189,57692,1,8,0:0:0:0:
329,33,57858,6,0,B|370:23|370:23|493:70,1,170,2|2,0:2|0:2,0:0:0:0:
345,180,58358,1,8,0:0:0:0:
212,120,58525,2,0,P|179:168|226:266,1,170,2|2,0:2|0:3,0:0:0:0:
395,248,59025,2,0,L|494:237,1,85,8|0,0:0|0:0,0:0:0:0:
261,189,59358,6,0,L|92:208,2,170,2|8|2,0:2|0:0|0:3,0:0:0:0:
429,171,60192,1,0,0:0:0:0:
363,327,60358,1,8,0:0:0:0:
345,180,60525,6,0,P|365:115|461:92,1,170,2|2,0:3|0:2,0:0:0:0:
429,171,61025,1,8,0:0:0:0:
312,258,61191,2,0,B|190:272|190:272|246:313,1,170,0|2,0:0|0:2,0:0:0:0:
363,327,61691,1,8,0:0:0:0:
479,238,61858,1,0,0:0:0:0:
261,189,62025,6,0,L|158:200,1,85,4|0,0:0|0:0,0:0:0:0:
78,41,62358,2,0,L|180:52,1,85,8|0,0:0|0:0,0:0:0:0:
345,180,62691,1,2,0:2:0:0:
227,265,62858,1,0,0:0:0:0:
395,248,63025,1,8,0:0:0:0:
261,189,63191,1,2,0:3:0:0:
428,170,63358,6,0,P|462:196|478:235,1,85,2|0,0:2|0:0,0:0:0:0:
193,342,63691,2,0,P|159:316|143:277,1,85,8|0,0:0|0:0,0:0:0:0:
345,180,64025,1,2,0:2:0:0:
227,265,64191,1,0,0:0:0:0:
129,129,64358,1,8,0:0:0:0:
261,189,64525,1,2,0:3:0:0:
92,207,64691,5,2,0:2:0:0:
212,120,64858,1,0,0:0:0:0:
227,265,65025,1,8,0:0:0:0:
129,129,65191,1,2,0:2:0:0:
295,111,65358,1,2,0:2:0:0:
179,198,65525,1,2,0:2:0:0:
245,42,65691,1,8,0:0:0:0:
345,180,65858,1,2,0:2:0:0:
212,120,66025,5,4,0:2:0:0:
227,265,66191,1,0,0:0:0:0:
295,111,66358,1,8,0:0:0:0:
129,129,66525,1,2,3:2:0:0:
119,147,66608,1,0,3:0:0:0:
112,168,66691,1,8,3:1:0:0:
111,189,66774,1,0,3:0:0:0:
117,209,66858,1,0,3:0:0:0:
125,229,66941,1,0,3:0:0:0:
133,248,67024,1,8,3:1:0:0:
137,269,67108,1,0,3:0:0:0:
135,290,67191,1,8,3:1:0:0:
129,311,67274,1,0,3:0:0:0:
120,330,67358,6,0,P|63:355|-11:277,2,170,4|8|2,0:0|0:0|0:3,0:0:0:0:
312,258,68191,1,0,0:0:0:0:
295,111,68358,1,8,0:0:0:0:
227,265,68525,6,0,P|245:310|296:342,1,85,2|2,0:2|3:3,0:0:0:0:
480,241,68858,2,0,P|462:196|411:164,1,85,0|8,0:0|0:0,0:0:0:0:
212,120,69191,2,0,L|101:133,1,85,0|2,0:0|0:3,0:0:0:0:
6,216,69525,1,2,0:2:0:0:
261,189,69691,2,0,P|291:149|291:88,1,85,8|2,0:0|0:3,0:0:0:0:
79,61,70025,6,0,P|49:101|49:162,1,85,2|0,0:2|0:0,0:0:0:0:
227,265,70358,2,0,L|338:252,1,85,8|0,0:0|0:0,0:0:0:0:
245,42,70691,1,2,0:2:0:0:
212,120,70858,1,0,0:0:0:0:
345,180,71025,1,8,0:0:0:0:
295,111,71191,1,2,0:2:0:0:
176,198,71358,6,0,L|65:211,1,85,2|0,0:3|0:0,0:0:0:0:
160,32,71691,2,0,L|271:45,1,85,8|2,0:0|0:2,0:0:0:0:
428,170,72025,1,2,0:3:0:0:
345,180,72191,1,2,3:0:0:0:
330,34,72358,1,8,0:0:0:0:
378,102,72525,1,2,0:3:0:0:
261,189,72691,5,4,0:0:0:0:
295,111,72858,1,0,0:0:0:0:
312,258,73025,2,0,P|299:311|254:347,1,85,8|0,0:0|0:0,0:0:0:0:
258,338,73275,1,0,0:0:0:0:
238,343,73358,1,2,0:3:0:0:
176,198,73525,1,0,0:0:0:0:
345,180,73692,1,8,0:0:0:0:
227,265,73858,1,2,0:3:0:0:
295,111,74025,5,4,0:0:0:0:
428,170,74191,1,0,0:0:0:0:
261,188,74358,2,0,L|171:199,1,85,8|0,0:0|0:0,0:0:0:0:
159,210,74608,1,0,0:0:0:0:
142,223,74691,1,2,0:3:0:0:
312,258,74858,1,0,0:0:0:0:
212,120,75025,1,8,0:0:0:0:
227,265,75191,1,2,0:3:0:0:
295,111,75358,6,0,P|280:72|248:45,1,85,2|0,0:2|0:0,0:0:0:0:
176,198,75691,1,8,0:0:0:0:
345,180,75858,2,0,P|371:147|379:105,1,85,2|2,0:2|0:3,0:0:0:0:
212,120,76191,1,2,2:0:0:0:
312,258,76358,2,0,L|405:246,1,85,8|2,0:0|0:2,0:0:0:0:
295,111,76691,5,8,0:0:0:0:
227,265,76858,1,0,0:0:0:0:
416,255,77025,5,8,0:0:0:0:
261,188,77192,1,0,0:0:0:0:
271,377,77358,5,8,0:0:0:0:
338,222,77525,1,0,0:0:0:0:
149,232,77691,5,8,0:0:0:0:
304,299,77858,1,0,0:0:0:0:
294,110,78025,5,2,0:3:0:0:
227,265,78191,1,8,0:3:0:0:
184,154,78358,1,4,0:3:0:0:
338,222,78525,5,2,0:3:0:0:
271,377,78691,1,8,0:3:0:0:
227,265,78858,1,4,0:3:0:0:
381,333,79025,5,4,0:0:0:0:
256,192,79108,12,0,80691,0:0:0:0:
