osu file format v5

[General]
AudioFilename: AKINO - Genesis of Aquarion.mp3
AudioLeadIn: 2985
PreviewTime: 0
Countdown: 0
SampleSet: None
StackLeniency: 0
Mode: 0
LetterboxInBreaks: 1

[Metadata]
Title:AKINO - Genesis of Aquarion
Artist:AKINO
Creator:macy2007
Version:Normal
Source:Genesis of Aquarion
Tags:Genesis of Aquarion

[Difficulty]
HPDrainRate:4
CircleSize:4
OverallDifficulty:5
SliderMultiplier:1.2
SliderTickRate:2

[Events]
//Background and Video events
0,0,"1191396944.jpg"
//Break Periods
2,21179,26468
2,33440,39253
2,45895,51181
2,75313,80657
2,90196,105540
2,124788,125074
2,137067,147399
2,166240,166497
2,176007,179142
2,202551,232163
//Storyboard Layer 0 (Background)
//Storyboard Layer 1 (Failing)
//Storyboard Layer 2 (Passing)
//Storyboard Layer 3 (Foreground)
//Storyboard Sound Samples
//Background Colour Transformations
3,100,163,162,255

[TimingPoints]
0,400,4,0,0,100,1

[HitObjects]
128,192,8197,6,0,C|192:192,4,60
128,192,9069,2,0,C|86:147|128:96,1,120
256,128,10290,1,4
384,128,11336,6,0,C|320:128,3,60
320,192,12266,2,0,C|277:221|224:192,1,90
224,160,13604,1,4
160,128,14941,6,0,C|224:128,4,60
224,64,16057,2,0,B|298:148|298:148|207:247|207:247|224:352,1,330
384,256,17906,6,0,B|416:192,3,60
224,192,18952,1,2
256,128,19476,2,0,B|300:146|320:96,1,60
288,64,19941,2,0,B|220:43|192:96,1,90
192,160,20580,2,0,B|218:223|288:224,1,120
64,224,27668,6,0,B|96:256|96:256|128:224|128:224|160:256|160:256|192:224|192:224|224:256,1,210
288,288,28778,1,2
352,224,29184,1,0
288,128,29591,1,4
288,128,29824,1,4
96,224,30600,6,4,B|416:224,1,300
320,128,32440,6,0,B|256:128,4,60
32,192,40453,6,2,B|96:64|96:64|223:144,1,270
192,256,41684,2,0,B|192:192,2,60
288,256,42443,2,8,B|479:163|288:32,1,300
352,288,44068,1,0
256,256,44451,2,2,B|159:345|64:256,1,210
64,192,45695,1,4
256,64,52381,5,8
256,160,52700,2,8,B|416:160,1,150
416,256,53602,2,0,B|416:320,1,60
352,320,54009,2,0,B|288:320,1,60
224,320,54416,2,0,B|224:256,1,60
32,224,56000,6,2,B|96:160|96:160|128:192|128:192|160:160|160:160|192:224|192:224|244:172,1,300
256,320,57381,1,2
256,192,57962,1,0
416,128,58428,5,2
416,224,58776,1,0
320,320,59241,1,0
256,288,59823,2,4,B|140:278|125:177|176:98|263:43|344:96|388:180|373:281|250:289,1,540
224,288,62788,5,8
128,320,63137,1,8
64,224,63500,1,8
64,128,64000,2,8,B|166:14|276:285|381:129,1,360
416,224,65578,1,0
320,288,66044,1,8
320,288,66334,1,8
224,288,66683,1,8
224,224,67148,1,8
224,224,67555,2,8,B|278:196|301:142|279:84|220:49|157:91|142:143|156:200|224:226,1,330
160,192,69125,5,8
256,224,69474,1,8
352,192,69881,1,8
416,128,70300,2,8,B|309:37|200:295|64:128,1,390
128,96,72000,1,0
192,96,72322,1,0
256,96,72671,1,0
352,96,73078,1,0
416,160,73514,1,8
352,224,73776,2,8,B|288:160|288:160|224:224|224:224|160:160|160:160|96:224|96:224|20:143,1,450
192,128,81857,6,0,B|288:128,3,90
352,128,83020,1,0
384,192,83369,1,0
352,256,83717,1,0
288,288,84066,1,4
288,288,84241,1,4
192,256,84589,5,2
192,256,84764,1,2
192,256,84996,1,2
320,256,85461,5,2
320,256,85636,1,2
320,256,85868,1,2
256,192,86159,5,0
256,192,86392,1,0
256,192,86624,1,0
192,96,87380,5,0
256,64,87613,1,0
320,96,87845,1,0
320,96,88020,1,0
256,192,88252,12,4,89996
288,96,106729,2,8,B|224:32|224:32|160:96,1,180
96,96,107612,2,0,C|54:141|96:192,1,120
160,224,108309,2,0,B|187:266|224:224,1,60
288,256,108800,1,4
320,160,109900,6,8,B|256:256|256:256|192:192,1,180
160,160,110809,2,0,C|131:117|160:64,1,90
224,64,111449,2,0,B|256:97|288:64,1,60
384,96,112147,1,4
160,64,113484,5,2
320,64,114007,1,2
320,192,114588,1,0
160,192,115112,1,0
256,320,115460,1,4
192,320,115635,1,4
352,224,116451,6,0,B|416:160|416:160|384:128|384:128|416:96,1,180,0|0
320,64,117495,1,0
224,64,118251,2,0,B|180:46|180:46|160:160,1,150
160,224,118949,1,0
224,320,119297,1,4
384,192,119995,5,0
288,192,120402,2,8,B|256:160|256:160|384:128,1,150
320,64,121216,1,8
320,64,121390,1,8
320,64,121565,1,8
224,64,121900,2,4,B|124:248|356:96|256:352,1,330
256,192,123251,12,2,124588
288,192,126274,5,0
192,256,126739,1,8
288,256,126972,1,8
288,256,127146,1,8
288,320,127495,1,8
288,320,127669,1,8
192,320,127960,1,8
192,224,128309,5,0
192,160,128446,2,0,B|256:160,3,60
256,224,129239,2,0,B|352:207|285:112|384:32,1,240
320,32,130285,2,0,B|256:32,2,60,0|0|0
384,32,130809,2,4,B|372:113|236:54|256:224,1,240
64,64,132727,5,2
160,64,133052,2,4,B|288:64,1,120
288,128,133949,2,4,B|160:128,1,120
169,130,134651,2,4,B|73:226|201:226|233:162|329:290|265:322,1,270
256,256,135867,2,4,B|352:192|288:96|192:128|192:192|192:224|259:260,1,300
160,160,148600,6,6,B|224:64|224:64|288:192,1,240
320,288,149820,2,0,B|320:224,2,60
256,256,150500,2,2,B|192:352|192:352|160:320,1,150
64,256,151389,1,0
128,224,151622,1,0
160,160,151855,1,8
160,64,152145,1,8
256,32,152494,1,8
352,64,152959,1,8
256,128,153366,2,12,B|202:156|179:210|201:268|260:303|323:261|338:209|324:152|256:126,1,330
352,224,154936,5,2
256,256,155285,1,2
160,224,155692,1,2
96,192,156100,2,0,B|32:160|32:160|64:96,1,120
128,96,156854,2,0,B|192:32|192:32|251:80,1,150
320,96,157782,2,0,B|320:160,4,60,0|0|0|0|0
352,192,158715,1,0
352,192,158889,1,0
352,320,159325,1,2
256,352,159587,2,4,B|192:288|192:288|256:224|256:224|192:160|192:160|256:96|256:96|175:20,1,450
128,96,161331,5,2
224,32,161680,1,2
320,96,162116,1,2
320,192,162552,2,8,B|256:192,2,60
320,192,163249,2,8,B|320:128,2,60
256,192,164034,1,0
256,320,164500,1,2
128,192,164819,1,2
256,64,165168,1,2
384,192,165604,1,2
256,320,166040,1,6
224,96,167697,6,2,B|288:96,3,60
320,160,168600,2,0,B|224:160,1,90
224,288,169267,1,0
320,288,169615,1,0
416,224,169877,1,0
288,192,170400,6,4,B|352:128|352:128|394:188,1,150
352,256,171272,2,4,B|288:320|288:320|246:260,1,150
160,256,171970,5,2
128,192,172203,1,2
64,192,172435,1,2
64,96,172784,1,0
160,96,173191,5,0
224,64,173424,1,0
288,96,173656,1,0
288,96,173831,1,0
256,192,174063,12,4,175807
224,224,180342,6,8,B|224:160,6,60
288,224,181737,6,8,B|288:160,6,60
256,96,183132,1,12
288,320,183656,5,2
288,192,184004,1,0
224,192,184179,1,0
224,128,184353,5,2
224,256,184789,1,0
288,256,184964,1,0
288,128,185138,5,2
288,32,185574,1,0
224,32,185748,1,0
160,96,186010,2,0,B|187:121|131:142|160:192,1,90
224,32,186800,2,0,B|54:-5|64:192,1,270
64,192,188000,2,0,B|38:365|224:352,1,270
288,288,189149,5,0
352,192,189586,1,2
369,117,189760,1,2
320,64,189934,1,2
224,32,190283,1,0
128,64,190632,1,0
89,116,190806,1,0
96,224,191155,1,8
160,320,191504,5,0
256,320,191864,2,2,B|320:320,1,60
239,251,192725,2,4,B|100:143|74:42|224:12|252:122|252:122|297:8|480:79|241:259,1,690
256,320,195952,6,4,B|536:160|399:-92|252:125|252:125|104:-67|-6:162|259:326,2,960
256,160,233363,5,8
256,160,233712,1,8
64,288,234400,6,2,B|161:153|256:288,1,240
320,288,235631,2,8,B|320:224,2,60
384,288,236354,2,8,B|384:224,2,60
384,160,237200,2,8,B|320:160,2,60
384,64,237956,1,8
224,64,238305,1,8
320,160,238770,1,8
256,128,239177,2,12,B|202:156|179:210|201:268|260:303|323:261|338:209|324:152|256:126,1,330
352,96,240747,5,2
256,64,241096,1,2
160,96,241503,1,2
192,160,241900,2,2,B|259:192|320:160,1,120
320,256,242800,2,2,B|253:224|192:256,1,120
128,160,243593,2,0,B|128:224,6,60
64,128,245136,1,2
128,96,245398,2,4,B|192:160|192:160|256:96|256:96|320:160|320:160|384:96|384:96|460:177,1,450
444,163,247142,5,2
384,128,247491,1,2
320,224,247927,1,2
256,128,248362,1,8
256,128,248537,1,8
256,128,248711,1,8
256,224,249060,2,8,B|256:288,2,60
352,224,249845,1,0
352,320,250281,1,8
352,320,250630,1,8
352,320,250979,1,8
256,320,251415,1,8
256,320,251851,1,12
128,192,253508,6,2,B|192:192,3,60
128,288,254467,1,0
192,288,254729,1,0
288,288,255078,1,8
288,192,255426,1,8
288,192,255688,1,8
256,96,256211,6,12,B|192:32|192:32|150:92,1,150
160,192,257083,5,4
160,192,257258,1,4
160,192,257490,1,4
256,288,257781,5,4
256,288,258014,1,4
256,288,258246,1,4
256,288,258595,1,4
256,128,259002,5,8
256,128,259235,1,8
256,128,259467,1,8
256,128,259642,1,8
256,192,259874,12,4,261618
