osu file format v13

[General]
AudioFilename: RAIN MAN.mp3
AudioLeadIn: 0
PreviewTime: 57384
Countdown: 0
SampleSet: Soft
StackLeniency: 0.7
Mode: 0
LetterboxInBreaks: 0
WidescreenStoryboard: 1

[Editor]
Bookmarks: 10559,24677,47262
DistanceSpacing: 1
BeatDivisor: 3
GridSize: 4
TimelineZoom: 2.6

[Metadata]
Title:RAIN MAN (TV Size)
TitleUnicode:RAIN MAN (TV Size)
Artist:AKIHIDE
ArtistUnicode:AKIHIDE
Creator:S h i o n
Version:Normal
Source:Detective Conan
Tags:Rain Story Sato Akihide
BeatmapID:478850
BeatmapSetID:202111

[Difficulty]
HPDrainRate:4
CircleSize:3
OverallDifficulty:5
ApproachRate:5
SliderMultiplier:0.599999999999999
SliderTickRate:1

[Events]
//Background and Video events
0,0,"73a7aa41f3.jpg",0,0
//Break Periods
//Storyboard Layer 0 (Background)
//Storyboard Layer 1 (Fail)
//Storyboard Layer 2 (Pass)
//Storyboard Layer 3 (Foreground)
//Storyboard Sound Samples
//Background Colour Transformations
3,100,163,162,255

[TimingPoints]
1620,352.941176470588,4,2,1,30,1,0
23620,-133.333333333333,4,2,1,5,0,0
23855,-100,4,2,1,30,0,0
24208,-100,4,2,1,40,0,0
24914,-100,4,2,1,40,0,0
57384,-100,4,2,1,15,0,0
57737,-100,4,2,1,20,0,0
58443,-100,4,2,1,30,0,1
58796,-100,4,2,1,40,0,1
64090,-100,4,2,1,20,0,1
64443,-100,4,2,1,40,0,1
66914,-100,4,2,1,25,0,1
67267,-100,4,2,1,40,0,1
69737,-100,4,2,1,30,0,1
70090,-100,4,2,1,40,0,1
73972,-100,4,2,1,20,0,1
74208,-100,4,2,1,40,0,1
75384,-100,4,2,1,20,0,1
75737,-100,4,2,1,30,0,1
76090,-100,4,2,1,35,0,1
76443,-100,4,2,1,25,0,1
76796,-100,4,2,1,40,0,1
78208,-100,4,2,1,25,0,0

[Colours]
Combo1 : 67,133,133
Combo2 : 125,125,255
Combo3 : 0,174,87
Combo4 : 79,0,157

[HitObjects]
376,312,1972,6,0,P|368:260|372:188,1,120,0|8,0:0|0:0,0:0:0:0:
428,172,3031,2,0,P|380:164|324:108,1,120
348,60,4090,1,8,0:0:0:0:
228,48,4796,2,0,P|172:64|112:48,1,120,0|8,0:0|0:0,0:0:0:0:
60,72,5855,2,0,P|56:124|84:188,1,120
132,220,6914,1,8,0:0:0:0:
68,320,7620,6,0,P|124:336|184:320,1,120,0|8,0:0|0:0,0:0:0:0:
224,208,9031,2,0,B|284:191|284:191|339:206,1,120,0|8,0:0|0:0,0:0:0:0:
396,312,10443,2,0,B|340:326|340:326|280:310,1,120,0|8,0:0|0:0,0:0:0:0:
236,268,11502,1,2,0:0:0:0:
324,112,12561,5,0,0:0:0:0:
208,88,13267,2,0,P|144:92|88:88,1,120,0|8,0:0|0:0,0:0:0:0:
92,148,14325,2,0,L|104:272,1,120,2|0,0:0|0:0,0:0:0:0:
48,296,15384,1,8,0:0:0:0:
152,236,16090,2,0,P|205:243|276:236,1,120,0|8,0:0|0:0,0:0:0:0:
264,176,17149,2,0,L|244:56,1,120,2|0,0:0|0:0,0:0:0:0:
300,32,18208,1,8,0:0:0:0:
364,132,18914,6,0,P|428:144|476:120,1,120,0|8,0:0|0:0,0:0:0:0:
488,240,20325,2,0,P|430:227|376:251,1,120,0|8,0:0|0:0,0:0:0:0:
280,320,21737,1,0,0:0:0:0:
172,268,22443,2,0,P|140:220|172:172,1,120,8|2,0:0|0:0,0:0:0:0:
292,168,23855,6,8,P|352:172|416:168,1,120,8|0,0:0|0:0,0:0:0:0:
428,288,25267,2,0,L|352:288,1,59.9999999999999,8|0,0:0|0:0,0:0:0:0:
248,304,26325,1,0,0:0:0:0:
248,304,26678,2,0,P|196:276|160:224,1,120,8|0,0:0|0:0,0:0:0:0:
176,108,28090,2,0,L|184:40,1,59.9999999999999,8|0,0:0|0:0,0:0:0:0:
300,68,29149,5,0,0:0:0:0:
300,68,29502,2,0,L|312:196,1,120,8|0,0:0|0:0,0:0:0:0:
428,156,30914,2,8,L|412:288,1,120,8|0,0:0|0:0,0:0:0:0:
380,324,31972,1,0,0:0:0:0:
380,324,32325,2,0,P|320:328|260:300,1,120,8|0,0:0|0:0,0:0:0:0:
256,184,33737,2,0,L|316:188,1,59.9999999999999,8|0,0:0|0:0,0:0:0:0:
192,320,34796,5,0,0:0:0:0:
192,320,35149,2,0,L|56:312,1,120,8|0,0:0|0:0,0:0:0:0:
4,216,36561,2,0,L|16:148,1,59.9999999999999,8|0,0:0|0:0,0:0:0:0:
108,80,37620,1,0,0:0:0:0:
108,80,37972,2,0,P|168:76|232:80,1,120,8|0,0:0|0:0,0:0:0:0:
164,180,39384,2,0,L|104:188,1,59.9999999999999,8|0,0:0|0:0,0:0:0:0:
184,268,40443,5,0,0:0:0:0:
184,268,40796,2,0,P|216:312|268:356,1,120,8|0,0:0|0:0,0:0:0:0:
360,280,42208,2,0,P|395:226|416:164,1,120,8|0,0:0|0:0,0:0:0:0:
340,80,43620,2,0,B|279:95|279:95|219:83,1,120,8|0,0:0|0:0,0:0:0:0:
184,128,44678,1,0,0:0:0:0:
132,164,45031,5,8,0:0:0:0:
108,48,45737,1,0,0:0:0:0:
223,83,46443,1,8,0:0:0:0:
264,196,47149,6,0,L|260:260,1,59.9999999999999,2|0,0:0|0:0,0:0:0:0:
240,312,47855,2,0,P|192:336|120:340,1,120,8|2,0:0|0:0,0:0:0:0:
32,268,49267,1,8,0:0:0:0:
108,176,49972,2,0,L|104:108,1,59.9999999999999,2|0,0:0|0:0,0:0:0:0:
72,64,50678,2,0,P|128:60|196:64,1,120,8|2,0:0|0:0,0:0:0:0:
260,160,52090,5,8,0:0:0:0:
200,264,52796,2,0,L|208:328,1,59.9999999999999,2|0,0:0|0:0,0:0:0:0:
268,328,53502,2,0,P|327:325|392:312,1,120,8|2,0:0|0:0,0:0:0:0:
496,260,54914,6,0,P|492:200|472:140,1,120,8|0,0:0|0:0,0:0:0:0:
476,84,55972,2,0,L|400:72,1,59.9999999999999,0|8,0:0|0:0,0:0:0:0:
360,96,56678,1,0,0:0:0:0:
348,156,57031,1,8,0:0:0:0:
292,176,57384,1,4,0:0:0:0:
292,176,57737,6,0,P|232:188|172:172,1,120,4|4,0:0|0:0,0:0:0:0:
180,40,59149,2,0,P|232:48|288:96,1,120,8|0,0:0|0:0,0:0:0:0:
268,148,60208,1,0,0:0:0:0:
224,192,60561,2,0,P|216:256|224:316,1,120,8|0,0:0|0:0,0:0:0:0:
128,236,61972,2,0,P|68:240|8:232,1,120,8|0,0:0|0:0,0:0:0:0:
8,172,63031,1,0,0:0:0:0:
36,120,63384,6,0,P|88:92|120:40,1,120,8|4,0:0|0:0,0:0:0:0:
200,132,64796,2,0,B|256:140|256:140|316:116,1,120,8|0,0:0|0:0,0:0:0:0:
332,248,66208,2,0,B|276:240|276:240|216:264,1,120,8|4,0:0|0:0,0:0:0:0:
156,268,67267,5,0,0:0:0:0:
128,216,67620,1,8,0:0:0:0:
200,120,68325,1,8,0:0:0:0:
316,148,69031,6,0,P|376:152|436:148,1,120,8|4,0:0|0:0,0:0:0:0:
348,48,70443,2,0,P|288:44|228:48,1,120,8|0,0:0|0:0,0:0:0:0:
196,100,71502,1,0,0:0:0:0:
148,132,71855,2,0,P|164:192|216:240,1,120,8|0,0:0|0:0,0:0:0:0:
236,360,73267,2,0,P|284:336|336:276,1,120,8|4,0:0|0:0,0:0:0:0:
320,228,74325,5,0,0:0:0:0:
352,176,74678,2,0,P|356:144|351:112,2,59.9999999999999,8|0|4,0:0|0:0|0:0,0:0:0:0:
240,216,76090,1,8,0:0:0:0:
192,180,76443,2,0,P|134:168|88:120,1,120,4|0,0:0|0:0,0:0:0:0:
112,72,77502,2,0,B|172:60|172:60|240:72,1,120,8|4,0:0|0:0,0:0:0:0:
