osu file format v14

[General]
AudioFilename: lost story.mp3
AudioLeadIn: 0
PreviewTime: 81770
Countdown: 0
SampleSet: None
StackLeniency: 0.7
Mode: 0
LetterboxInBreaks: 0
WidescreenStoryboard: 1

[Editor]
Bookmarks: 10383,21382,40048,50715,72048,77382,82715,104048,128048,149382,170715,189382,192048
DistanceSpacing: 1.3
BeatDivisor: 8
GridSize: 32
TimelineZoom: 2.340001

[Metadata]
Title:Lost Story
TitleUnicode:Lost Story
Artist:AKI AKANE
ArtistUnicode:秋赤音
Creator:Milan-
Version:Insane
Source:
Tags:pishifat ゆよゆっぺ Yuyoyuppe 歌ってみた utaite akiakane cut short version Boroboro na Ikizama ぼろぼろな生き様。
BeatmapID:764652
BeatmapSetID:346408

[Difficulty]
HPDrainRate:6.6
CircleSize:4
OverallDifficulty:8
ApproachRate:8.7
SliderMultiplier:3.2
SliderTickRate:1

[Events]
//Background and Video events
0,0,"halp.jpg",0,0
//Break Periods
//Storyboard Layer 0 (Background)
//Storyboard Layer 1 (Fail)
//Storyboard Layer 2 (Pass)
//Storyboard Layer 3 (Foreground)
//Storyboard Sound Samples

[TimingPoints]
8104,666.666666666667,4,3,1,68,1,0
20104,-111.111111111111,4,3,1,50,0,0
20770,-125,4,3,1,40,0,0
21354,-125,4,3,1,5,0,0
21437,-100,4,3,1,62,0,1
29437,-111.111111111111,4,3,1,62,0,0
30104,-125,4,3,1,62,0,0
32104,-100,4,3,1,62,0,1
40104,-111.111111111111,4,3,1,50,0,0
42770,-111.111111111111,4,3,1,30,0,0
42854,-111.111111111111,4,3,1,50,0,0
45104,-111.111111111111,4,3,1,30,0,0
45187,-111.111111111111,4,3,1,50,0,0
48770,-111.111111111111,4,3,1,52,0,0
50104,-111.111111111111,4,3,1,55,0,0
50770,-111.111111111111,4,3,1,58,0,0
53437,-111.111111111111,4,3,1,48,0,0
53520,-111.111111111111,4,3,1,58,0,0
64104,-111.111111111111,4,3,1,48,0,0
64187,-111.111111111111,4,3,1,58,0,0
72104,-125,4,3,1,50,0,0
77437,-111.111111111111,4,3,1,58,0,0
82104,-125,4,3,1,50,0,0
82687,-125,4,3,1,5,0,0
82770,-100,4,3,1,62,0,1
90770,-111.111111111111,4,3,1,62,0,0
91437,-125,4,3,1,62,0,0
93437,-100,4,3,1,62,0,1
104104,-100,4,3,1,50,0,0

[Colours]
Combo1 : 190,6,210
Combo2 : 251,102,102
Combo3 : 48,171,207
Combo4 : 112,180,157

[HitObjects]
102,117,10437,5,8,0:0:0:0:
112,151,10520,1,8,0:0:0:0:
122,185,10604,1,8,0:0:0:0:
132,219,10687,1,8,0:0:0:0:
144,252,10770,6,0,L|246:281,1,80,4|0,0:0|0:0,0:0:0:0:
365,160,11104,2,0,L|263:189,1,80
154,280,11437,2,0,L|256:309,1,80,4|0,0:0|0:0,0:0:0:0:
375,188,11770,2,0,L|273:217,1,80
209,108,12104,6,0,P|212:65|218:23,1,80,4|0,0:0|0:0,0:0:0:0:
298,209,12437,2,0,P|303:248|306:288,1,80
188,99,12770,2,0,P|191:56|197:14,1,80,4|0,0:0|0:0,0:0:0:0:
276,200,13104,2,0,P|281:239|284:279,1,80
99,211,13437,6,0,L|186:198,1,80,4|0,0:0|0:0,0:0:0:0:
100,342,13770,2,0,L|13:329,1,80
188,285,14104,2,0,L|201:372,1,80,4|0,0:0|0:0,0:0:0:0:
99,211,14437,2,0,L|112:123,1,80
258,5,14770,5,8,0:0:0:0:
228,104,14937,1,0,1:0:0:0:
348,210,15104,1,8,0:0:0:0:
333,106,15270,1,0,1:0:0:0:
250,253,15437,5,0,1:0:0:0:
270,282,15520,1,0,1:0:0:0:
299,303,15604,1,0,1:0:0:0:
333,314,15687,1,0,1:0:0:0:
369,313,15770,1,0,1:0:0:0:
403,300,15854,1,0,1:0:0:0:
430,277,15937,1,0,1:0:0:0:
449,247,16020,1,0,1:0:0:0:
457,212,16104,6,0,L|442:115,1,80,4|0,0:0|0:0,0:0:0:0:
350,7,16437,2,0,L|337:85,1,80
268,218,16770,2,0,L|363:208,1,80,12|0,0:0|0:0,0:0:0:0:
228,104,17104,2,0,L|133:94,1,80
155,276,17437,6,0,L|173:180,1,80,4|0,0:0|0:0,0:0:0:0:
46,305,17770,2,0,L|60:383,1,80
248,320,18104,1,12,0:0:0:0:
268,218,18270,1,0,0:0:0:0:
164,93,18437,1,8,0:0:0:0:
169,197,18604,1,0,0:0:0:0:
256,331,18770,5,12,0:0:0:0:
276,229,18937,1,0,1:0:0:0:
152,83,19104,1,8,0:0:0:0:
157,187,19270,1,0,1:0:0:0:
296,80,19437,5,8,0:0:0:0:
145,178,19604,1,8,1:3:0:0:
288,243,19770,2,0,L|377:237,1,80,8|0,0:0|1:0,0:0:0:0:
394,251,20020,1,0,1:0:0:0:
394,251,20104,5,4,0:0:0:0:
241,173,20270,2,0,P|208:218|241:310,1,143.999995605469,0|0,1:0|1:0,0:0:0:0:
261,317,20687,1,0,1:0:0:0:
261,317,20770,6,0,P|174:253|76:295,1,224,4|0,0:0|0:0,0:0:0:0:
58,324,21437,6,0,B|43:265|43:265|37:160,1,160,4|0,0:0|0:0,0:0:0:0:
73,68,21937,1,0,1:0:0:0:
73,68,22020,1,0,1:0:0:0:
73,68,22104,2,0,B|130:70|130:70|234:59,1,160,8|0,0:0|0:0,0:0:0:0:
383,145,22604,2,0,B|326:143|326:143|222:154,1,160,0|0,1:0|1:0,0:0:0:0:
150,228,23104,1,0,1:0:0:0:
150,228,23437,6,0,L|145:313,1,80,8|0,0:0|0:0,0:0:0:0:
223,153,23770,2,0,L|218:73,1,80,0|0,1:0|0:0,0:0:0:0:
82,149,24104,6,0,L|70:308,1,160,4|0,0:0|0:0,0:0:0:0:
152,380,24604,1,0,1:0:0:0:
152,380,24687,1,0,1:0:0:0:
152,380,24770,2,0,P|198:317|275:303,1,160,8|0,0:0|0:0,0:0:0:0:
370,345,25270,1,0,1:0:0:0:
322,224,25437,2,0,L|327:120,1,80,0|0,0:0|1:0,0:0:0:0:
418,259,25770,1,0,1:0:0:0:
418,259,25937,1,0,0:0:0:0:
275,303,26104,6,0,L|171:294,1,80,8|0,0:0|1:0,0:0:0:0:
325,144,26437,2,0,L|429:135,1,80,8|0,0:0|0:0,0:0:0:0:
221,36,26770,6,0,L|233:202,1,160,4|0,0:0|0:0,0:0:0:0:
275,303,27270,1,0,1:0:0:0:
275,303,27354,1,0,1:0:0:0:
275,303,27437,2,0,L|113:287,1,160,8|0,0:0|0:0,0:0:0:0:
232,195,27937,2,0,B|288:173|346:175|346:175|390:214,1,160,0|0,1:0|1:0,0:0:0:0:
309,353,28437,2,0,L|297:269,1,80,0|0,1:0|0:0,0:0:0:0:
394,109,28770,6,0,L|382:188,1,80,8|0,0:0|1:0,0:0:0:0:
324,348,29104,1,8,0:0:0:0:
244,180,29270,1,8,0:0:0:0:
132,339,29437,6,0,P|72:344|62:210,1,215.999993408203,4|0,0:0|1:0,0:0:0:0:
80,208,30020,1,0,1:0:0:0:
80,208,30104,6,0,L|214:206,1,128,8|0,0:0|0:0,0:0:0:0:
295,296,30604,2,0,L|161:294,1,128,0|0,1:0|1:0,0:0:0:0:
329,202,31104,1,0,1:0:0:0:
399,374,31270,1,0,1:0:0:0:
399,374,31354,1,0,1:0:0:0:
399,374,31437,5,8,0:0:0:0:
432,349,31520,1,0,0:0:0:0:
452,312,31604,1,0,0:0:0:0:
452,270,31687,1,0,0:0:0:0:
417,293,31770,1,8,0:0:0:0:
377,308,31854,1,0,0:0:0:0:
335,310,31937,1,8,0:0:0:0:
295,296,32020,1,8,0:0:0:0:
265,269,32104,6,0,P|192:240|113:246,1,160,4|0,0:0|0:0,0:0:0:0:
29,307,32604,1,0,1:0:0:0:
29,307,32687,1,0,1:0:0:0:
29,307,32770,2,0,L|23:146,1,160,8|0,0:0|0:0,0:0:0:0:
125,43,33270,2,0,L|119:202,1,160,0|0,1:0|1:0,0:0:0:0:
145,303,33770,1,0,1:2:0:0:
145,303,34104,6,0,L|221:278,1,80,8|0,0:0|0:0,0:0:0:0:
347,376,34437,2,0,P|308:370|273:351,1,80,0|0,1:0|0:0,0:0:0:0:
224,163,34770,6,0,P|297:189|335:258,1,160,4|0,0:0|0:0,0:0:0:0:
220,278,35270,1,0,1:0:0:0:
220,278,35354,1,0,1:0:0:0:
220,278,35437,2,0,P|146:251|108:182,1,160,8|0,0:0|0:0,0:0:0:0:
128,80,35937,1,0,1:0:0:0:
42,239,36104,2,0,P|31:200|29:160,1,80,0|0,0:0|1:0,0:0:0:0:
150,64,36437,1,0,1:0:0:0:
63,240,36604,1,0,0:0:0:0:
169,46,36770,6,0,L|248:52,1,80,8|0,0:0|1:0,0:0:0:0:
394,149,37104,2,0,L|314:155,1,80,8|0,0:0|0:0,0:0:0:0:
498,48,37437,6,0,B|504:102|504:102|500:231,1,160,4|0,0:0|0:0,0:0:0:0:
440,292,37937,1,0,1:0:0:0:
440,292,38020,1,0,1:0:0:0:
440,292,38104,2,0,B|376:301|376:301|273:304,1,160,8|0,0:0|0:0,0:0:0:0:
167,189,38604,2,0,B|262:191|262:191|326:200,1,160,0|0,1:0|1:0,0:0:0:0:
204,356,39104,2,0,P|189:318|190:279,1,80,0|0,1:0|0:0,0:0:0:0:
321,120,39437,5,8,0:0:0:0:
342,148,39520,1,0,0:0:0:0:
346,183,39604,1,0,0:0:0:0:
331,215,39687,1,0,0:0:0:0:
296,225,39770,1,8,0:0:0:0:
272,197,39854,1,0,0:0:0:0:
278,161,39937,1,8,0:0:0:0:
309,143,40020,1,8,0:0:0:0:
341,142,40104,6,0,P|419:144|483:103,1,143.999995605469,4|0,0:0|0:0,0:0:0:0:
474,111,40604,1,0,1:0:0:0:
507,199,40770,2,0,L|498:278,1,71.9999978027344,2|0,0:0|0:0,0:0:0:0:
405,280,41104,2,0,L|420:367,1,71.9999978027344,0|2,0:0|0:3,0:0:0:0:
417,350,41437,1,0,0:0:0:0:
321,267,41604,1,0,1:0:0:0:
243,375,41770,1,0,1:0:0:0:
243,375,42104,2,0,B|183:371|183:371|97:352,1,143.999995605469,2|0,0:0|0:0,0:0:0:0:
321,267,42770,6,0,B|380:263|380:263|467:244,1,143.999995605469,4|0,0:0|0:0,0:0:0:0:
462,244,43270,1,0,1:0:0:0:
401,173,43437,2,0,L|417:92,1,71.9999978027344,2|0,0:0|0:0,0:0:0:0:
330,61,43770,2,0,L|369:-2,1,71.9999978027344,0|2,0:0|0:0,0:0:0:0:
367,0,44104,1,0,0:0:0:0:
486,67,44270,1,0,1:0:0:0:
405,177,44437,1,0,1:0:0:0:
405,177,44770,5,2,0:0:0:0:
486,67,44937,1,0,1:0:0:0:
512,235,45104,1,6,0:0:0:0:
512,235,45437,6,0,B|470:268|428:271|428:271|357:252,1,143.999995605469,0|0,1:0|0:0,0:0:0:0:
301,204,45937,1,0,1:0:0:0:
209,320,46104,2,0,L|62:325,1,143.999995605469,2|0,0:0|0:0,0:0:0:0:
65,324,46604,1,2,0:0:0:0:
174,230,46770,1,0,0:0:0:0:
88,191,46937,1,0,1:0:0:0:
157,62,47104,1,0,1:0:0:0:
157,62,47437,2,0,P|234:66|300:57,1,143.999995605469,2|0,0:0|0:0,0:0:0:0:
466,143,48104,6,0,P|389:139|323:148,1,143.999995605469,0|0,1:0|0:0,0:0:0:0:
263,220,48604,1,0,1:0:0:0:
354,336,48770,6,0,B|392:316|392:316|412:264|399:213,1,143.999995605469,8|0,0:0|0:0,0:0:0:0:
244,234,49270,1,8,0:0:0:0:
277,76,49437,1,0,0:0:0:0:
277,76,49604,1,0,1:0:0:0:
399,216,49770,1,0,1:0:0:0:
399,216,50104,6,0,P|363:225|328:223,1,71.9999978027344,8|0,0:0|1:0,0:0:0:0:
192,159,50437,1,8,0:0:0:0:
169,308,50604,1,8,0:0:0:0:
328,223,50770,6,0,P|400:207|494:215,1,143.999995605469,4|0,0:0|0:0,0:0:0:0:
319,310,51270,1,0,1:0:0:0:
319,310,51354,1,0,0:0:0:0:
319,310,51437,2,0,B|276:291|276:291|239:257|248:197,1,143.999995605469,8|0,0:0|0:0,0:0:0:0:
292,87,51937,2,0,P|323:151|328:223,1,143.999995605469,8|0,0:0|1:0,0:0:0:0:
240,186,52437,2,0,P|201:190|140:188,1,71.9999978027344,0|0,1:0|0:0,0:0:0:0:
292,87,52770,2,0,P|366:79|454:83,1,143.999995605469,8|0,0:0|0:0,0:0:0:0:
435,80,53270,1,0,0:0:0:0:
269,176,53437,6,0,P|212:133|203:64,1,143.999995605469,4|0,0:0|0:0,0:0:0:0:
292,87,53937,1,0,1:0:0:0:
353,203,54104,2,0,B|360:262|360:262|363:360,1,143.999995605469,8|0,0:0|0:0,0:0:0:0:
195,384,54604,2,0,B|197:299|197:299|204:240,1,143.999995605469,8|0,0:0|1:0,0:0:0:0:
269,176,55104,2,0,P|288:206|297:240,1,71.9999978027344,0|0,1:0|0:0,0:0:0:0:
183,155,55437,5,8,0:0:0:0:
245,85,55604,1,0,1:0:0:0:
204,240,55770,2,0,P|173:256|123:262,1,71.9999978027344,8|0,0:0|0:0,0:0:0:0:
269,176,56104,6,0,P|347:171|401:207,1,143.999995605469,0|0,1:0|0:0,0:0:0:0:
438,291,56604,1,0,1:0:0:0:
326,338,56770,2,0,P|315:303|317:267,2,71.9999978027344,8|0|0,0:0|0:0|0:0,0:0:0:0:
399,205,57270,2,0,P|404:133|382:65,1,143.999995605469,8|0,0:0|1:0,0:0:0:0:
292,92,57770,2,0,P|256:94|221:86,1,71.9999978027344,0|0,1:0|0:0,0:0:0:0:
81,71,58104,2,0,B|32:94|29:150|29:150|64:207,1,143.999995605469,8|0,0:0|0:0,0:0:0:0:
213,277,58770,6,0,P|290:266|373:270,1,143.999995605469,0|0,1:0|0:0,0:0:0:0:
441,307,59270,1,0,1:0:0:0:
388,187,59437,2,0,P|388:115|411:47,1,143.999995605469,8|0,0:0|0:0,0:0:0:0:
474,220,59937,1,8,0:0:0:0:
441,307,60104,1,0,0:0:0:0:
353,274,60270,1,0,1:0:0:0:
388,187,60437,1,0,1:0:0:0:
388,187,60770,5,8,0:0:0:0:
441,307,60937,1,0,1:0:0:0:
353,274,61104,2,0,P|313:271|274:277,1,71.9999978027344
167,357,61437,6,0,B|111:357|76:329|76:329|61:282,1,143.999995605469,4|0,0:0|0:0,0:0:0:0:
82,192,61937,1,0,1:0:0:0:
82,192,62020,1,0,0:0:0:0:
82,192,62104,2,0,P|90:148|75:48,1,143.999995605469,8|0,0:0|0:0,0:0:0:0:
181,168,62604,2,0,P|251:169|303:122,1,143.999995605469,8|0,0:0|1:0,0:0:0:0:
231,21,63104,2,0,P|222:55|222:91,1,71.9999978027344,0|0,1:0|0:0,0:0:0:0:
362,190,63437,2,0,P|386:123|360:55,1,143.999995605469,8|0,0:0|0:0,0:0:0:0:
362,57,63937,1,0,0:0:0:0:
263,198,64104,6,0,P|292:261|356:291,1,143.999995605469,4|0,0:0|0:0,0:0:0:0:
440,249,64604,1,0,1:0:0:0:
303,122,64770,2,0,B|254:104|208:124|208:124|172:157,1,143.999995605469,8|0,0:0|0:0,0:0:0:0:
172,291,65270,2,0,P|237:263|263:198,1,143.999995605469,8|0,0:0|1:0,0:0:0:0:
221,113,65770,2,0,P|210:75|208:31,1,71.9999978027344,0|0,1:0|0:0,0:0:0:0:
313,118,66104,5,8,0:0:0:0:
263,198,66270,1,0,1:0:0:0:
368,278,66437,2,0,P|403:279|438:271,1,71.9999978027344,8|0,0:0|0:0,0:0:0:0:
263,198,66770,6,0,P|191:196|129:231,1,143.999995605469,0|0,1:0|0:0,0:0:0:0:
85,312,67270,1,0,1:0:0:0:
38,160,67437,2,0,P|30:195|36:231,2,71.9999978027344,8|0|0,0:0|0:0|0:0,0:0:0:0:
159,247,67937,2,0,P|173:316|149:383,1,143.999995605469,8|0,0:0|1:0,0:0:0:0:
85,312,68437,1,0,1:0:0:0:
85,312,68604,1,0,0:0:0:0:
222,182,68770,2,0,P|257:176|293:176,1,71.9999978027344,8|0,0:0|0:0,0:0:0:0:
388,302,69104,2,0,P|352:302|316:296,1,71.9999978027344
455,224,69437,6,0,P|487:295|459:377,1,143.999995605469,0|0,1:0|0:0,0:0:0:0:
388,302,69937,1,0,1:0:0:0:
293,176,70104,2,0,B|271:127|288:80|288:80|329:51,1,143.999995605469,8|0,0:0|0:0,0:0:0:0:
372,214,70604,1,8,0:0:0:0:
291,261,70770,1,0,0:0:0:0:
213,207,70937,1,0,1:0:0:0:
127,247,71104,2,0,P|92:249|57:240,1,71.9999978027344,0|0,1:0|0:0,0:0:0:0:
179,118,71437,5,8,0:0:0:0:
213,207,71604,1,0,1:0:0:0:
318,148,71770,1,8,0:0:0:0:
201,301,71937,1,8,0:0:0:0:
391,352,72104,5,4,0:0:0:0:
307,362,72770,1,0,0:0:0:0:
236,315,73437,1,2,0:2:0:0:
350,144,74104,5,0,0:0:0:0:
416,196,74770,1,2,0:2:0:0:
433,279,75437,1,0,0:0:0:0:
206,236,76104,1,2,0:2:0:0:
206,236,76770,5,0,0:0:0:0:
256,55,77104,1,2,0:0:0:0:
205,236,77437,6,0,P|135:235|84:187,1,143.999995605469,4|0,0:0|0:0,0:0:0:0:
171,151,77937,1,0,1:0:0:0:
300,238,78104,2,0,P|317:307|314:379,1,143.999995605469,8|0,0:0|0:0,0:0:0:0:
205,236,78604,1,0,1:0:0:0:
255,157,78770,1,0,0:0:0:0:
300,238,78937,1,0,1:0:0:0:
250,318,79104,2,0,P|216:328|180:325,1,71.9999978027344,0|0,1:0|0:0,0:0:0:0:
342,158,79437,2,0,P|411:143|478:166,1,143.999995605469,8|0,0:0|0:0,0:0:0:0:
406,226,79937,1,8,0:0:0:0:
255,157,80104,6,0,B|232:110|236:65|236:65|268:27,1,143.999995605469,4|0,0:0|0:0,0:0:0:0:
360,18,80604,1,0,1:0:0:0:
182,6,80770,2,0,P|111:5|39:12,1,143.999995605469,8|0,0:0|0:0,0:0:0:0:
158,101,81270,1,8,0:0:0:0:
275,6,81437,1,4,0:0:0:0:
275,6,81770,6,0,P|280:41|280:77,1,71.9999978027344,0|0,0:0|1:0,0:0:0:0:
206,216,82104,2,0,B|163:146|191:94|191:94|212:161|279:160,1,224,8|0,0:0|0:0,0:0:0:0:
285,144,82770,6,0,P|362:126|442:124,1,160,4|0,0:0|0:0,0:0:0:0:
500,237,83270,1,0,1:0:0:0:
500,237,83354,1,0,1:0:0:0:
500,237,83437,2,0,P|420:235|342:217,1,160,8|0,0:0|0:0,0:0:0:0:
198,107,83937,2,0,P|260:64|347:71,1,160,0|0,1:0|1:0,0:0:0:0:
342,217,84437,1,0,1:0:0:0:
341,216,84770,6,0,P|311:191|290:157,1,80,8|0,0:0|0:0,0:0:0:0:
422,235,85104,2,0,P|401:269|370:294,1,80,0|0,1:0|0:0,0:0:0:0:
208,245,85437,6,0,P|129:233|51:250,1,160,4|0,0:0|0:0,0:0:0:0:
8,350,85937,1,0,1:0:0:0:
8,350,86020,1,0,1:0:0:0:
8,350,86104,2,0,L|0:185,1,160,8|0,0:0|0:0,0:0:0:0:
92,67,86604,2,0,L|84:226,1,160,0|0,1:0|1:0,0:0:0:0:
148,370,87104,1,0,1:0:0:0:
50,300,87270,1,0,0:0:0:0:
168,205,87437,6,0,L|161:301,1,80,8|0,0:0|1:0,0:0:0:0:
261,157,87770,2,0,L|255:77,1,80,8|0,0:0|0:0,0:0:0:0:
364,180,88104,6,0,P|326:247|250:262,1,160,4|0,0:0|0:0,0:0:0:0:
168,205,88604,1,0,1:0:0:0:
168,205,88687,1,0,1:0:0:0:
168,205,88770,2,0,B|159:142|159:142|165:45,1,160,8|0,0:0|0:0,0:0:0:0:
340,25,89270,2,0,B|341:81|297:121|297:121|243:119,1,160,0|0,1:0|1:0,0:0:0:0:
164,44,89770,2,0,P|125:40|85:44,1,80,0|0,1:0|0:0,0:0:0:0:
112,212,90104,6,0,L|121:131,1,80,8|0,0:0|1:0,0:0:0:0:
268,215,90437,1,8,0:0:0:0:
164,44,90604,1,8,0:0:0:0:
143,278,90770,6,0,P|83:283|73:149,1,215.999993408203,4|0,0:0|1:0,0:0:0:0:
83,141,91354,1,0,1:0:0:0:
83,141,91437,6,0,L|217:134,1,128,8|0,0:0|0:0,0:0:0:0:
350,235,91937,2,0,L|222:224,1,128,0|0,1:0|1:0,0:0:0:0:
424,160,92437,1,0,1:0:0:0:
448,355,92604,1,0,1:0:0:0:
448,355,92687,1,0,1:0:0:0:
448,355,92770,5,8,0:0:0:0:
411,335,92854,1,0,0:0:0:0:
369,331,92937,1,0,0:0:0:0:
327,336,93020,1,0,0:0:0:0:
286,347,93104,1,8,0:0:0:0:
245,339,93187,1,0,0:0:0:0:
211,314,93270,1,8,0:0:0:0:
197,274,93354,1,8,0:0:0:0:
214,232,93437,6,0,P|226:155|185:88,1,160,4|0,0:0|0:0,0:0:0:0:
127,175,93937,1,0,1:0:0:0:
127,175,94020,1,0,1:0:0:0:
127,175,94104,2,0,L|121:336,1,160,8|0,0:0|0:0,0:0:0:0:
285,266,94604,2,0,L|279:106,1,160,0|0,1:0|1:0,0:0:0:0:
211,314,95104,1,0,1:0:0:0:
211,314,95437,6,0,P|236:343|275:353,1,80,8|0,0:0|0:0,0:0:0:0:
201,227,95770,2,0,P|162:237|136:266,1,80,0|0,1:0|0:0,0:0:0:0:
285,265,96104,6,0,P|288:188|230:138,1,160,4|0,0:0|0:0,0:0:0:0:
126,146,96604,1,0,1:0:0:0:
126,146,96687,1,0,1:0:0:0:
126,146,96770,2,0,L|106:309,1,160,8|0,0:0|0:0,0:0:0:0:
233,146,97270,1,0,1:0:0:0:
233,146,97437,2,0,L|223:46,1,80,0|0,0:0|1:0,0:0:0:0:
324,209,97770,1,0,1:0:0:0:
237,53,97937,1,0,0:0:0:0:
335,228,98104,6,0,L|414:234,1,80,8|0,0:0|1:0,0:0:0:0:
248,44,98437,2,0,L|169:50,1,80,8|0,0:0|0:0,0:0:0:0:
347,252,98770,6,0,L|520:269,1,160,4|0,0:0|0:0,0:0:0:0:
461,361,99270,1,0,1:0:0:0:
461,361,99354,1,0,1:0:0:0:
461,361,99437,2,0,P|382:375|303:369,1,160,8|0,0:0|0:0,0:0:0:0:
189,243,99937,2,0,P|268:236|346:251,1,160,0|0,1:0|1:0,0:0:0:0:
165,332,100437,2,0,P|130:315|106:283,1,80,0|0,1:0|0:0,0:0:0:0:
129,104,100770,6,0,L|131:183,1,80,8|0,0:0|0:0,0:0:0:0:
19,325,101104,2,0,L|21:245,1,80,0|0,1:0|0:0,0:0:0:0:
58,57,101437,6,0,P|127:22|198:53,1,160,4|0,0:0|0:0,0:0:0:0:
267,147,101937,1,0,1:0:0:0:
267,147,102020,1,0,1:0:0:0:
267,147,102104,2,0,L|433:136,1,160,8|0,0:0|0:0,0:0:0:0:
511,241,102604,2,0,L|351:230,1,160,0|0,1:0|1:0,0:0:0:0:
233,133,103104,2,0,P|224:94|230:54,1,80,0|0,1:0|0:0,0:0:0:0:
341,259,103437,5,8,0:0:0:0:
321,288,103520,1,0,0:0:0:0:
289,303,103604,1,0,0:0:0:0:
254,298,103687,1,0,0:0:0:0:
225,275,103770,1,8,0:0:0:0:
215,240,103854,1,0,0:0:0:0:
224,205,103937,1,8,0:0:0:0:
235,170,104020,1,8,0:0:0:0:
233,133,104104,1,4,0:0:0:0:
