osu file format v14

[General]
AudioFilename: Reduction.mp3
AudioLeadIn: 0
PreviewTime: 60396
Countdown: 0
SampleSet: Normal
StackLeniency: 0.7
Mode: 0
LetterboxInBreaks: 0
WidescreenStoryboard: 0

[Editor]
Bookmarks: 2528,21868,31767,60853,80346,90244,109737,129076,148111,156030,158314,168214,187554,209483,219229
DistanceSpacing: 1
BeatDivisor: 2
GridSize: 32
TimelineZoom: 1.500004

[Metadata]
Title:Kando*Reduction
TitleUnicode:感弩≠Reduction
Artist:AKI AKANE
ArtistUnicode:秋赤音
Creator:Milan-
Version:Normal
Source:
Tags:pho pishifat appleeaterx dragonfly yairi akiakane やいり
BeatmapID:611015
BeatmapSetID:262403

[Difficulty]
HPDrainRate:4
CircleSize:3.5
OverallDifficulty:4
ApproachRate:5
SliderMultiplier:1.1
SliderTickRate:2

[Events]
//Background and Video events
0,0,"firefly.jpg",0,0
Video,0,"colors.avi"
//Break Periods
2,80345,89043
2,109936,118282
2,148720,154830
//Storyboard Layer 0 (Background)
//Storyboard Layer 1 (Fail)
//Storyboard Layer 2 (Pass)
//Storyboard Layer 3 (Foreground)
//Storyboard Sound Samples

[TimingPoints]
2528,304.568527918782,4,2,1,25,1,0
2528,-100,4,2,1,25,0,0
12274,-100,4,1,1,38,0,0
19583,-100,4,2,0,38,0,0
21411,-100,4,2,0,80,0,0
21868,-100,4,1,0,95,0,0
21944,-100,4,1,1,90,0,0
31766,-100,4,2,1,70,0,0
36030,-100,4,1,1,75,0,0
36487,-100,4,1,0,88,0,0
36563,-100,4,1,1,83,0,0
41512,-100,4,2,1,70,0,0
45776,-100,4,1,1,75,0,0
46233,-100,4,1,0,88,0,0
46309,-100,4,1,1,83,0,0
51258,-100,4,2,1,75,0,0
55370,-100,4,1,1,73,0,0
56132,-100,4,2,1,75,0,0
58416,-100,4,2,1,77,0,0
58873,-100,4,2,1,79,0,0
59330,-100,4,2,1,81,0,0
59786,-100,4,2,1,83,0,0
60395,-100,4,2,1,85,0,0
60852,-100,4,1,0,100,0,1
60929,-100,4,1,1,95,0,1
67705,-100,4,1,0,82,0,1
68010,-100,4,1,1,95,0,1
79888,-100,4,1,1,95,0,0
90243,-100,4,1,0,80,0,0
90319,-100,4,2,1,70,0,0
94507,-100,4,1,1,75,0,0
94964,-100,4,1,0,88,0,0
95040,-100,4,1,1,83,0,0
99989,-100,4,2,1,70,0,0
104253,-100,4,1,1,75,0,0
104710,-100,4,1,0,88,0,0
104786,-100,4,1,1,83,0,0
108822,-100,4,1,1,80,0,0
109126,-100,4,1,1,76,0,0
109431,-100,4,1,1,73,0,0
109736,-100,4,1,1,60,0,0
119482,-100,4,2,1,60,0,0
123746,-100,4,2,1,70,0,0
124355,-100,4,2,1,75,0,0
126639,-100,4,1,1,77,0,0
127096,-100,4,1,1,79,0,0
127553,-100,4,1,1,81,0,0
128010,-100,4,1,1,83,0,0
128086,-100,4,2,1,60,0,0
128771,-100,4,2,1,75,0,0
129076,-100,4,1,0,100,0,1
129152,-100,4,1,1,95,0,1
135929,-100,4,1,0,82,0,1
136233,-100,4,1,1,95,0,1
148111,-100,4,1,1,95,0,0
148720,-100,4,2,1,55,0,0
157857,-100,4,2,0,68,0,0
158314,-100,4,1,0,88,0,0
158390,-100,4,1,1,83,0,0
162578,-100,4,1,1,86,0,0
168213,-100,4,2,1,75,0,0
172324,-100,4,1,1,73,0,0
173086,-100,4,2,1,75,0,0
177045,-100,4,1,1,73,0,0
177959,-100,4,2,1,75,0,0
182071,-100,4,1,1,73,0,0
182832,-100,4,2,1,75,0,0
184659,-100,4,1,1,76,0,0
185116,-100,4,1,0,83,0,0
185192,-100,4,1,1,78,0,0
185878,-100,4,1,1,80,0,0
186487,-100,4,1,1,82,0,0
186791,-100,4,1,1,84,0,0
187553,-100,4,2,0,85,0,0
189989,-100,4,1,1,87,0,0
192426,-100,4,1,0,100,0,1
192502,-100,4,1,1,95,0,1
204152,-100,4,1,0,86,0,1
204456,-100,4,1,1,95,0,1
209025,-100,4,1,1,95,0,0

[Colours]
Combo1 : 200,171,6
Combo2 : 14,188,123
Combo3 : 243,46,75
Combo4 : 5,145,190

[HitObjects]
44,62,2528,6,0,L|53:116,1,55,0|0,0:0|0:0,0:0:0:0:
156,78,2984,2,0,L|165:132,1,55,0|0,0:0|0:0,0:0:0:0:
269,97,3441,2,0,L|278:151,1,55,0|0,0:0|0:0,0:0:0:0:
382,113,3898,2,0,L|391:167,1,55,0|0,0:0|0:0,0:0:0:0:
116,349,4964,6,0,L|125:294,1,55,0|0,0:0|0:0,0:0:0:0:
228,257,5420,2,0,L|218:311,1,55,0|0,0:0|0:0,0:0:0:0:
311,370,5878,2,0,L|320:315,1,55,0|0,0:0|0:0,0:0:0:0:
423,278,6334,2,0,L|413:332,1,55,0|0,0:0|0:0,0:0:0:0:
501,13,7401,6,0,L|491:67,1,55,0|0,0:0|0:0,0:0:0:0:
389,29,7857,2,0,L|379:83,1,55,0|0,0:0|0:0,0:0:0:0:
276,48,8314,2,0,L|266:102,1,55,0|0,0:0|0:0,0:0:0:0:
163,64,8771,2,0,L|153:118,1,55,0|0,0:0|0:0,0:0:0:0:
429,300,9837,6,0,L|419:245,1,55,0|0,0:0|0:0,0:0:0:0:
317,208,10293,2,0,L|326:262,1,55,0|0,0:0|0:0,0:0:0:0:
234,321,10751,2,0,L|224:266,1,55,0|0,0:0|0:0,0:0:0:0:
122,229,11207,2,0,L|131:283,1,55,0|0,0:0|0:0,0:0:0:0:
346,32,12274,6,0,L|355:86,2,55,6|2|8,0:2|0:0|0:0,0:0:0:0:
293,13,12731,2,0,P|266:21|242:33,1,55,2|2,0:0|0:0,0:0:0:0:
134,55,13187,2,0,P|132:82|135:109,1,55,8|2,0:0|0:0,0:0:0:0:
99,213,13644,2,0,P|124:223|150:230,1,55,2|8,0:0|0:0,0:0:0:0:
370,218,14406,1,8,0:0:0:0:
439,133,14710,6,0,L|448:187,2,55,6|2|8,0:2|0:0|0:0,0:0:0:0:
386,115,15167,2,0,P|359:122|335:134,1,55,2|2,0:0|0:0,0:0:0:0:
227,156,15623,2,0,P|225:183|228:210,1,55,8|2,0:0|0:0,0:0:0:0:
192,314,16080,2,0,P|217:324|243:331,1,55,2|8,0:0|0:0,0:0:0:0:
463,319,16842,1,8,0:0:0:0:
399,228,17147,6,0,L|408:173,2,55,6|2|8,0:2|0:0|0:0,0:0:0:0:
346,246,17604,2,0,P|319:238|295:226,1,55,2|2,0:0|0:0,0:0:0:0:
187,205,18060,2,0,P|185:177|188:150,1,55,8|2,0:0|0:0,0:0:0:0:
152,47,18517,2,0,P|177:36|203:29,1,55,2|8,0:0|0:0,0:0:0:0:
423,42,19279,1,8,0:0:0:0:
346,120,19583,5,6,0:2:0:0:
65,101,21411,5,4,0:2:0:0:
65,101,21868,6,0,P|92:176|169:193,1,165,4|8,0:0|0:0,0:0:0:0:
271,153,22629,2,0,L|371:107,1,110,0|8,0:0|0:0,0:0:0:0:
421,87,23086,2,0,P|491:126|505:205,2,165,4|8|12,0:0|0:0|0:0,0:0:0:0:
399,195,24304,5,4,0:0:0:0:
285,313,24761,2,0,P|184:310|178:209,1,220,8|8,0:0|0:0,0:0:0:0:
207,162,25522,2,0,P|211:83|154:27,2,165,4|8|12,0:0|0:0|0:0,0:0:0:0:
102,127,26741,5,4,0:0:0:0:
59,285,27198,2,0,P|132:321|209:297,1,165,0|0,0:0|0:0,0:0:0:0:
287,219,27959,1,4,0:0:0:0:
349,66,28416,2,0,L|386:169,2,110,0|8|0,0:0|0:0|0:0,0:0:0:0:
298,44,29177,1,4,0:0:0:0:
165,141,29634,6,0,L|127:37,2,110,0|8|0,0:0|0:0|0:0,0:0:0:0:
216,163,30395,1,4,0:0:0:0:
208,327,30852,2,0,P|263:330|312:307,1,110,0|8,0:0|0:0,0:0:0:0:
392,230,31462,1,4,0:2:0:0:
300,168,31766,6,0,P|309:113|325:61,2,110,4|8|0,0:0|2:1|1:0,0:0:0:0:
255,268,32680,1,8,1:0:0:0:
255,268,32832,2,0,L|146:255,1,110,0|0,1:0|1:0,0:0:0:0:
90,248,33289,1,8,1:0:0:0:
9,172,33593,2,0,P|-11:121|-1:67,1,110,0|8,2:0|2:1,0:0:0:0:
108,56,34203,6,0,P|116:29|116:2,2,55,0|0|8,1:0|1:0|0:0,0:0:0:0:
105,110,34659,2,0,L|125:161,1,55,0|0,1:0|1:0,0:0:0:0:
235,161,35116,2,0,L|255:212,1,55,8|0,1:0|1:0,0:0:0:0:
364,204,35573,2,0,L|384:255,1,55,0|8,1:0|1:0,0:0:0:0:
345,358,36030,2,0,P|319:368|292:371,1,55,8|0,0:0|0:2,0:0:0:0:
184,346,36487,6,0,P|178:265|231:204,1,165,4|8,0:0|0:0,0:0:0:0:
339,185,37248,1,8,0:0:0:0:
413,103,37553,1,8,0:0:0:0:
331,29,37857,2,0,L|187:15,1,110,2|4,0:0|0:3,0:0:0:0:
114,47,38467,2,0,L|62:2,2,55,8|8|8,0:0|0:0|0:0,0:0:0:0:
141,94,38923,6,0,B|120:158|70:173|70:173|69:232,1,165,4|8,0:0|0:0,0:0:0:0:
128,320,39685,2,0,L|89:378,2,55,2|2|8,0:0|0:0|0:0,0:0:0:0:
160,274,40142,2,0,P|210:335|290:334,1,165,4|8,0:0|0:0,0:0:0:0:
376,264,40903,2,0,L|391:187,1,55,2|2,0:0|0:0,0:0:0:0:
439,225,41208,2,0,L|454:148,1,55,0|0,0:0|0:0,0:0:0:0:
447,116,41512,6,0,P|468:65|512:34,2,110,4|8|0,0:0|0:0|1:0,0:0:0:0:
336,113,42426,1,8,1:0:0:0:
336,113,42578,2,0,L|226:110,1,110,0|0,1:0|1:0,0:0:0:0:
171,120,43035,1,8,1:0:0:0:
90,195,43340,2,0,P|69:244|80:297,1,110,0|8,0:0|0:0,0:0:0:0:
190,327,43949,6,0,P|185:354|175:379,2,55,0|0|8,1:0|1:0|0:0,0:0:0:0:
178,272,44406,2,0,L|221:228,1,55,0|0,1:0|1:0,0:0:0:0:
321,265,44863,2,0,L|364:221,1,55,8|0,1:0|1:0,0:0:0:0:
306,129,45319,2,0,L|349:85,1,55,0|8,1:0|1:0,0:0:0:0:
450,60,45776,2,0,P|459:85|462:113,1,55,8|0,0:0|0:2,0:0:0:0:
475,223,46233,6,0,L|361:343,1,165,4|8,0:0|0:0,0:0:0:0:
250,344,46995,2,0,P|195:348|144:328,1,110,8|8,0:0|0:0,0:0:0:0:
113,283,47451,2,0,L|111:173,1,110,0|8,0:0|0:3,0:0:0:0:
211,126,48060,2,0,L|210:236,1,110,4|2,0:3|0:0,0:0:0:0:
307,288,48670,6,0,P|386:284|438:223,1,165,4|8,0:0|0:0,0:0:0:0:
475,118,49431,2,0,L|511:77,2,55,2|2|8,0:0|0:0|0:0,0:0:0:0:
420,126,49888,2,0,P|368:64|288:60,1,165,4|8,0:0|0:0,0:0:0:0:
183,94,50649,1,8,0:0:0:0:
188,204,50954,1,8,0:0:0:0:
94,259,51258,6,0,P|81:312|99:364,1,110,4|2,0:0|0:0,0:0:0:0:
208,347,51868,2,0,P|260:359|312:341,1,110,2|2,0:0|0:0,0:0:0:0:
353,305,52324,2,0,P|424:264|504:275,1,165,8|2,0:0|0:0,0:0:0:0:
457,175,53086,2,0,L|446:49,1,110,2|2,0:0|0:0,0:0:0:0:
345,24,53695,6,0,P|292:35|255:75,1,110,4|2,0:0|0:0,0:0:0:0:
201,171,54304,2,0,P|148:159|111:119,1,110,2|2,0:0|0:0,0:0:0:0:
96,66,54761,1,8,0:0:0:0:
13,138,55066,1,8,0:0:0:0:
47,242,55370,2,0,B|94:259|94:259|124:306|124:306|176:355|227:317,1,220,8|0,0:3|0:0,0:0:0:0:
270,284,56132,6,0,L|356:216,1,110,4|2,0:0|0:0,0:0:0:0:
348,106,56741,2,0,L|261:173,1,110,2|2,0:0|0:0,0:0:0:0:
151,173,57350,2,0,L|96:215,2,55,2|8|2,0:0|0:0|0:0,0:0:0:0:
160,63,57959,2,0,P|117:28|63:23,1,110,8|8,0:0|0:0,0:0:0:0:
17,54,58416,6,0,L|9:218,1,165,4|8,0:0|0:0,0:0:0:0:
47,322,59177,1,8,0:0:0:0:
156,332,59482,1,8,0:0:0:0:
265,341,59786,2,0,P|312:314|335:265,2,110,8|8|8,0:0|0:0|0:0,0:0:0:0:
214,183,60852,6,0,P|212:102|269:45,1,165,4|8,0:0|0:0,0:0:0:0:
379,57,61614,2,0,L|453:11,2,55,2|2|8,0:0|0:0|0:0,0:0:0:0:
368,111,62071,2,0,L|397:296,1,165,0|8,0:0|0:0,0:0:0:0:
310,346,62832,2,0,B|257:296|257:296|220:288,1,110,0|8,0:0|0:0,0:0:0:0:
164,291,63289,6,0,P|110:232|105:151,1,165,4|8,0:0|0:0,0:0:0:0:
160,55,64050,2,0,L|275:67,1,110,0|8,0:0|0:0,0:0:0:0:
324,70,64507,2,0,B|345:119|345:119|418:121|453:189,1,165,0|8,0:0|0:0,0:0:0:0:
349,230,65268,1,8,0:0:0:0:
246,185,65573,1,8,0:0:0:0:
246,185,65725,6,0,P|167:194|128:263,1,165,4|8,0:0|0:0,0:0:0:0:
165,367,66487,2,0,L|301:354,1,110,0|8,0:0|0:0,0:0:0:0:
329,352,66944,2,0,B|398:336|436:306|436:306|434:258,1,165,0|8,0:0|0:0,0:0:0:0:
411,150,67705,2,0,P|412:95|441:50,1,110,2|8,0:2|0:0,0:0:0:0:
489,22,68162,6,0,P|408:37|326:33,1,165,4|8,0:0|0:0,0:0:0:0:
217,17,68923,1,8,0:0:0:0:
120,68,69227,1,8,0:0:0:0:
74,168,69532,1,8,0:0:0:0:
111,271,69837,2,0,L|58:382,2,110,8|8|8,0:0|0:0|0:0,0:0:0:0:
160,244,70599,6,0,P|236:219|310:251,1,165,4|8,0:0|0:0,0:0:0:0:
388,329,71360,2,0,L|396:400,2,55,2|2|8,0:0|0:0|0:0,0:0:0:0:
412,279,71817,2,0,P|430:198|418:117,1,165,0|8,0:0|0:0,0:0:0:0:
359,24,72578,2,0,P|326:67|277:90,1,110,0|8,0:0|0:0,0:0:0:0:
222,85,73035,6,0,B|165:63|116:99|116:99|99:149,1,165,4|8,0:0|0:0,0:0:0:0:
56,251,73797,2,0,L|84:371,1,110,0|8,0:0|0:0,0:0:0:0:
189,340,74406,2,0,L|213:232,1,110,2|8,0:0|0:0,0:0:0:0:
318,197,75014,1,8,0:0:0:0:
400,270,75319,1,8,0:0:0:0:
399,270,75472,6,0,P|448:205|436:126,1,165,4|8,0:0|0:0,0:0:0:0:
361,46,76233,2,0,L|251:54,1,110,0|8,0:0|0:0,0:0:0:0:
202,29,76690,2,0,L|168:191,1,165,4|8,0:0|0:0,0:0:0:0:
197,296,77451,1,0,0:0:0:0:
248,274,77604,6,0,L|306:267,2,55,0|8|4,0:0|0:0|0:0,0:0:0:0:
168,191,78213,2,0,L|110:184,2,55,2|8|4,0:0|0:0|0:0,0:0:0:0:
258,126,78822,2,0,L|316:119,2,55,2|8|4,0:0|0:0|0:0,0:0:0:0:
176,54,79431,2,0,P|148:37|117:28,2,55,8|8|8,0:0|0:0|0:0,0:0:0:0:
165,107,79887,1,12,0:0:0:0:
66,201,90243,6,0,L|38:307,2,110,4|8|0,0:0|0:0|1:0,0:0:0:0:
109,99,91157,1,8,0:0:0:0:
109,99,91309,2,0,P|160:117|213:105,1,110,0|0,1:0|1:0,0:0:0:0:
260,77,91766,1,8,1:0:0:0:
346,144,92071,2,0,L|361:271,1,110,0|8,0:0|0:0,0:0:0:0:
273,322,92680,6,0,L|267:267,2,55,0|0|8,1:0|1:0|0:0,0:0:0:0:
240,366,93137,2,0,P|205:371|174:369,1,55,0|0,1:0|1:0,0:0:0:0:
124,279,93593,2,0,P|89:275|59:265,1,55,8|0,1:0|1:0,0:0:0:0:
50,161,94050,2,0,P|17:148|-8:131,1,55,0|8,1:0|1:0,0:0:0:0:
68,51,94507,2,0,L|171:29,1,55,8|0,0:0|0:0,0:0:0:0:
217,90,94964,6,0,P|285:134|363:114,1,165,4|8,0:0|0:0,0:0:0:0:
454,52,95725,1,8,0:0:0:0:
495,154,96030,1,8,0:0:0:0:
455,256,96335,2,0,B|406:275|406:275|348:267,1,110,2|4,0:0|0:3,0:0:0:0:
241,242,96944,2,0,P|187:248|144:282,1,110,8|8,0:0|0:0,0:0:0:0:
128,335,97401,6,0,L|99:133,1,165,4|8,0:0|0:0,0:0:0:0:
168,82,98162,2,0,L|159:27,2,55,2|2|8,0:0|0:0|0:0,0:0:0:0:
202,123,98619,2,0,P|282:120|328:54,1,165,4|8,0:0|0:0,0:0:0:0:
433,86,99380,2,0,L|450:144,1,55,2|2,0:0|0:0,0:0:0:0:
412,180,99685,2,0,L|429:238,1,55,0|0,0:0|0:0,0:0:0:0:
415,285,99989,6,0,P|380:328|331:351,2,110,4|8|0,0:1|0:0|1:0,0:0:0:0:
313,242,100903,1,8,1:0:0:0:
313,242,101055,2,0,P|262:222|208:230,1,110,0|0,1:0|1:0,0:0:0:0:
163,262,101512,1,8,1:0:0:0:
57,229,101817,2,0,P|46:175|53:121,1,110,0|8,0:0|0:0,0:0:0:0:
128,40,102426,6,0,P|154:24|189:12,2,55,0|0|8,1:0|1:0|0:0,0:0:0:0:
148,91,102883,2,0,L|169:141,1,55,0|0,1:0|1:0,0:0:0:0:
272,101,103340,2,0,L|293:151,1,55,8|0,1:0|1:0,0:0:0:0:
396,113,103797,2,0,L|417:163,1,55,0|8,1:0|0:0,0:0:0:0:
399,271,104253,2,0,P|373:282|347:288,1,55,8|0,0:0|0:0,0:0:0:0:
239,265,104710,6,0,P|160:248|90:289,1,165,4|8,0:0|0:0,0:0:0:0:
177,355,105472,2,0,P|229:372|284:365,1,110,8|8,0:0|0:0,0:0:0:0:
330,335,105929,2,0,B|376:305|376:305|430:299,1,110,0|8,0:0|0:3,0:0:0:0:
493,209,106538,2,0,B|438:203|438:203|392:173,1,110,4|2,0:3|0:0,0:0:0:0:
320,89,107147,6,0,P|247:53|170:76,1,165,4|8,0:0|0:0,0:0:0:0:
82,142,107908,2,0,L|6:106,2,55,2|2|8,0:0|0:0|0:0,0:0:0:0:
117,184,108365,2,0,P|141:253|112:349,1,165,4|8,0:0|0:0,0:0:0:0:
37,265,109126,1,8,0:0:0:0:
11,157,109431,1,8,0:0:0:0:
91,81,109736,5,0,0:0:0:0:
91,303,119482,6,0,L|180:322,2,82.5,2|2|2,0:0|0:0|0:0,0:0:0:0:
63,255,120091,1,10,0:0:0:0:
276,201,120700,2,0,L|187:220,2,82.5,2|2|2,0:0|0:0|0:0,0:0:0:0:
304,153,121309,1,10,0:0:0:0:
90,98,121918,6,0,L|179:117,2,82.5,2|2|2,0:0|0:0|0:0,0:0:0:0:
79,43,122528,2,0,L|-10:62,2,82.5,10|2|2,0:0|0:0|0:0,0:0:0:0:
130,22,123137,1,2,0:0:0:0:
299,161,123746,2,0,B|314:90|314:90|351:54,1,110,4|0,0:0|0:0,0:0:0:0:
401,155,124355,6,0,L|379:262,1,110,4|2,0:0|0:0,0:0:0:0:
269,250,124964,2,0,L|247:357,1,110,2|2,0:0|0:0,0:0:0:0:
137,362,125573,2,0,L|152:291,2,55,2|8|2,0:0|0:0|0:0,0:0:0:0:
39,310,126182,2,0,B|24:266|24:266|34:232|34:232|16:194|34:151,2,165,2|4|8,0:0|0:2|0:0,0:0:0:0:
136,257,127401,5,8,0:0:0:0:
230,200,127705,1,8,0:0:0:0:
322,140,128010,2,0,P|389:127|290:69,1,275,12|2,0:2|0:0,0:0:0:0:
197,113,129076,6,0,B|137:127|88:106|88:106|51:146,1,165,4|8,0:0|0:0,0:0:0:0:
43,254,129837,2,0,L|5:294,2,55,2|2|8,0:0|0:0|0:0,0:0:0:0:
91,230,130294,2,0,P|169:245|199:319,1,165,0|8,0:0|0:0,0:0:0:0:
297,369,131055,2,0,B|351:334|351:334|375:291,1,110,0|8,0:0|0:0,0:0:0:0:
340,250,131512,6,0,P|325:169|347:90,1,165,4|8,0:0|0:0,0:0:0:0:
271,10,132274,2,0,P|229:44|166:56,1,110,0|8,0:0|0:0,0:0:0:0:
123,40,132731,2,0,B|111:89|111:89|52:118|52:180,1,165,0|8,0:0|0:0,0:0:0:0:
99,279,133492,1,8,0:0:0:0:
147,178,133797,1,8,0:0:0:0:
147,178,133949,6,0,P|222:210|301:191,1,165,4|8,0:0|0:0,0:0:0:0:
349,91,134710,2,0,P|390:127|410:178,1,110,0|8,0:0|0:0,0:0:0:0:
402,233,135167,2,0,B|367:335|367:335|296:353,1,165,0|8,0:0|0:0,0:0:0:0:
208,309,135929,2,0,B|183:297|154:299|154:299|126:300|98:286,1,110,2|8,0:2|0:0,0:0:0:0:
64,246,136385,6,0,L|62:73,1,165,4|8,0:0|0:0,0:0:0:0:
165,120,137147,1,8,0:0:0:0:
262,70,137451,1,8,0:0:0:0:
346,140,137756,1,8,0:0:0:0:
453,116,138060,2,0,L|511:17,2,110,8|8|8,0:0|0:0|0:0,0:0:0:0:
440,168,138822,6,0,B|425:226|439:279|439:279|391:321,1,165,4|8,0:0|0:0,0:0:0:0:
303,259,139583,2,0,L|311:188,2,55,2|2|8,0:0|0:0|0:0,0:0:0:0:
282,310,140040,2,0,P|207:340|135:307,1,165,0|8,0:0|0:0,0:0:0:0:
87,207,140802,2,0,L|84:97,1,110,0|8,0:0|0:0,0:0:0:0:
94,43,141258,6,0,B|146:63|202:39|202:39|265:70,1,165,4|8,0:0|0:0,0:0:0:0:
347,113,142020,2,0,P|402:113|456:125,1,110,0|8,0:0|0:0,0:0:0:0:
494,229,142629,2,0,P|440:241|385:241,1,110,2|8,0:0|0:0,0:0:0:0:
281,206,143238,1,8,0:0:0:0:
209,289,143543,1,8,0:0:0:0:
209,289,143695,6,0,P|171:218|193:140,1,165,4|8,0:0|0:0,0:0:0:0:
287,82,144456,2,0,L|423:71,1,110,0|8,0:0|0:0,0:0:0:0:
447,95,144913,2,0,B|468:146|468:146|485:198|457:255,1,165,4|8,0:0|0:0,0:0:0:0:
376,327,145675,1,0,0:0:0:0:
333,292,145827,6,0,L|355:222,2,55,0|8|4,0:0|0:0|0:0,0:0:0:0:
231,248,146436,2,0,L|236:175,2,55,2|8|4,0:0|0:0|0:0,0:0:0:0:
126,214,147045,2,0,L|121:141,2,55,2|8|4,0:0|0:0|0:0,0:0:0:0:
151,321,147654,2,0,P|123:338|92:347,2,55,8|8|8,0:0|0:0|0:0,0:0:0:0:
197,350,148111,1,12,0:0:0:0:
459,288,156030,5,4,0:0:0:0:
437,70,156639,1,4,0:0:0:0:
256,192,157248,2,0,P|206:200|238:86,1,220,4|4,0:0|0:0,0:0:0:0:
384,108,158314,6,0,P|428:174|410:252,1,165,4|2,0:0|0:0,0:0:0:0:
332,331,159076,2,0,L|205:332,1,110,8|2,0:0|0:0,0:0:0:0:
171,308,159533,2,0,P|126:241|144:163,1,165,4|2,0:2|0:0,0:0:0:0:
223,85,160295,2,0,L|350:84,1,110,8|2,0:0|0:0,0:0:0:0:
349,136,160751,6,0,P|410:187|491:184,1,165,4|2,0:2|0:0,0:0:0:0:
445,83,161512,1,8,0:0:0:0:
352,23,161817,1,2,0:0:0:0:
352,23,161969,2,0,P|272:29|221:92,1,165,4|0,0:2|0:0,0:0:0:0:
207,146,162578,2,0,B|188:198|188:198|201:250|201:250|183:303,1,165,8|8,0:0|0:0,0:0:0:0:
149,345,163187,6,0,P|69:349|20:286,1,165,4|8,0:2|0:0,0:0:0:0:
56,181,163949,2,0,P|58:126|45:73,1,110,2|8,0:0|0:0,0:0:0:0:
20,22,164406,2,0,P|99:46|179:31,1,165,4|8,0:2|0:0,0:0:0:0:
289,27,165167,2,0,L|349:119,1,110,0|8,0:0|0:0,0:0:0:0:
374,166,165624,6,0,P|380:246|325:304,1,165,4|8,0:2|0:0,0:0:0:0:
215,307,166385,2,0,L|154:214,1,110,0|8,0:0|0:0,0:0:0:0:
127,166,166842,2,0,P|121:86|176:28,1,165,0|8,0:0|0:0,0:0:0:0:
286,45,167604,1,2,0:0:0:0:
394,59,167908,1,0,0:0:0:0:
445,156,168213,6,0,L|445:266,1,110,4|2,0:0|0:0,0:0:0:0:
349,211,168822,2,0,L|349:321,1,110,2|2,0:0|0:0,0:0:0:0:
309,359,169279,2,0,P|230:369|174:312,1,165,8|2,0:0|0:0,0:0:0:0:
117,218,170040,2,0,P|105:162|103:108,1,110,2|2,0:0|0:0,0:0:0:0:
173,25,170649,6,0,P|228:24|273:54,1,110,4|2,0:0|0:0,0:0:0:0:
382,34,171258,2,0,P|382:88|352:133,1,110,2|2,0:0|0:0,0:0:0:0:
304,160,171715,1,8,0:0:0:0:
276,266,172020,1,8,0:0:0:0:
368,324,172324,2,0,B|413:293|413:293|424:240|424:240|476:218|476:218|486:165,1,220,0|0,0:0|0:0,0:0:0:0:
490,109,173086,6,0,P|443:81|388:84,1,110,4|2,0:0|0:0,0:0:0:0:
305,14,173695,2,0,P|277:60|280:115,1,110,2|2,0:0|0:0,0:0:0:0:
306,163,174152,2,0,P|290:241|218:276,1,165,8|2,0:0|0:0,0:0:0:0:
109,257,174913,2,0,P|70:217|50:167,1,110,2|2,0:0|0:0,0:0:0:0:
67,58,175522,6,0,L|173:30,1,110,4|2,0:0|0:0,0:0:0:0:
182,141,176132,2,0,L|288:113,1,110,2|2,0:0|0:0,0:0:0:0:
339,94,176588,2,0,P|408:136|421:215,1,165,8|8,0:0|0:0,0:0:0:0:
370,313,177350,1,8,0:0:0:0:
260,313,177654,1,8,0:0:0:0:
169,250,177959,6,0,L|115:376,1,110,4|2,0:0|0:0,0:0:0:0:
40,281,178568,2,0,L|23:172,1,110,2|2,0:0|0:0,0:0:0:0:
17,117,179025,2,0,P|85:76|160:104,1,165,8|2,0:0|0:0,0:0:0:0:
229,189,179786,2,0,P|283:195|331:169,1,110,2|2,0:0|0:0,0:0:0:0:
394,78,180396,6,0,L|481:177,1,110,4|2,0:0|0:0,0:0:0:0:
403,252,181005,2,0,L|331:170,1,110,2|2,0:0|0:0,0:0:0:0:
293,129,181462,1,8,0:0:0:0:
185,152,181766,1,8,0:0:0:0:
185,152,181918,2,0,B|132:91|98:80|98:80|33:153|45:244,1,275,2|0,0:0|0:0,0:0:0:0:
70,274,182832,6,0,P|121:289|173:273,1,110,4|2,0:0|0:0,0:0:0:0:
267,214,183441,2,0,P|318:198|370:213,1,110,2|2,0:0|0:0,0:0:0:0:
456,283,184050,2,0,L|516:230,2,55,2|8|2,0:0|0:0|0:0,0:0:0:0:
361,338,184659,2,0,L|239:340,1,110,0|0,0:0|0:0,0:0:0:0:
195,335,185116,6,0,B|157:291|157:291|122:244|137:189,1,165,4|8,0:0|0:0,0:0:0:0:
197,97,185878,1,8,0:0:0:0:
247,196,186182,1,8,0:0:0:0:
357,190,186487,2,0,P|411:160|427:103,2,110,8|8|8,0:0|0:0|0:0,0:0:0:0:
289,39,187553,5,4,0:0:0:0:
289,39,189076,5,4,0:0:0:0:
190,88,189380,1,4,0:0:0:0:
91,137,189685,1,4,0:0:0:0:
82,246,189989,6,0,P|110:306|203:323,1,165,4|8,0:0|0:0,0:0:0:0:
300,277,190751,2,0,P|351:258|406:260,1,110,8|2,0:0|0:0,0:0:0:0:
455,285,191208,2,0,L|419:123,1,165,8|2,0:0|0:0,0:0:0:0:
341,46,191969,1,12,0:0:0:0:
237,177,192426,6,0,B|175:169|152:113|152:113|110:145,1,165,4|8,0:0|0:0,0:0:0:0:
32,222,193187,2,0,L|57:340,1,110,2|8,0:0|0:0,0:0:0:0:
102,358,193644,2,0,P|182:364|243:311,1,165,0|8,0:0|0:0,0:0:0:0:
277,206,194406,2,0,P|305:159|354:136,1,110,0|8,0:0|0:0,0:0:0:0:
409,143,194863,6,0,L|487:288,1,165,4|8,0:0|0:0,0:0:0:0:
402,357,195624,1,8,0:0:0:0:
292,366,195928,1,8,0:0:0:0:
218,284,196233,1,8,0:0:0:0:
210,174,196537,2,0,P|254:142|307:129,2,110,8|8|8,0:0|0:0|0:0,0:0:0:0:
167,210,197299,6,0,P|91:191|67:116,1,165,4|8,0:0|0:0,0:0:0:0:
161,58,198060,2,0,L|142:-16,2,55,2|2|8,0:0|0:0|0:0,0:0:0:0:
203,93,198517,2,0,P|284:86|360:53,1,165,0|8,0:0|0:0,0:0:0:0:
470,52,199279,2,0,L|453:175,1,110,0|8,0:0|0:0,0:0:0:0:
446,215,199736,6,0,P|368:235|336:308,1,165,4|8,0:0|0:0,0:0:0:0:
235,351,200497,2,0,L|105:343,1,110,0|8,0:0|0:0,0:0:0:0:
38,276,201106,2,0,P|14:226|17:172,1,110,0|8,0:0|0:0,0:0:0:0:
61,71,201715,1,8,0:0:0:0:
164,107,202020,1,8,0:0:0:0:
163,107,202172,6,0,P|236:72|314:95,1,165,4|8,0:0|0:0,0:0:0:0:
246,181,202934,2,0,L|252:305,1,110,0|8,0:0|0:0,0:0:0:0:
267,343,203390,2,0,P|344:365|417:331,1,165,4|8,0:0|0:0,0:0:0:0:
481,240,204152,1,2,0:2:0:0:
479,185,204304,6,0,L|461:123,2,55,2|8|4,0:2|0:0|0:0,0:0:0:0:
368,179,204913,2,0,L|322:134,2,55,2|8|4,0:0|0:0|0:0,0:0:0:0:
277,241,205522,2,0,L|214:225,2,55,2|8|4,0:0|0:0|0:0,0:0:0:0:
297,349,206132,2,0,L|359:366,2,55,2|8|4,0:0|0:0|0:0,0:0:0:0:
193,311,206741,6,0,L|132:294,2,55,2|8|4,0:0|0:0|0:0,0:0:0:0:
277,241,207350,2,0,L|339:258,2,55,2|8|4,0:0|0:0|0:0,0:0:0:0:
192,170,207959,2,0,L|131:153,1,55,2|8,0:0|0:0,0:0:0:0:
83,156,208264,2,0,P|21:267|118:348,1,275,4|12,0:0|0:0,0:0:0:0:
