osu file format v14

[General]
AudioFilename: Reduction.mp3
AudioLeadIn: 0
PreviewTime: 60396
Countdown: 0
SampleSet: Normal
StackLeniency: 0.7
Mode: 0
LetterboxInBreaks: 0
WidescreenStoryboard: 0

[Editor]
Bookmarks: 2528,31767,60853,80346,90244,109737,129077,148721,168214,187554,209483,219229
DistanceSpacing: 1
BeatDivisor: 4
GridSize: 32
TimelineZoom: 3.500002

[Metadata]
Title:Kando*Reduction
TitleUnicode:感弩≠Reduction
Artist:AKI AKANE
ArtistUnicode:秋赤音
Creator:Milan-
Version:Collab Insane
Source:
Tags:pho pishifat appleeaterx dragonfly yairi akiakane やいり
BeatmapID:598863
BeatmapSetID:262403

[Difficulty]
HPDrainRate:6.6
CircleSize:4
OverallDifficulty:7.8
ApproachRate:9
SliderMultiplier:1.7
SliderTickRate:2

[Events]
//Background and Video events
0,0,"firefly.jpg",0,0
Video,0,"colors.avi"
//Break Periods
2,80545,89643
2,109936,118882
2,148920,155430
//Storyboard Layer 0 (Background)
//Storyboard Layer 1 (Fail)
//Storyboard Layer 2 (Pass)
//Storyboard Layer 3 (Foreground)
Sprite,Foreground,Centre,"milan.png",320,240 M,0,2528,,120,401 F,0,2528,3441,0,1 S,0,2528,31766,0.51 F,0,31614,31766,1,0 F,0,60548,60852,0,0.5 S,0,60548,60852,0.48,0.51 F,0,60652,,0.5,1 S,0,60852,80497,0.51 F,0,80497,80802,1,0 F,0,90243,90396,0,1 S,0,90396,,0.51 F,0,109431,110040,1,0 S,0,109431,110040,0.51,0.55 F,0,128923,129076,0,1 S,0,128923,148720,0.51 F,0,148416,148720,1,0.7 F,0,148720,149025,0.7,0 S,0,148720,149025,0.51,0.55 S,0,168213,,0.51 F,0,168213,168365,0,1 F,0,187096,187553,1,0 S,0,187096,187553,0.51,0.55
Sprite,Foreground,Centre,"milan1.png",320,240 M,0,21868,22324,120,401 F,0,21868,22324,1,0 S,0,21868,22324,0.51,0.63 F,0,60852,61309,1,0 S,0,60852,61309,0.51,0.63 F,0,80345,80802,1,0 S,0,80345,80802,0.51,0.63 F,0,129076,129533,1,0 S,0,129076,129533,0.51,0.63
Sprite,Foreground,Centre,"APPLEEATRTXAFASARRA.png",320,240 S,0,31766,,0.51 F,0,31766,31918,0,1 M,0,31766,32529,530,401 F,0,60396,60852,1,0.3 S,0,60396,60852,0.51,0.55 F,0,60852,61005,0.3,0 F,0,119482,120091,0,1 S,0,119482,128923,0.51 F,0,128923,129076,1,0 S,0,158314,,0.51 F,0,158314,158467,0,1 F,0,168060,168213,1,0 S,0,189837,,0.51 F,0,189837,189989,0,1 F,0,209634,209939,1,0
Sprite,Foreground,Centre,"apple.png",320,240 M,0,158314,158771,530,401 F,0,158314,158771,1,0 S,0,158314,158771,0.51,0.63 F,0,192426,192883,1,0 S,0,192426,192883,0.51,0.63 F,0,209482,209939,1,0 S,0,209482,209939,0.51,0.63
//Storyboard Sound Samples

[TimingPoints]
2528,304.568527918782,4,2,1,25,1,0
2528,-133.333333333333,4,2,1,25,0,0
12274,-117.647058823529,4,1,1,38,0,0
19583,-117.647058823529,4,2,0,38,0,0
19659,-117.647058823529,4,2,1,25,0,0
21106,-83.3333333333333,4,2,0,30,0,0
21411,-83.3333333333333,4,2,0,80,0,0
21868,-100,4,1,0,95,0,0
21944,-100,4,1,1,90,0,0
31766,-100,4,2,1,70,0,0
36030,-100,4,1,1,75,0,0
36487,-100,4,1,0,88,0,0
36563,-100,4,1,1,83,0,0
41512,-100,4,2,1,70,0,0
45776,-100,4,1,1,75,0,0
46233,-100,4,1,0,88,0,0
46309,-100,4,1,1,83,0,0
51258,-100,4,2,1,75,0,0
55370,-100,4,1,1,73,0,0
56132,-100,4,2,1,75,0,0
58416,-100,4,2,1,77,0,0
58873,-100,4,2,1,79,0,0
59330,-100,4,2,1,81,0,0
59786,-100,4,2,1,83,0,0
60395,-200,4,2,1,85,0,0
60472,-200,4,2,1,20,0,0
60852,-94.3396226415094,4,1,0,100,0,1
60929,-94.3396226415094,4,1,1,95,0,1
67705,-94.3396226415094,4,1,0,82,0,1
68010,-94.3396226415094,4,1,1,95,0,1
79888,-100,4,1,1,95,0,0
80345,-100,4,1,0,100,0,0
90243,-117.647058823529,4,1,0,80,0,0
90319,-117.647058823529,4,2,1,70,0,0
94507,-117.647058823529,4,1,1,75,0,0
94964,-100,4,1,0,88,0,0
95040,-100,4,1,1,83,0,0
99989,-117.647058823529,4,2,1,70,0,0
104253,-117.647058823529,4,1,1,75,0,0
104710,-100,4,1,0,88,0,0
104786,-100,4,1,1,83,0,0
108822,-100,4,1,1,80,0,0
109126,-100,4,1,1,76,0,0
109431,-100,4,1,1,73,0,0
109736,-100,4,1,1,60,0,0
119482,-133.333333333333,4,2,1,60,0,0
123746,-133.333333333333,4,2,1,70,0,0
124355,-133.333333333333,4,2,1,75,0,0
126639,-100,4,1,1,77,0,0
127096,-100,4,1,1,79,0,0
127553,-100,4,1,1,81,0,0
128010,-100,4,1,1,83,0,0
128086,-100,4,2,1,60,0,0
128771,-100,4,2,1,75,0,0
129076,-94.3396226415094,4,1,0,100,0,1
129152,-94.3396226415094,4,1,1,95,0,1
135929,-94.3396226415094,4,1,0,82,0,1
136233,-94.3396226415094,4,1,1,95,0,1
148111,-100,4,1,1,95,0,0
148720,-100,4,2,1,55,0,0
157857,-100,4,2,0,68,0,0
158314,-100,4,1,0,88,0,0
158390,-100,4,1,1,83,0,0
162578,-100,4,1,1,86,0,0
168213,-117.647058823529,4,2,1,75,0,0
172324,-117.647058823529,4,1,1,73,0,0
173086,-117.647058823529,4,2,1,75,0,0
177045,-117.647058823529,4,1,1,73,0,0
177959,-117.647058823529,4,2,1,75,0,0
182071,-117.647058823529,4,1,1,73,0,0
182832,-117.647058823529,4,2,1,75,0,0
184659,-117.647058823529,4,1,1,76,0,0
185116,-100,4,1,0,83,0,0
185192,-100,4,1,1,78,0,0
185878,-100,4,1,1,80,0,0
186487,-100,4,1,1,82,0,0
186791,-100,4,1,1,84,0,0
187553,-100,4,2,0,85,0,0
189989,-100,4,1,1,87,0,0
192426,-94.3396226415094,4,1,0,100,0,1
192502,-94.3396226415094,4,1,1,95,0,1
204152,-94.3396226415094,4,1,0,86,0,1
204456,-94.3396226415094,4,1,1,95,0,1
209025,-100,4,1,1,95,0,0
209482,-100,4,1,0,100,0,0

[Colours]
Combo1 : 200,171,6
Combo2 : 14,188,123
Combo3 : 243,46,75
Combo4 : 5,145,190

[HitObjects]
52,102,2528,6,0,L|34:40,1,63.7500024318696,0|0,0:0|0:0,0:0:0:0:
176,161,2985,2,0,L|158:99,1,63.7500024318696,0|0,0:0|0:0,0:0:0:0:
48,119,3441,2,0,L|30:57,1,63.7500024318696,0|0,0:0|0:0,0:0:0:0:
172,178,3898,2,0,L|154:116,1,63.7500024318696,0|0,0:0|0:0,0:0:0:0:
460,102,4964,6,0,L|477:40,1,63.7500024318696
336,161,5421,2,0,L|353:99,1,63.7500024318696
464,119,5877,2,0,L|481:57,1,63.7500024318696
340,178,6334,2,0,L|357:116,1,63.7500024318696
52,282,7401,6,0,L|34:343,1,63.7500024318696
176,223,7858,2,0,L|158:284,1,63.7500024318696
48,265,8314,2,0,L|30:326,1,63.7500024318696
172,206,8771,2,0,L|154:267,1,63.7500024318696
460,282,9837,6,0,L|477:343,1,63.7500024318696
336,223,10294,2,0,L|353:284,1,63.7500024318696
464,265,10750,2,0,L|481:326,1,63.7500024318696
340,206,11207,2,0,L|357:267,1,63.7500024318696
52,102,12274,6,0,L|33:32,1,72.2500013780594,6|2,0:2|0:0,0:0:0:0:
145,124,12578,1,8,0:0:0:0:
92,208,12731,2,0,P|125:221|161:221,1,72.2500013780594,2|2,0:0|0:0,0:0:0:0:
198,37,13187,1,8,0:0:0:0:
207,31,13340,1,2,0:0:0:0:
248,190,13644,1,2,0:0:0:0:
257,184,13797,1,8,0:0:0:0:
257,184,14406,1,8,0:0:0:0:
460,102,14710,6,0,L|478:32,1,72.2500013780594,6|2,0:2|0:0,0:0:0:0:
367,124,15014,1,8,0:0:0:0:
420,208,15167,2,0,P|386:221|350:221,1,72.2500013780594,2|2,0:0|0:0,0:0:0:0:
314,37,15624,1,8,0:0:0:0:
305,31,15776,1,2,0:0:0:0:
264,190,16080,1,2,0:0:0:0:
255,184,16233,1,8,0:0:0:0:
255,184,16842,1,8,0:0:0:0:
52,282,17147,6,0,L|33:351,1,72.2500013780594,6|2,0:2|0:0,0:0:0:0:
145,260,17451,1,8,0:0:0:0:
92,176,17604,2,0,P|125:162|161:162,1,72.2500013780594,2|2,0:0|0:0,0:0:0:0:
198,347,18060,1,8,0:0:0:0:
207,353,18213,1,2,0:0:0:0:
248,194,18517,1,2,0:0:0:0:
257,200,18670,1,8,0:0:0:0:
257,200,19279,1,8,0:0:0:0:
460,282,19583,6,0,L|478:351,2,72.2500013780594,6|0|0,0:2|0:0|0:0,0:0:0:0:
420,176,20040,2,0,P|386:162|350:162,1,72.2500013780594
277,287,20497,2,0,P|241:286|207:273,1,72.2500013780594
108,167,20954,1,0,0:0:0:0:
108,167,21106,6,0,P|52:205|63:111,1,203.999993774414,0|4,0:0|0:2,0:0:0:0:
42,93,21868,6,0,P|122:71|194:113,1,170,4|2,0:0|0:0,0:0:0:0:
235,186,22324,1,8,0:0:0:0:
319,197,22477,1,2,0:0:0:0:
426,118,22629,1,0,0:0:0:0:
423,143,22705,1,0,0:0:0:0:
420,168,22781,1,0,0:0:0:0:
417,193,22857,1,0,0:0:0:0:
415,218,22934,1,8,0:0:0:0:
311,309,23086,6,0,P|305:228|235:186,1,170,4|2,0:0|0:0,0:0:0:0:
162,230,23543,1,8,0:0:0:0:
204,107,23695,1,8,0:0:0:0:
240,268,23847,1,0,0:0:0:0:
240,268,23923,1,0,0:0:0:0:
240,267,24000,2,0,P|191:307|128:306,1,127.5,12|0,0:0|2:0,0:0:0:0:
68,265,24304,6,0,L|196:385,1,170,4|2,0:0|0:0,0:0:0:0:
274,357,24761,1,8,0:0:0:0:
353,326,24913,1,2,0:0:0:0:
320,236,25065,1,0,0:0:0:0:
322,211,25142,1,0,0:0:0:0:
325,186,25218,1,0,0:0:0:0:
328,161,25294,1,0,0:0:0:0:
331,136,25370,1,8,0:0:0:0:
268,11,25522,6,0,P|265:92|193:129,1,170,4|2,0:0|0:0,0:0:0:0:
193,45,25979,1,8,0:0:0:0:
116,158,26132,1,8,0:0:0:0:
245,204,26284,1,0,0:0:0:0:
245,204,26360,1,0,0:0:0:0:
244,204,26436,2,0,P|299:175|361:187,1,127.5,12|0,0:0|2:0,0:0:0:0:
396,255,26741,6,0,L|365:87,1,170,4|2,0:0|0:0,0:0:0:0:
288,50,27198,1,0,0:0:0:0:
218,98,27350,1,0,0:0:0:0:
134,228,27502,1,8,0:0:0:0:
106,116,27654,2,0,P|67:134|38:164,1,85
176,163,27959,6,0,P|182:82|118:32,1,170,4|2,0:0|0:0,0:0:0:0:
38,62,28416,1,0,0:0:0:0:
106,116,28568,1,0,0:0:0:0:
259,78,28720,1,8,0:0:0:0:
258,235,28873,2,0,P|284:201|320:178,1,85
307,330,29177,6,0,P|342:256|423:245,1,170,4|2,0:0|0:0,0:0:0:0:
496,289,29634,1,0,0:0:0:0:
458,365,29786,1,0,0:0:0:0:
495,205,29939,1,8,0:0:0:0:
386,319,30091,2,0,P|348:335|306:329,1,85
108,248,30396,6,0,P|181:208|259:236,1,170,4|2,0:0|0:0,0:0:0:0:
201,298,30852,2,0,L|159:305,1,42.5
108,248,31005,2,0,L|67:256,1,42.5
35,327,31157,1,8,0:0:0:0:
60,173,31309,1,4,0:2:0:0:
49,334,31462,1,4,0:2:0:0:
74,180,31614,1,4,0:2:0:0:
201,298,31766,6,0,P|274:289|295:289,1,85,4|0,0:0|2:0,0:0:0:0:
361,327,32071,1,8,2:1:0:0:
425,226,32223,2,0,L|430:135,1,85,0|0,1:0|1:0,0:0:0:0:
390,170,32680,6,0,L|395:79,1,85,8|0,1:0|1:0,0:0:0:0:
476,148,32984,1,0,2:0:0:0:
307,142,33137,2,0,L|302:233,1,85,0|8,1:0|1:0,0:0:0:0:
110,169,33593,2,0,P|109:107|124:67,1,85,0|0,2:0|2:0,0:0:0:0:
180,30,33898,1,8,2:1:0:0:
99,247,34203,5,0,1:0:0:0:
81,349,34356,1,0,1:0:0:0:
187,221,34659,1,0,1:0:0:0:
176,324,34812,1,0,1:0:0:0:
268,248,35116,1,8,1:0:0:0:
264,351,35269,1,0,1:0:0:0:
352,224,35573,1,0,1:0:0:0:
355,327,35726,1,8,1:0:0:0:
449,273,35878,1,2,0:0:0:0:
449,273,35954,1,2,0:0:0:0:
449,273,36030,2,0,L|457:182,1,85,8|0,0:0|0:2,0:0:0:0:
449,77,36487,6,0,P|399:114|294:67,1,170,4|2,0:0|0:0,0:0:0:0:
237,31,36868,1,2,0:0:0:0:
237,31,36944,2,0,L|146:38,1,85,8|0,0:0|2:0,0:0:0:0:
74,191,37248,2,0,L|165:184,1,85,8|0,0:0|2:0,0:0:0:0:
330,105,37553,2,0,L|239:112,1,85,8|2,0:0|0:0,0:0:0:0:
221,254,37857,5,2,0:0:0:0:
258,273,37933,1,2,0:0:0:0:
300,274,38009,1,8,0:3:0:0:
339,259,38085,1,0,0:0:0:0:
368,228,38162,2,0,L|422:266,3,42.5,4|0|0|0,0:3|0:0|0:3|0:0,0:0:0:0:
383,177,38467,2,0,P|380:125|390:78,1,85,8|8,0:0|0:0,0:0:0:0:
469,139,38771,1,8,0:0:0:0:
298,132,38923,6,0,B|238:125|238:125|205:94|205:94|131:80,1,170,4|2,0:0|0:0,0:0:0:0:
73,196,39380,2,0,B|133:203|133:203|166:234|166:234|240:248,1,170,8|2,0:0|0:0,0:0:0:0:
352,267,39837,1,2,0:0:0:0:
239,320,39989,1,8,0:0:0:0:
317,199,40142,6,0,P|388:201|425:288,1,170,4|2,0:0|0:0,0:0:0:0:
371,335,40522,1,2,0:0:0:0:
371,335,40599,2,0,P|307:319|283:285,1,85,8|0,0:0|0:0,0:0:0:0:
317,199,40903,1,2,0:0:0:0:
200,250,41055,1,2,0:0:0:0:
295,306,41208,1,0,0:0:0:0:
218,360,41360,1,0,0:0:0:0:
110,286,41512,6,0,L|115:191,1,85,4|0,0:0|1:0,0:0:0:0:
200,250,41817,1,8,0:0:0:0:
32,224,41969,2,0,L|37:129,1,85,0|0,1:0|1:0,0:0:0:0:
209,103,42426,1,8,1:0:0:0:
139,175,42578,1,0,1:0:0:0:
61,47,42731,6,0,L|159:41,1,85,0|0,0:0|1:0,0:0:0:0:
36,139,43035,1,8,1:0:0:0:
239,200,43340,2,0,P|255:254|249:294,1,85
187,337,43645,1,8,0:0:0:0:
363,198,43949,6,0,L|450:191,1,85,0|0,1:0|1:0,0:0:0:0:
399,285,44253,1,8,0:0:0:0:
222,278,44406,2,0,L|309:271,1,85,0|0,1:0|1:0,0:0:0:0:
122,197,44863,2,0,L|209:190,1,85,8|0,1:0|1:0,0:0:0:0:
29,113,45319,2,0,L|116:106,1,85,0|8,1:0|1:0,0:0:0:0:
303,34,45776,2,0,L|216:27,1,85,8|0,0:0|0:2,0:0:0:0:
208,140,46233,6,0,P|273:189|370:161,1,170,4|2,0:0|0:0,0:0:0:0:
406,107,46614,1,2,0:0:0:0:
406,107,46690,2,0,P|434:154|435:204,1,85,8|0,0:0|2:0,0:0:0:0:
383,335,46995,2,0,P|373:293|382:252,1,85,8|0,0:0|2:0,0:0:0:0:
458,293,47299,1,8,0:0:0:0:
284,256,47451,6,0,P|228:260|196:276,1,85,0|2,0:0|0:0,0:0:0:0:
176,300,47680,1,2,0:0:0:0:
137,315,47756,1,8,0:3:0:0:
95,310,47832,1,0,0:0:0:0:
62,284,47908,2,0,L|64:232,3,42.5,0|0|4|0,0:0|0:0|0:3|0:0,0:0:0:0:
118,187,48213,2,0,L|106:75,1,85,8|2,0:0|0:0,0:0:0:0:
109,102,48441,1,2,0:0:0:0:
109,102,48517,1,8,0:0:0:0:
248,136,48670,6,0,B|320:168|364:100|428:136,1,170,4|2,0:0|0:0,0:0:0:0:
288,56,49126,2,0,L|200:40,1,85,8|0,0:0|0:0,0:0:0:0:
112,152,49431,1,2,0:0:0:0:
192,240,49583,1,2,0:0:0:0:
80,260,49736,1,8,0:0:0:0:
248,136,49888,6,0,P|296:184|292:304,1,170,4|2,0:0|0:0,0:0:0:0:
244,340,50269,1,2,0:0:0:0:
244,340,50345,2,0,P|276:360|360:352,1,85,8|2,0:0|0:0,0:0:0:0:
477,216,50649,2,0,P|442:199|360:219,1,85,8|0,0:0|0:0,0:0:0:0:
260,244,50954,1,8,0:0:0:0:
219,256,51030,1,8,0:0:0:0:
177,253,51106,1,8,0:0:0:0:
140,234,51182,1,8,0:0:0:0:
112,202,51258,6,0,L|108:112,1,85,4|0,0:0|0:0,0:0:0:0:
256,160,51563,2,0,L|260:244,1,85,2|0,0:0|0:0,0:0:0:0:
399,179,51868,2,0,L|394:94,1,85,2|0,0:0|0:0,0:0:0:0:
346,23,52172,1,2,0:0:0:0:
252,92,52324,1,8,0:0:0:0:
337,238,52477,6,0,P|442:249|484:193,1,170,2|2,0:0|0:0,0:0:0:0:
291,171,52934,1,0,0:0:0:0:
291,171,53086,2,0,P|264:214|258:252,1,85,2|0,0:0|0:0,0:0:0:0:
400,179,53390,2,0,P|390:137|367:102,1,85,2|0,0:0|0:0,0:0:0:0:
257,73,53695,6,0,P|182:120|85:71,1,170,4|2,0:0|0:0,0:0:0:0:
173,32,54152,1,0,0:0:0:0:
100,187,54304,2,0,P|88:242|92:289,1,85,2|0,0:0|0:0,0:0:0:0:
162,349,54609,1,2,0:0:0:0:
250,261,54761,6,0,L|162:238,1,85,8|2,0:0|0:0,0:0:0:0:
330,310,55066,2,0,L|418:287,1,85,8|2,0:0|0:0,0:0:0:0:
460,189,55370,1,8,0:3:0:0:
460,189,55446,1,8,0:3:0:0:
460,189,55522,2,0,L|450:132,3,42.5,4|0|0|0,0:3|0:0|0:0|0:0,0:0:0:0:
411,76,55827,2,0,L|371:34,3,42.5,4|0|0|0,0:3|0:0|0:0|0:0,0:0:0:0:
299,47,56132,6,0,L|110:31,1,170,4|2,0:0|0:0,0:0:0:0:
37,191,56741,2,0,L|226:175,1,170,2|2,0:0|0:0,0:0:0:0:
288,314,57350,2,0,L|99:298,1,170,2|2,0:0|0:0,0:0:0:0:
266,207,57807,1,2,0:0:0:0:
266,207,57883,1,2,0:0:0:0:
266,207,57959,2,0,P|340:216|397:312,1,170,8|8,0:0|0:0,0:0:0:0:
455,210,58416,6,0,L|445:123,1,85,4|0,0:0|0:0,0:0:0:0:
371,90,58720,1,2,0:0:0:0:
491,18,58873,1,8,0:0:0:0:
407,10,59025,1,8,0:0:0:0:
288,111,59177,1,8,0:0:0:0:
307,32,59330,1,8,0:0:0:0:
351,173,59482,1,8,0:0:0:0:
411,230,59634,1,8,0:0:0:0:
265,196,59786,2,0,L|166:186,1,85,8|8,0:0|0:0,0:0:0:0:
195,334,60091,2,0,L|294:324,1,85,8|8,0:0|0:0,0:0:0:0:
439,308,60396,6,0,B|449:266|449:266|439:224|439:224|451:192,1,106.25,8|0,0:0|0:0,0:0:0:0:
398,135,60852,6,0,B|360:218|360:218|370:266|370:266|360:304,1,180.200000274963,4|2,0:0|0:0,0:0:0:0:
289,362,61309,1,8,0:0:0:0:
218,234,61462,2,0,P|193:198|152:182,1,90.1000001374817,0|2,0:0|0:0,0:0:0:0:
210,324,61766,1,2,0:0:0:0:
300,274,61918,1,8,0:0:0:0:
133,273,62071,6,0,P|66:218|76:132,1,180.200000274963,0|2,0:0|0:0,0:0:0:0:
136,64,62528,1,8,0:0:0:0:
223,84,62680,1,0,0:0:0:0:
328,168,62832,1,0,0:0:0:0:
327,141,62908,1,0,0:0:0:0:
326,114,62984,1,0,0:0:0:0:
325,87,63060,1,0,0:0:0:0:
323,59,63137,1,8,0:0:0:0:
238,172,63289,6,0,P|284:246|370:245,1,180.200000274963,4|2,0:0|0:0,0:0:0:0:
443,191,63746,1,8,0:0:0:0:
459,279,63898,2,0,L|487:372,1,90.1000001374817
458,360,64126,1,0,0:0:0:0:
432,350,64203,1,0,0:0:0:0:
406,340,64279,1,0,0:0:0:0:
380,330,64355,1,8,0:0:0:0:
246,327,64507,6,0,L|287:246,2,90.1000001374817,0|2|2,0:0|0:0|0:0,0:0:0:0:
421,249,64964,2,0,L|380:330,1,90.1000001374817,8|2,0:0|0:0,0:0:0:0:
246,327,65269,1,8,0:0:0:0:
175,270,65421,1,0,0:0:0:0:
319,382,65573,1,8,0:0:0:0:
266,232,65725,6,0,P|201:175|114:189,1,180.200000274963,4|2,0:0|0:0,0:0:0:0:
88,275,66182,2,0,P|50:252|28:214,1,90.1000001374817,8|0,0:0|0:0,0:0:0:0:
32,124,66487,1,0,0:0:0:0:
58,37,66639,1,0,0:0:0:0:
114,188,66791,1,8,0:0:0:0:
161,24,66944,6,0,P|207:96|292:87,1,180.200000274963,0|2,0:0|0:0,0:0:0:0:
367,37,67401,1,8,0:0:0:0:
308,174,67553,1,0,0:0:0:0:
243,27,67705,1,2,0:2:0:0:
234,52,67781,1,2,0:2:0:0:
222,76,67857,1,2,0:2:0:0:
202,95,67934,1,2,0:2:0:0:
178,107,68010,1,8,0:0:0:0:
34,242,68162,6,0,P|105:192|190:213,1,180.200000274963,4|2,0:0|0:0,0:0:0:0:
258,273,68619,1,8,0:0:0:0:
465,187,68923,2,0,L|438:273,1,90.1000001374817,8|2,0:0|0:0,0:0:0:0:
261,290,69228,2,0,L|287:203,1,90.1000001374817,8|2,0:0|0:0,0:0:0:0:
468,206,69533,6,0,L|441:292,1,90.1000001374817,8|2,0:0|0:0,0:0:0:0:
264,309,69837,2,0,L|290:222,1,90.1000001374817,8|2,0:0|0:0,0:0:0:0:
385,126,70142,1,8,0:0:0:0:
392,100,70218,1,0,0:0:0:0:
400,74,70294,1,0,0:0:0:0:
408,48,70370,1,0,0:0:0:0:
417,23,70446,1,8,0:0:0:0:
465,186,70599,6,0,P|389:229|309:194,1,180.200000274963,4|2,0:0|0:0,0:0:0:0:
265,115,71055,1,8,0:0:0:0:
136,49,71208,2,0,L|184:130,1,90.1000001374817,0|2,0:0|0:0,0:0:0:0:
171,215,71512,1,2,0:0:0:0:
80,224,71665,1,8,0:0:0:0:
261,201,71817,6,0,P|232:282|148:304,1,180.200000274963,0|2,0:0|0:0,0:0:0:0:
71,256,72274,1,8,0:0:0:0:
53,344,72426,1,0,0:0:0:0:
171,215,72578,1,0,0:0:0:0:
179,189,72654,1,0,0:0:0:0:
187,163,72731,1,0,0:0:0:0:
196,137,72807,1,0,0:0:0:0:
206,112,72883,1,8,0:0:0:0:
50,76,73035,6,0,L|71:256,1,180.200000274963,4|2,0:0|0:0,0:0:0:0:
148,304,73492,1,8,0:0:0:0:
227,346,73644,1,0,0:0:0:0:
300,238,73797,1,0,0:0:0:0:
304,264,73873,1,0,0:0:0:0:
309,290,73949,1,0,0:0:0:0:
313,316,74025,1,0,0:0:0:0:
317,342,74101,1,8,0:0:0:0:
403,318,74253,6,0,L|416:230,2,90.1000001374817,0|2|2,0:0|0:0|0:0,0:0:0:0:
219,265,74710,2,0,L|205:176,1,90.1000001374817,8|2,0:0|0:0,0:0:0:0:
222,34,75015,1,8,0:0:0:0:
264,113,75167,1,0,0:0:0:0:
144,70,75319,1,8,0:0:0:0:
205,176,75472,6,0,P|137:229|146:315,1,180.200000274963,4|2,0:0|0:0,0:0:0:0:
221,366,75929,1,8,0:0:0:0:
275,290,76081,2,0,P|303:324|314:367,1,90.1000001374817
337,354,76309,1,0,0:0:0:0:
358,338,76385,1,0,0:0:0:0:
379,321,76462,1,0,0:0:0:0:
401,305,76538,1,8,0:0:0:0:
417,179,76690,6,0,L|275:290,1,180.200000274963,4|2,0:0|0:0,0:0:0:0:
216,221,77147,1,8,0:0:0:0:
158,290,77299,2,0,P|129:255|124:211,1,90.1000001374817,2|0,0:0|0:0,0:0:0:0:
155,70,77604,1,0,0:0:0:0:
155,70,77756,1,8,0:0:0:0:
216,221,77908,6,0,L|310:226,1,90.1000001374817,4|0,0:0|0:0,0:0:0:0:
155,70,78213,1,2,0:0:0:0:
155,70,78365,1,8,0:0:0:0:
304,148,78517,6,0,L|374:85,1,90.1000001374817,4|0,0:0|0:0,0:0:0:0:
155,70,78822,1,2,0:0:0:0:
155,70,78974,1,8,0:0:0:0:
314,25,79126,5,4,0:0:0:0:
314,25,79431,5,8,0:0:0:0:
315,48,79584,1,8,0:0:0:0:
315,71,79736,1,8,0:0:0:0:
155,70,79888,5,12,0:0:0:0:
155,70,80345,5,4,0:0:0:0:
385,301,90243,6,0,P|352:313|316:313,1,72.2500013780594,4|0,0:0|0:0,0:0:0:0:
185,249,90548,2,0,P|218:236|254:236,1,72.2500013780594,8|0,0:0|1:0,0:0:0:0:
340,242,90852,1,0,1:0:0:0:
340,242,91157,6,0,L|347:170,1,72.2500013780594,8|0,0:0|1:0,0:0:0:0:
231,308,91462,2,0,L|223:379,1,72.2500013780594,0|0,0:0|1:0,0:0:0:0:
308,369,91766,1,8,1:0:0:0:
308,368,92071,2,0,P|350:312|340:243,1,144.500002756119,0|8,0:0|0:0,0:0:0:0:
340,243,92680,5,0,1:0:0:0:
333,156,92832,2,0,L|383:84,1,72.2500013780594,0|8,1:0|0:0,0:0:0:0:
262,205,93137,1,0,1:0:0:0:
254,118,93289,1,0,1:0:0:0:
131,239,93593,1,8,1:0:0:0:
123,326,93746,1,0,1:0:0:0:
257,218,94050,5,0,1:0:0:0:
249,131,94203,1,8,1:0:0:0:
163,55,94355,1,2,0:0:0:0:
163,55,94431,1,2,0:0:0:0:
162,55,94507,2,0,P|132:74|97:82,1,72.2500013780594,8|0,0:0|0:0,0:0:0:0:
64,92,94964,6,0,L|200:193,1,170,4|2,0:0|0:0,0:0:0:0:
221,275,95421,1,8,0:0:0:0:
220,275,95725,2,0,P|179:276|144:254,1,85,8|0,0:0|0:0,0:0:0:0:
283,215,96030,1,8,0:0:0:0:
277,342,96182,1,2,0:0:0:0:
201,193,96335,6,0,P|218:154|254:133,1,85,2|8,0:0|0:3,0:0:0:0:
278,131,96563,1,0,0:0:0:0:
302,136,96639,1,4,0:3:0:0:
327,139,96715,1,0,0:0:0:0:
351,144,96791,1,0,0:0:0:0:
445,238,96944,1,8,0:0:0:0:
362,259,97096,1,0,0:0:0:0:
432,156,97248,1,8,0:0:0:0:
421,316,97401,6,0,B|353:355|302:310|302:310|272:349,1,170,4|2,0:0|0:0,0:0:0:0:
223,276,97857,1,8,0:0:0:0:
223,276,98162,1,2,0:0:0:0:
286,219,98314,1,2,0:0:0:0:
159,331,98467,1,8,0:0:0:0:
262,136,98619,6,0,P|206:195|223:276,1,170,4|2,0:0|0:0,0:0:0:0:
286,219,99076,1,8,0:0:0:0:
200,72,99380,1,2,0:0:0:0:
132,123,99533,1,2,0:0:0:0:
100,256,99685,1,0,0:0:0:0:
34,202,99837,1,0,0:0:0:0:
179,192,99989,6,0,P|214:192|248:205,1,72.2500013780594,4|0,0:1|1:0,0:0:0:0:
233,322,100294,2,0,P|268:322|302:309,1,72.2500013780594,8|0,0:0|1:0,0:0:0:0:
359,243,100599,1,0,1:0:0:0:
359,243,100903,6,0,L|399:321,1,72.2500013780594,8|0,1:0|1:0,0:0:0:0:
423,143,101208,2,0,L|455:207,1,72.2500013780594,0|0,0:0|1:0,0:0:0:0:
497,283,101512,1,8,1:0:0:0:
497,283,101817,2,0,P|460:342|390:347,1,144.500002756119,0|8,0:0|0:0,0:0:0:0:
391,348,102426,5,0,1:0:0:0:
320,298,102578,2,0,L|280:372,1,72.2500013780594,0|8,1:0|0:0,0:0:0:0:
398,265,102883,1,0,1:0:0:0:
328,212,103035,1,0,1:0:0:0:
114,265,103340,1,8,1:0:0:0:
184,212,103492,1,0,1:0:0:0:
396,282,103797,5,0,1:0:0:0:
326,229,103949,1,8,0:0:0:0:
116,282,104253,1,8,0:0:0:0:
195,124,104406,1,0,0:0:0:0:
211,156,104710,6,0,P|132:169|81:105,1,170,4|2,0:0|0:0,0:0:0:0:
75,20,105167,1,8,0:0:0:0:
20,180,105472,2,0,P|13:222|20:264,1,85,8|0,0:0|0:0,0:0:0:0:
10,100,105776,1,8,0:0:0:0:
95,222,105928,1,0,0:0:0:0:
164,95,106081,6,0,L|253:146,1,85,2|8,0:0|0:3,0:0:0:0:
261,128,106309,1,0,0:0:0:0:
285,121,106385,1,0,0:0:0:0:
309,115,106461,1,0,0:0:0:0:
333,108,106538,2,0,L|342:58,2,42.5,4|0|8,0:3|0:0|0:0,0:0:0:0:
420,210,106842,2,0,L|319:246,1,85,2|8,0:0|0:0,0:0:0:0:
229,334,107147,6,0,P|309:321|361:384,1,170,4|2,0:0|0:0,0:0:0:0:
431,337,107603,1,8,0:0:0:0:
271,243,107908,1,2,0:0:0:0:
188,221,108060,1,2,0:0:0:0:
229,334,108213,1,8,0:0:0:0:
349,294,108365,6,0,P|391:221|387:138,1,170,4|2,0:0|0:0,0:0:0:0:
330,74,108822,2,0,L|240:103,1,85,8|2,0:0|0:0,0:0:0:0:
107,194,109126,2,0,L|188:221,1,85,8|2,0:0|0:0,0:0:0:0:
349,294,109431,2,0,L|225:336,1,127.5,8|0,0:0|2:0,0:0:0:0:
228,334,109736,5,0,0:0:0:0:
400,167,119482,6,0,L|407:278,2,95.6250036478044,2|2|2,0:0|0:0|0:0,0:0:0:0:
351,64,120091,1,10,0:0:0:0:
112,217,120700,6,0,L|105:106,2,95.6250036478044,2|2|2,0:0|0:0|0:0,0:0:0:0:
161,320,121309,1,10,0:0:0:0:
268,172,121918,6,0,L|379:165,1,95.6250036478044,2|2,0:0|0:0,0:0:0:0:
304,292,122375,1,2,0:0:0:0:
304,292,122528,2,0,L|193:285,1,95.6250036478044,10|2,0:0|0:0,0:0:0:0:
112,164,122984,1,2,0:0:0:0:
112,164,123137,2,0,L|108:68,2,95.6250036478044,2|2|2,0:0|0:0|0:0,0:0:0:0:
170,314,123746,1,4,0:0:0:0:
188,317,123822,1,0,0:0:0:0:
206,319,123898,1,0,0:0:0:0:
225,320,123974,1,0,0:0:0:0:
245,323,124050,2,0,L|289:307,3,31.8750012159348
296,292,124355,6,0,P|284:224|288:200,1,63.7500024318696,4|0,0:0|0:0,0:0:0:0:
424,120,124659,2,0,P|424:180|416:208,1,63.7500024318696,2|0,0:0|0:0,0:0:0:0:
284,120,124964,2,0,P|248:116|200:104,1,63.7500024318696,2|0,0:0|0:0,0:0:0:0:
128,240,125269,2,0,P|192:232|216:224,1,63.7500024318696,2|0,0:0|0:0,0:0:0:0:
40,208,125573,6,0,P|36:272|84:340,1,127.500004863739,2|2,0:0|0:0,0:0:0:0:
164,360,126030,1,0,0:0:0:0:
164,360,126106,1,0,0:0:0:0:
164,360,126182,1,2,0:0:0:0:
264,248,126335,1,0,0:0:0:0:
140,288,126487,1,2,0:0:0:0:
292,316,126639,6,0,P|369:340|436:276,1,170,4|2,0:2|0:0,0:0:0:0:
368,180,127096,2,0,P|352:236|360:288,1,85,8|8,0:0|0:0,0:0:0:0:
440,122,127401,1,8,0:0:0:0:
291,135,127553,1,8,0:0:0:0:
400,47,127705,1,8,0:0:0:0:
313,56,127857,1,8,0:0:0:0:
290,227,128010,6,0,L|225:263,4,42.5,12|0|0|0|0,0:2|0:0|0:0|0:0|0:0,0:0:0:0:
192,319,128390,2,0,L|257:355,4,42.5,0|0|0|0|0,0:0|0:0|0:0|0:0|0:0,0:0:0:0:
104,280,128771,1,2,0:0:0:0:
104,280,128847,1,2,0:0:0:0:
104,280,128923,2,0,P|106:237|103:224,1,42.5,10|0,0:0|0:0,0:0:0:0:
64,170,129076,6,0,P|137:216|215:180,1,180.200000274963,4|2,0:0|0:0,0:0:0:0:
271,109,129533,1,8,0:0:0:0:
202,9,129685,2,0,L|181:97,1,90.1000001374817,0|2,0:0|0:0,0:0:0:0:
292,185,129990,1,2,0:0:0:0:
303,38,130142,1,8,0:0:0:0:
215,180,130294,6,0,P|258:254|343:241,1,180.200000274963,0|2,0:0|0:0,0:0:0:0:
432,231,130751,2,0,P|425:275|399:311,1,90.1000001374817,8|0,0:0|0:0,0:0:0:0:
292,185,131055,1,0,0:0:0:0:
291,158,131132,1,0,0:0:0:0:
290,131,131208,1,0,0:0:0:0:
289,104,131284,1,0,0:0:0:0:
287,76,131361,1,8,0:0:0:0:
377,165,131512,6,0,L|385:344,1,180.200000274963,4|2,0:0|0:0,0:0:0:0:
303,305,131970,1,8,0:0:0:0:
224,346,132121,2,0,P|180:357|138:342,1,90.1000001374817
125,319,132350,1,0,0:0:0:0:
118,292,132427,1,0,0:0:0:0:
112,265,132503,1,0,0:0:0:0:
105,237,132579,1,8,0:0:0:0:
129,106,132731,6,0,P|168:127|194:163,1,90.1000001374817,0|2,0:0|0:0,0:0:0:0:
216,250,133035,1,2,0:0:0:0:
216,250,133187,2,0,L|292:202,1,90.1000001374817,8|2,0:0|0:0,0:0:0:0:
365,148,133493,1,8,0:0:0:0:
333,282,133645,1,0,0:0:0:0:
431,208,133797,1,8,0:0:0:0:
292,202,133949,6,0,P|218:153|180:72,1,180.200000274963,4|2,0:0|0:0,0:0:0:0:
295,16,134406,2,0,P|294:61|277:103,1,90.1000001374817,8|0,0:0|0:0,0:0:0:0:
159,202,134710,1,0,0:0:0:0:
80,157,134863,1,0,0:0:0:0:
3,109,135015,1,8,0:0:0:0:
83,246,135167,6,0,L|240:157,1,180.200000274963,0|2,0:0|0:0,0:0:0:0:
317,109,135625,1,8,0:0:0:0:
395,151,135776,2,0,P|366:185|324:199,1,90.1000001374817,2|2,0:0|0:2,0:0:0:0:
308,221,136005,1,2,0:2:0:0:
293,243,136081,1,2,0:2:0:0:
278,265,136157,1,2,0:2:0:0:
264,288,136233,1,8,0:0:0:0:
139,361,136385,6,0,P|137:271|165:186,1,180.200000274963,4|2,0:0|0:0,0:0:0:0:
210,106,136843,1,8,0:0:0:0:
417,44,137147,2,0,P|427:87|416:130,1,90.1000001374817,8|2,0:0|0:0,0:0:0:0:
282,219,137451,2,0,P|294:176|325:144,1,90.1000001374817,8|2,0:0|0:0,0:0:0:0:
457,84,137756,6,0,P|455:128|434:167,1,90.1000001374817,8|2,0:0|0:0,0:0:0:0:
282,219,138060,2,0,P|305:180|343:157,1,90.1000001374817,8|2,0:0|0:0,0:0:0:0:
367,245,138365,1,8,0:0:0:0:
363,271,138441,1,0,0:0:0:0:
360,297,138517,1,0,0:0:0:0:
356,323,138593,1,0,0:0:0:0:
352,350,138670,1,8,0:0:0:0:
209,310,138822,6,0,P|130:271|43:285,1,180.200000274963,4|2,0:0|0:0,0:0:0:0:
46,194,139279,1,8,0:0:0:0:
43,285,139431,2,0,L|36:377,1,90.1000001374817,0|2,0:0|0:0,0:0:0:0:
132,168,139736,1,2,0:0:0:0:
46,194,139888,1,8,0:0:0:0:
201,222,140040,6,0,P|216:137|151:80,1,180.200000274963,0|2,0:0|0:0,0:0:0:0:
132,168,140497,1,8,0:0:0:0:
130,257,140649,2,0,P|157:291|200:304,1,90.1000001374817
227,300,140878,1,0,0:0:0:0:
253,296,140954,1,0,0:0:0:0:
279,291,141030,1,0,0:0:0:0:
305,287,141106,1,8,0:0:0:0:
413,192,141258,6,0,P|398:107|463:50,1,180.200000274963,4|2,0:0|0:0,0:0:0:0:
485,139,141716,1,8,0:0:0:0:
413,192,141868,1,0,0:0:0:0:
315,111,142021,1,0,0:0:0:0:
311,137,142097,1,0,0:0:0:0:
306,163,142173,1,0,0:0:0:0:
302,189,142249,1,0,0:0:0:0:
298,215,142324,1,8,0:0:0:0:
261,298,142477,6,0,P|218:308|175:297,1,90.1000001374817,0|2,0:0|0:0,0:0:0:0:
363,284,142781,2,0,P|406:273|449:284,1,90.1000001374817,2|8,0:0|0:0,0:0:0:0:
406,364,143086,1,2,0:0:0:0:
316,373,143238,1,8,0:0:0:0:
305,239,143390,1,0,0:0:0:0:
228,370,143543,1,8,0:0:0:0:
101,324,143695,6,0,P|137:245|96:168,1,180.200000274963,4|2,0:0|0:0,0:0:0:0:
160,105,144153,1,8,0:0:0:0:
244,133,144304,2,0,P|288:133|328:114,1,90.1000001374817
349,96,144533,1,0,0:0:0:0:
358,122,144609,1,0,0:0:0:0:
369,149,144686,1,0,0:0:0:0:
378,175,144762,1,8,0:0:0:0:
244,133,144913,6,0,L|220:324,1,180.200000274963,4|2,0:0|0:0,0:0:0:0:
295,365,145370,1,8,0:0:0:0:
383,351,145522,2,0,P|366:309|330:283,1,90.1000001374817,2|0,0:0|0:0,0:0:0:0:
206,357,145828,1,0,0:0:0:0:
206,357,145980,1,8,0:0:0:0:
130,219,146132,6,0,L|119:112,1,90.1000001374817,4|0,0:0|0:0,0:0:0:0:
206,357,146436,1,2,0:0:0:0:
206,357,146588,1,8,0:0:0:0:
210,198,146741,6,0,L|277:114,1,90.1000001374817,4|0,0:0|0:0,0:0:0:0:
206,357,147045,1,2,0:0:0:0:
206,357,147197,1,8,0:0:0:0:
290,222,147350,5,4,0:0:0:0:
290,222,147654,5,8,0:0:0:0:
301,243,147807,1,8,0:0:0:0:
309,266,147959,1,8,0:0:0:0:
210,198,148111,5,12,0:0:0:0:
210,225,148720,5,6,0:2:0:0:
287,168,156030,5,4,0:0:0:0:
299,194,156639,1,4,0:0:0:0:
310,217,157248,2,0,P|196:154|242:276,1,340,4|4,0:0|0:0,0:0:0:0:
242,277,158314,6,0,P|363:296|400:244,1,170,4|2,0:0|0:0,0:0:0:0:
239,194,158771,1,2,0:0:0:0:
169,237,158923,1,2,0:0:0:0:
318,234,159076,2,0,P|323:187|315:144,1,85,8|2,0:0|0:0,0:0:0:0:
243,110,159380,1,2,0:0:0:0:
408,150,159533,6,0,B|435:204|435:204|434:259|434:259|455:311,1,170,4|2,0:2|0:0,0:0:0:0:
502,152,159989,2,0,P|506:100|495:57,1,85,2|2,0:0|0:0,0:0:0:0:
421,16,160294,1,8,0:0:0:0:
345,124,160446,2,0,L|438:112,1,85,2|2,0:0|0:0,0:0:0:0:
267,74,160751,6,0,B|205:78|205:78|165:63|165:63|92:72,1,170,4|2,0:2|0:0,0:0:0:0:
50,146,161208,1,2,0:0:0:0:
183,216,161360,1,2,0:0:0:0:
154,136,161512,1,8,0:0:0:0:
84,236,161665,2,0,L|79:322,1,85,2|2,0:0|0:0,0:0:0:0:
298,270,161969,6,0,P|276:211|180:220,1,170,4|2,0:2|0:0,0:0:0:0:
152,300,162426,1,0,0:0:0:0:
255,358,162578,1,8,0:0:0:0:
255,358,162654,1,8,0:0:0:0:
255,358,162731,2,0,L|351:354,1,85,8|8,0:0|0:0,0:0:0:0:
421,299,163035,1,8,0:0:0:0:
415,163,163187,6,0,P|363:204|268:147,1,170,4|2,0:2|0:0,0:0:0:0:
224,110,163568,1,2,0:0:0:0:
224,110,163644,2,0,L|225:22,1,85,8|2,0:0|0:0,0:0:0:0:
414,78,163949,2,0,L|415:166,1,85,2|0,0:0|0:0,0:0:0:0:
417,251,164253,1,8,0:0:0:0:
300,220,164406,6,0,B|267:215|267:215|244:228|244:228|219:220|219:220|174:238|117:206,1,170,4|2,0:2|0:0,0:0:0:0:
87,154,164786,1,2,0:0:0:0:
88,154,164863,2,0,P|90:103|80:66,1,85,8|2,0:0|0:0,0:0:0:0:
50,230,165167,2,0,P|48:281|58:318,1,85,0|2,0:0|0:0,0:0:0:0:
151,345,165472,1,8,0:0:0:0:
252,245,165624,6,0,P|186:207|124:279,1,170,4|2,0:2|0:0,0:0:0:0:
151,345,166005,1,2,0:0:0:0:
151,345,166081,2,0,L|269:344,1,85,8|2,0:0|0:0,0:0:0:0:
337,245,166385,2,0,L|219:244,1,85,0|2,0:0|0:0,0:0:0:0:
350,153,166690,1,8,0:0:0:0:
199,325,166842,6,0,P|162:285|208:170,1,170
264,112,167299,1,8,0:0:0:0:
338,245,167451,1,2,0:0:0:0:
338,245,167528,1,2,0:0:0:0:
338,245,167604,2,0,P|350:198|349:153,1,85,2|0,0:0|0:0,0:0:0:0:
264,112,167908,2,0,P|249:65|224:28,1,85,2|2,0:0|0:0,0:0:0:0:
85,115,168213,6,0,L|163:122,1,72.2500013780594,4|0,0:0|0:0,0:0:0:0:
258,223,168517,2,0,L|187:230,1,72.2500013780594,2|0,0:0|0:0,0:0:0:0:
311,119,168822,2,0,L|389:126,1,72.2500013780594,2|0,0:0|0:0,0:0:0:0:
425,200,169126,1,2,0:0:0:0:
336,51,169279,6,0,L|311:119,1,72.2500013780594,8|2,0:0|0:0,0:0:0:0:
229,90,169583,2,0,L|203:157,1,72.2500013780594,0|2,0:0|0:0,0:0:0:0:
122,124,169888,2,0,L|96:191,1,72.2500013780594,0|2,0:0|0:0,0:0:0:0:
74,275,170192,1,0,0:0:0:0:
157,299,170345,1,2,0:0:0:0:
239,325,170497,1,0,0:0:0:0:
308,204,170649,6,0,L|322:346,1,144.500002756119,4|2,0:0|0:0,0:0:0:0:
408,341,171106,2,0,P|443:335|472:314,1,72.2500013780594,0|2,0:0|0:0,0:0:0:0:
239,325,171411,2,0,P|203:330|174:351,1,72.2500013780594,0|2,0:0|0:0,0:0:0:0:
416,266,171715,5,8,0:0:0:0:
420,178,171868,1,2,0:0:0:0:
304,116,172020,1,8,0:0:0:0:
308,204,172173,1,2,0:0:0:0:
397,81,172324,2,0,L|411:48,3,36.1250006890297,0|0|0|0,0:0|0:0|0:0|0:0,0:0:0:0:
329,40,172629,2,0,L|315:6,3,36.1250006890297,0|0|0|0,0:0|0:0|0:0|0:0,0:0:0:0:
244,24,172934,1,0,0:0:0:0:
227,52,173010,1,0,0:0:0:0:
203,74,173086,6,0,P|133:83|74:44,1,144.500002756119,4|2,0:0|0:0,0:0:0:0:
36,122,173543,2,0,L|41:194,1,72.2500013780594,0|2,0:0|0:0,0:0:0:0:
127,189,173847,2,0,L|121:261,1,72.2500013780594,0|2,0:0|0:0,0:0:0:0:
77,336,174152,5,8,0:0:0:0:
209,272,174304,1,2,0:0:0:0:
281,318,174456,2,0,P|346:313|400:244,1,144.500002756119
404,169,174913,2,0,L|410:90,1,72.2500013780594,2|0,0:0|0:0,0:0:0:0:
322,175,175218,2,0,L|307:97,1,72.2500013780594,2|0,0:0|0:0,0:0:0:0:
211,27,175522,6,0,L|233:169,1,144.500002756119,4|2,0:0|0:0,0:0:0:0:
207,252,175979,2,0,P|175:268|139:267,2,72.2500013780594,0|2|0,0:0|0:0|0:0,0:0:0:0:
233,169,176436,1,2,0:0:0:0:
280,299,176588,1,8,0:0:0:0:
381,204,176741,6,0,L|365:292,1,72.2500013780594,2|2,0:0|0:0,0:0:0:0:
394,343,176969,1,2,0:0:0:0:
394,343,177045,2,0,L|466:337,1,72.2500013780594,8|2,0:0|0:0,0:0:0:0:
280,299,177350,2,0,L|207:293,1,72.2500013780594,8|2,0:0|0:0,0:0:0:0:
381,204,177654,2,0,L|453:198,1,72.2500013780594,8|0,0:0|0:0,0:0:0:0:
256,143,177959,6,0,L|91:130,1,144.500002756119,4|2,0:0|0:0,0:0:0:0:
52,196,178416,2,0,P|47:231|54:266,1,72.2500013780594,0|2,0:0|0:0,0:0:0:0:
126,315,178720,2,0,P|161:320|196:313,1,72.2500013780594,0|2,0:0|0:0,0:0:0:0:
176,176,179025,6,0,L|163:251,1,72.2500013780594,8|2,0:0|0:0,0:0:0:0:
256,143,179330,2,0,L|243:71,2,72.2500013780594,0|2|0,0:0|0:0|0:0,0:0:0:0:
308,211,179786,2,0,P|343:217|379:213,1,72.2500013780594,2|0,0:0|0:0,0:0:0:0:
380,300,180091,2,0,P|400:329|428:352,1,72.2500013780594,2|0,0:0|0:0,0:0:0:0:
466,241,180396,6,0,P|461:171|407:126,1,144.500002756119,4|2,0:0|0:0,0:0:0:0:
348,62,180852,2,0,P|326:89|319:125,1,72.2500013780594,0|2,0:0|0:0,0:0:0:0:
258,222,181157,2,0,P|250:186|228:158,1,72.2500013780594,0|2,0:0|0:0,0:0:0:0:
99,180,181462,5,8,0:0:0:0:
173,226,181614,1,2,0:0:0:0:
226,357,181766,1,8,0:0:0:0:
152,311,181918,1,2,0:0:0:0:
173,226,182071,2,0,L|191:169,3,36.1250006890297,8|0|4|0,0:3|0:0|0:3|0:0,0:0:0:0:
259,175,182375,2,0,L|241:118,3,36.1250006890297,0|0|4|0,0:0|0:0|0:3|0:0,0:0:0:0:
185,97,182680,1,0,0:0:0:0:
153,102,182756,1,0,0:0:0:0:
121,109,182832,6,0,L|37:112,1,72.2500013780594,4|0,0:0|0:0,0:0:0:0:
90,188,183137,2,0,L|6:191,1,72.2500013780594,2|0,0:0|0:0,0:0:0:0:
157,255,183441,2,0,L|241:258,1,72.2500013780594,2|0,0:0|0:0,0:0:0:0:
188,334,183746,2,0,L|272:337,1,72.2500013780594,2|0,0:0|0:0,0:0:0:0:
344,317,184050,5,2,0:0:0:0:
229,257,184203,1,8,0:0:0:0:
337,187,184355,2,0,P|343:152|338:117,1,72.2500013780594,2|0,0:0|0:0,0:0:0:0:
269,64,184659,1,0,0:0:0:0:
245,74,184736,1,0,0:0:0:0:
220,78,184812,1,0,0:0:0:0:
195,74,184888,1,0,0:0:0:0:
171,63,184964,1,0,0:0:0:0:
49,163,185116,6,0,P|129:139|205:174,1,170,4|2,0:0|0:0,0:0:0:0:
257,242,185573,2,0,L|276:340,1,85,8|8,0:0|0:0,0:0:0:0:
334,174,185878,2,0,L|353:272,1,85,8|8,0:0|0:0,0:0:0:0:
407,106,186182,2,0,L|426:204,1,85,8|8,0:0|0:0,0:0:0:0:
428,309,186487,5,8,0:0:0:0:
350,257,186639,1,8,0:0:0:0:
257,242,186791,1,8,0:0:0:0:
334,174,186944,1,8,0:0:0:0:
175,304,187096,1,8,0:0:0:0:
266,129,187553,5,4,0:0:0:0:
266,129,189076,5,4,0:0:0:0:
307,204,189380,1,4,0:0:0:0:
351,278,189685,1,4,0:0:0:0:
397,350,189989,6,0,P|464:326|450:229,1,170,4|2,0:0|0:0,0:0:0:0:
394,192,190370,1,2,0:0:0:0:
394,192,190446,2,0,L|402:102,1,85,8|2,0:0|0:0,0:0:0:0:
363,43,190675,1,2,0:0:0:0:
363,43,190751,2,0,P|310:56|249:37,1,85,8|2,0:0|0:0,0:0:0:0:
208,75,190979,1,2,0:0:0:0:
208,75,191055,2,0,P|165:71|125:83,1,85,2|8,0:0|0:0,0:0:0:0:
74,141,191284,1,8,0:0:0:0:
74,141,191360,2,0,L|66:231,1,85,2|8,0:0|0:0,0:0:0:0:
159,319,191665,5,2,0:0:0:0:
192,344,191741,1,2,0:0:0:0:
234,349,191817,1,2,0:0:0:0:
272,331,191893,1,2,0:0:0:0:
296,297,191969,2,0,L|291:205,1,85,12|0,0:0|0:0,0:0:0:0:
350,152,192426,6,0,P|282:98|200:126,1,180.200000274963,4|2,0:0|0:0,0:0:0:0:
123,169,192807,1,2,0:0:0:0:
123,169,192883,2,0,L|120:72,1,90.1000001374817,8|0,0:0|0:0,0:0:0:0:
41,132,193187,1,2,0:0:0:0:
200,126,193340,1,2,0:0:0:0:
119,31,193492,1,8,0:0:0:0:
51,223,193644,6,0,P|42:278|55:319,1,90.1000001374817
202,212,193949,2,0,P|211:168|201:124,1,90.1000001374817,2|8,0:0|0:0,0:0:0:0:
157,291,194253,2,0,L|264:289,1,90.1000001374817
273,313,194482,1,0,0:0:0:0:
312,333,194558,1,0,0:0:0:0:
355,325,194634,1,0,0:0:0:0:
385,292,194710,1,8,0:0:0:0:
423,204,194863,6,0,P|363:172|319:256,1,180.200000274963,4|2,0:0|0:0,0:0:0:0:
486,254,195319,2,0,P|498:199|488:159,1,90.1000001374817,8|2,0:0|0:0,0:0:0:0:
380,134,195624,1,8,0:0:0:0:
464,59,195776,1,2,0:0:0:0:
423,205,195929,1,8,0:0:0:0:
384,55,196081,6,0,L|294:37,1,90.1000001374817,2|8,0:0|0:0,0:0:0:0:
187,135,196385,2,0,L|277:117,1,90.1000001374817,2|8,0:0|0:0,0:0:0:0:
166,56,196690,2,0,L|76:38,1,90.1000001374817,2|8,0:0|0:0,0:0:0:0:
24,128,196995,1,2,0:0:0:0:
24,128,197071,1,2,0:0:0:0:
24,128,197147,1,8,0:0:0:0:
100,212,197299,6,0,P|153:248|267:184,1,180.200000274963,4|2,0:0|0:0,0:0:0:0:
190,86,197756,2,0,P|173:138|179:186,1,90.1000001374817,8|0,0:0|0:0,0:0:0:0:
249,238,198060,1,2,0:0:0:0:
338,145,198213,2,0,L|246:138,1,90.1000001374817,2|8,0:0|0:0,0:0:0:0:
416,193,198517,6,0,P|428:143|410:87,1,90.1000001374817
328,234,198822,2,0,P|316:284|334:340,1,90.1000001374817,2|8,0:0|0:0,0:0:0:0:
465,254,199126,1,0,0:0:0:0:
486,228,199202,1,0,0:0:0:0:
494,195,199278,1,0,0:0:0:0:
488,163,199354,1,0,0:0:0:0:
468,136,199431,2,0,P|465:84|446:46,1,90.1000001374817,0|8,0:0|0:0,0:0:0:0:
250,102,199736,6,0,P|317:151|397:103,1,180.200000274963,4|2,0:0|0:0,0:0:0:0:
325,39,200192,1,8,0:0:0:0:
250,102,200345,2,0,P|190:85|159:84,1,90.1000001374817
115,205,200649,2,0,P|165:187|193:155,1,90.1000001374817,0|8,0:0|0:0,0:0:0:0:
61,138,200954,6,0,P|33:227|92:295,1,180.200000274963,0|2,0:0|0:0,0:0:0:0:
174,278,201335,1,2,0:0:0:0:
174,278,201411,2,0,L|269:277,1,90.1000001374817,8|2,0:0|0:0,0:0:0:0:
289,306,201639,1,2,0:0:0:0:
330,320,201715,1,8,0:0:0:0:
374,309,201791,1,0,0:0:0:0:
403,277,201868,2,0,L|435:324,2,45.0500000687408,0|0|8,0:0|0:0|0:0,0:0:0:0:
328,170,202172,6,0,L|236:157,1,90.1000001374817,4|0,0:0|0:0,0:0:0:0:
103,257,202477,2,0,L|195:244,1,90.1000001374817,2|8,0:0|0:0,0:0:0:0:
160,80,202781,2,0,P|143:134|159:175,1,90.1000001374817
268,324,203086,2,0,P|285:270|269:229,1,90.1000001374817,0|8,0:0|0:0,0:0:0:0:
107,207,203390,6,0,P|107:264|210:276,1,180.200000274963,4|2,0:0|0:0,0:0:0:0:
284,217,203847,1,8,0:0:0:0:
374,144,204000,2,0,P|330:112|282:101,1,90.1000001374817,0|2,0:0|0:2,0:0:0:0:
199,107,204304,2,0,L|172:53,2,45.0500000687408,2|2|8,0:2|0:2|0:0,0:0:0:0:
223,195,204609,6,0,L|123:192,1,90.1000001374817,4|0,0:0|0:0,0:0:0:0:
289,126,204913,2,0,L|316:72,2,45.0500000687408,2|2|8,0:0|0:0|0:0,0:0:0:0:
312,222,205218,6,0,L|412:219,1,90.1000001374817,4|0,0:0|0:0,0:0:0:0:
224,195,205522,2,0,L|197:141,2,45.0500000687408,2|2|8,0:0|0:0|0:0,0:0:0:0:
246,285,205827,6,0,L|146:282,1,90.1000001374817,4|0,0:0|0:0,0:0:0:0:
312,221,206131,2,0,L|339:167,2,45.0500000687408,2|2|8,0:0|0:0|0:0,0:0:0:0:
334,312,206436,6,0,L|434:309,1,90.1000001374817,4|8,0:0|0:0,0:0:0:0:
471,218,206741,1,2,0:0:0:0:
476,173,206817,1,2,0:0:0:0:
469,129,206893,1,8,0:0:0:0:
303,95,207045,6,0,P|313:172|401:173,1,180.200000274963,4|2,0:0|0:0,0:0:0:0:
400,173,207426,1,2,0:0:0:0:
400,173,207502,1,8,0:0:0:0:
331,272,207654,6,0,P|248:269|233:350,1,180.200000274963,4|2,0:0|0:0,0:0:0:0:
400,313,208111,2,0,P|404:257|391:219,1,90.1000001374817,8|4,0:0|0:0,0:0:0:0:
236,126,208568,5,8,0:0:0:0:
348,92,208720,1,8,0:0:0:0:
277,189,208872,1,8,0:0:0:0:
303,31,209025,1,12,0:0:0:0:
303,31,209482,5,4,0:0:0:0:
