osu file format v7

[General]
AudioFilename: Yaoi tte Goose.mp3
AudioLeadIn: 0
PreviewTime: 12085
Countdown: 0
SampleSet: Normal
StackLeniency: 0.7
Mode: 0
LetterboxInBreaks: 1

[Editor]
Bookmarks: 2542
DistanceSpacing: 0.600000023841858
BeatDivisor: 4
GridSize: 8

[Metadata]
Title:Yaoi tte Goose
Artist:AKHTS
Creator:Sushi971
Version:Boring
Source:Moon goose
Tags:Lucky Star Youtube

[Difficulty]
HPDrainRate:5
CircleSize:3
OverallDifficulty:4
SliderMultiplier:1
SliderTickRate:1

[Events]
//Background and Video events
Video,-20,"Yaoi tte Goose (480 x 360).avi"
0,0,"Konachan.com - 8676 lucky_star tamura_hiyori white.jpg"
//Break Periods
2,79299,80806
//Storyboard Layer 0 (Background)
//Storyboard Layer 1 (Fail)
//Storyboard Layer 2 (Pass)
//Storyboard Layer 3 (Foreground)
//Storyboard Sound Samples
//Background Colour Transformations
3,100,0,0,255

[TimingPoints]
6250,299.25187032419,4,1,0,57,1,0
23157,-100,4,2,0,79,0,0
23831,-100,4,1,0,57,0,0
25551,-100,4,2,0,79,0,0
26449,-100,4,1,0,57,0,0
29142,-100,4,2,0,80,0,0
29965,-100,4,1,0,57,0,0
32733,-100,4,2,0,82,0,0
33407,-100,4,1,0,57,0,0
35127,-100,4,2,0,80,0,0
35950,-100,4,1,0,57,0,0
36773,-100,4,2,0,81,0,0
37222,-100,4,1,0,57,0,0
37970,-100,4,2,0,82,0,0
38419,-100,4,1,0,57,0,0
40364,-100,4,2,0,80,0,0
40813,-100,4,1,0,57,0,0
42235,-100,4,2,0,80,0,0
43207,-100,4,1,0,57,0,0
44629,-100,4,2,0,81,0,0
45601,-100,4,1,0,57,0,0
47023,-100,4,2,0,81,0,0
47995,-100,4,1,0,57,0,0
50521,299.25187032419,4,1,0,57,1,0
69673,296.662546353523,4,1,0,57,1,0
76792,307.692307692308,4,1,0,57,1,0
82126,306.122448979592,4,1,0,57,1,0
88171,307.692307692308,4,1,0,57,1,0
94712,306.122448979592,4,1,0,57,1,0

[Colours]
Combo1 : 255,0,0
Combo2 : 128,0,128
Combo3 : 0,0,255

[HitObjects]
480,192,6249,1,0
480,312,6848,1,0
360,312,7447,2,0,B|232:312|232:184,1,200,0|4
352,192,8644,2,0,B|352:128|280:128,3,100,0|0|0|4
256,208,9841,12,4,11636
488,320,12235,5,0
400,320,12683,1,0
312,320,13132,1,8
312,256,13432,5,0
224,256,13880,1,0
136,256,14329,1,8
136,192,14629,6,0,B|136:112|216:64,1,150
288,32,15526,1,8
352,32,15826,5,0
352,88,16125,1,0
352,144,16424,2,4,B|352:248,1,100,0|0
416,248,17023,6,0,B|480:184|480:104,1,150
415,52,17920,1,8
354,52,18220,6,0,B|280:56|208:128,1,150,0|0
168,192,19117,1,8
144,248,19417,5,0
208,312,19865,1,0
272,248,20314,1,0
320,216,20614,6,4,B|336:56|176:56|192:216,1,300,4|4
240,248,21811,6,0,B|240:320|120:320,2,150,0|0|8
256,192,23008,1,0
256,16,23905,5,0
256,80,24205,2,0,B|256:184|312:232,2,150,0|0|8
192,80,25402,1,0
256,312,26599,6,0,B|368:312|368:208,2,150,0|0|8
256,248,27796,2,0,B|144:248|144:352,2,150,0|0|8
256,184,28993,1,0
216,272,30190,6,0,B|192:360|256:350|320:360|296:272,1,200,0|4
272,136,31387,6,0,B|272:64|392:64,2,150,0|0|8
256,192,32584,1,0
256,368,33481,5,0
256,304,33781,2,0,B|256:200|200:152,2,150,0|0|8
320,304,34978,1,0
256,72,36025,6,0,B|144:72|144:192,1,175
256,272,37372,2,0,B|368:272|368:168,1,150
366,43,38569,1,0
256,256,39766,6,0,B|168:256|128:176,1,150,0|4
280,184,40963,6,0,B|280:64|208:64,1,150
135,62,41711,2,0,B|79:62,3,50
80,184,42758,1,4
200,192,43357,6,0,B|200:352,1,150
264,344,44105,2,0,B|320:344,3,50
360,232,45152,1,4
400,120,45751,6,0,B|360:64|256:64,1,150
184,64,46649,1,0
184,64,46948,1,0
152,176,47546,1,4
64,96,48145,6,0,B|8:128|8:192,3,100
8,232,49342,5,0
64,232,49641,1,2
120,232,49940,2,2,B|168:232|232:232,1,100,2|4
280,232,50521,6,0,B|376:232|376:120,2,150,0|8|0
216,232,51718,6,0,B|120:232|120:120,2,150,0|8|0
240,176,52915,6,0,B|272:104|176:152|192:48,2,150,0|8|0
256,208,54112,12,0,55309
256,248,55907,6,0,B|192:248|192:328,2,100
256,368,57104,2,0,B|320:368|320:288,2,100,0|0|0
256,208,57852,12,4,59498
56,192,60097,6,0,B|168:192,1,100
156,192,60545,1,0
256,80,61294,2,0,B|144:80,1,100
156,80,61742,1,0
256,192,62491,6,0,B|336:256,1,100
334,254,62939,1,0
256,128,63688,2,0,B|256:8,3,100
320,24,64885,6,0,B|432:24,1,100
420,24,65333,1,0
424,176,66082,2,0,B|424:288,1,100
424,276,66530,1,0
256,208,67279,12,4,69074
144,336,69673,5,0
144,336,69821,2,0,B|200:336|264:336,1,100
336,336,70562,1,0
392,336,70859,2,2,B|456:336|456:248,3,100
456,208,72046,5,0
456,208,72194,2,0,B|400:176|376:232|352:200,1,100
272,208,72936,1,0
216,208,73232,2,2,B|216:264|272:288,3,100
328,288,74419,6,0,B|328:344,1,50,0|0
388,338,74864,1,0
451,274,75309,1,0
493,231,75606,6,2,B|472:168|400:168,3,100
256,208,76792,12,0,79099
72,48,82126,6,0,B|16:112|24:248|216:176,1,300
264,144,83350,6,0,B|328:120|424:120|496:208|440:304,1,300
392,296,84574,6,0,B|232:296|120:168,1,300
256,208,85799,12,4,87712
440,336,88171,6,0,B|496:272|488:136|288:216,1,300
248,240,89401,6,0,B|184:264|88:264|16:176|72:80,1,300
120,88,90632,6,0,B|280:88|400:224,1,300
256,208,91863,12,4,94171
256,168,94709,6,0,B|256:128,4,25
256,216,95247,1,0
256,288,95630,5,4
