osu file format v7

[General]
AudioFilename: Ritsu Can Can.mp3
AudioLeadIn: 0
PreviewTime: 29007
Countdown: 0
SampleSet: Normal
StackLeniency: 0.7
Mode: 0
LetterboxInBreaks: 1

[Editor]
DistanceSpacing: 0.800000011920929
BeatDivisor: 4
GridSize: 8

[Metadata]
Title:Ritsu Can Can
Artist:AKHTS
Creator:CapeCanaveral
Version:Insane
Source:K-ON!
Tags:

[Difficulty]
HPDrainRate:7
CircleSize:5
OverallDifficulty:8
SliderMultiplier:1.4
SliderTickRate:1

[Events]
//Background and Video events
0,0,"Ritsu_Tainaka.png"
Video,0,"Ritsu Can Can.mp4.AVI"
//Break Periods
2,76260,79923
//Storyboard Layer 0 (Background)
//Storyboard Layer 1 (Fail)
//Storyboard Layer 2 (Pass)
//Storyboard Layer 3 (Foreground)
//Storyboard Sound Samples
//Background Colour Transformations
3,100,163,162,255

[TimingPoints]
5020,307.534597642235,4,1,0,30,1,0

[Colours]
Combo1 : 255,255,0
Combo2 : 255,255,255
Combo3 : 145,72,0
Combo4 : 64,0,128

[HitObjects]
120,64,5019,1,0
144,64,5096,1,0
168,64,5173,1,2
168,120,5327,5,0
192,120,5404,1,0
216,120,5481,1,2
296,120,5634,5,0
344,144,5788,1,2
376,192,5942,1,0
376,248,6096,1,2
336,288,6250,1,0
280,288,6403,1,2
224,288,6557,1,0
168,288,6711,1,2
112,288,6865,1,0
24,288,7172,1,4
48,152,7480,6,0,B|48:96,4,35
48,32,8095,2,0,B|96:32,5,35
168,32,8710,5,0
224,32,8864,1,0
280,32,9017,1,0
280,88,9171,1,0
280,144,9325,1,0
336,144,9479,1,0
392,144,9633,1,0
328,232,9940,5,0
272,232,10094,1,0
216,232,10248,1,0
160,232,10401,1,0
104,232,10555,1,0
104,176,10709,1,0
104,120,10863,1,0
216,80,11170,6,2,B|288:80,1,70
352,80,11478,2,2,B|352:152,1,70
352,216,11785,2,2,B|392:216,4,35
456,280,12400,5,0
456,224,12554,1,0
456,88,12862,1,0
400,88,13015,1,0
400,88,13323,1,0
232,88,13630,5,8
88,264,13938,1,8
368,256,14246,1,8
232,88,14553,1,8
336,88,14861,5,0
336,200,15168,1,8
336,312,15476,1,0
224,312,15783,1,8
112,304,16091,5,0
112,280,16168,1,0
112,256,16245,1,2
112,232,16321,1,2
112,208,16398,1,0
112,184,16475,1,0
112,160,16552,1,2
112,136,16629,1,2
112,112,16706,1,0
112,88,16783,1,0
136,88,16860,1,2
160,88,16936,1,2
184,88,17013,1,0
296,88,17321,5,0
352,88,17475,1,8
352,144,17629,1,0
352,200,17782,1,8
352,256,17936,1,0
408,256,18090,1,8
408,312,18244,1,0
272,312,18551,5,0
272,288,18628,1,0
272,264,18705,1,2
272,240,18782,1,2
272,216,18859,1,0
272,192,18935,1,0
272,168,19012,1,2
272,144,19089,1,2
272,120,19166,1,0
272,96,19243,1,0
272,72,19320,1,0
240,72,19397,1,0
208,72,19474,1,0
32,72,19781,5,0
32,128,19935,1,8
32,184,20089,1,0
32,240,20242,1,8
88,240,20396,1,0
144,240,20550,1,8
144,184,20704,1,0
144,72,21011,5,0
168,72,21088,1,0
192,72,21165,1,2
216,72,21242,1,2
240,72,21319,1,0
264,72,21396,1,0
288,72,21473,1,2
312,72,21549,1,2
336,72,21626,1,0
360,72,21703,1,0
384,72,21780,1,0
408,72,21857,1,0
432,72,21934,1,0
296,160,22241,6,0,B|440:160,1,140
312,256,22857,2,0,B|456:256,1,140
456,368,23472,2,0,B|312:368,1,140
272,272,24087,5,0
400,160,24394,1,8
272,48,24702,1,0
152,160,25009,1,0
152,160,25317,1,0
272,48,25624,1,8
400,160,25932,1,0
272,272,26239,1,0
152,160,26547,1,0
272,48,26854,1,8
400,160,27162,1,0
272,272,27470,1,8
152,160,27777,1,0
272,48,28085,1,8
464,224,29007,5,4
464,224,29315,1,4
464,224,29622,1,0
464,224,29776,1,8
464,224,29930,1,0
464,224,30084,1,8
464,224,30237,1,4
208,56,30545,1,0
88,56,30852,5,0
88,112,31006,1,0
88,168,31160,1,0
88,224,31314,1,0
88,280,31467,1,4
224,280,31775,1,4
224,192,32083,2,0,B|224:128,4,35
224,80,32698,5,0
280,80,32851,1,0
328,96,33005,1,2
368,136,33159,1,2
384,192,33313,1,0
384,248,33466,1,2
384,296,33620,1,2
432,296,33774,1,0
464,264,33928,5,0
464,144,34235,1,0
352,144,34543,2,2,B|288:144,6,35
296,144,35158,1,0
184,144,35465,1,0
72,144,35773,5,0
72,200,35927,1,0
72,256,36080,1,0
72,312,36234,1,0
128,312,36388,1,4
240,312,36696,1,4
352,312,37003,5,0
408,312,37157,1,0
464,312,37311,1,0
464,256,37464,1,0
464,200,37618,1,0
408,200,37772,1,0
352,200,37926,1,0
352,144,38079,1,0
352,88,38233,1,0
112,232,39463,5,0
112,232,39617,1,0
168,232,39771,1,0
224,232,39925,1,0
224,144,40078,1,4
336,144,40386,1,4
248,80,40694,6,2,B|336:80,3,70
376,80,41309,1,0
488,80,41616,1,0
488,192,41924,6,2,B|488:296,3,70
256,192,42539,12,0,43769
256,192,44076,5,0
368,192,44384,2,0,B|440:192,2,70
368,192,44845,1,0
368,136,44999,1,0
256,136,45307,1,0
120,136,45614,1,0
120,192,45768,1,0
120,248,45922,1,0
192,272,46229,6,0,B|344:272,1,140
448,272,46844,1,0
448,216,46998,1,0
448,160,47152,1,0
336,160,47459,1,0
224,160,47767,1,0
112,160,48075,1,0
56,80,48689,5,0
56,136,48843,1,2
56,192,48997,1,0
56,248,49151,1,0
112,248,49304,1,2
168,248,49458,1,0
224,248,49612,1,2
224,304,49766,1,0
312,312,49920,6,0,B|416:312,2,70
424,312,50535,1,0
424,256,50688,1,2
424,200,50842,1,0
424,88,51150,5,0
368,88,51303,1,0
312,88,51457,1,0
312,200,51765,1,0
232,280,52072,1,0
112,280,52380,1,4
112,208,52687,2,0,B|112:136,1,70
112,64,52995,1,0
168,64,53149,1,0
224,64,53302,1,0
344,160,53610,5,0
344,160,53764,1,0
344,160,53918,1,0
400,160,54071,1,0
456,160,54225,1,0
456,160,54379,1,0
456,160,54533,1,0
464,280,54840,2,0,B|272:240|256:112|208:40|80:80|64:152|64:264|112:328|256:328,1,700
488,160,56685,5,8
304,40,57300,1,8
128,120,57915,1,8
32,320,58531,5,8
144,320,58838,1,8
256,320,59146,1,8
368,320,59453,1,8
440,232,59761,1,8
376,144,60068,1,8
272,112,60376,1,8
160,112,60683,1,8
256,192,60991,12,0,62221
256,192,62528,5,0
256,192,62836,1,0
256,136,62990,1,0
200,136,63144,1,0
200,192,63297,1,0
200,248,63451,1,0
200,360,63759,1,0
312,360,64066,5,0
312,248,64374,1,0
312,136,64681,1,0
312,248,64989,1,0
424,248,65296,5,0
424,136,65604,1,0
312,136,65911,1,0
312,136,66065,1,0
224,136,66219,5,0
200,136,66296,1,0
176,136,66373,1,2
152,136,66450,1,2
128,136,66526,1,0
104,136,66603,1,0
104,160,66680,1,2
104,184,66757,1,2
104,208,66834,1,0
104,232,66911,1,0
104,256,66988,1,0
104,312,67141,5,0
216,312,67449,1,0
328,312,67757,1,0
464,80,68064,1,0
64,72,68372,1,0
256,192,68679,1,0
368,192,68987,5,0
424,192,69140,1,0
424,248,69294,1,0
424,336,69602,1,8
312,336,69909,1,8
256,192,70217,12,0,71755
256,192,72062,5,4
144,192,72370,1,4
144,80,72677,1,0
200,80,72831,1,2
200,136,72985,1,0
256,136,73138,1,2
312,136,73292,1,0
424,136,73600,5,0
424,248,73907,1,0
368,248,74061,1,2
312,248,74215,1,0
256,248,74369,1,2
200,248,74522,1,4
88,248,74830,1,4
256,192,75137,12,0,76060
120,184,80673,5,8
232,40,80981,1,8
280,184,81288,1,8
400,40,81596,1,8
384,192,81903,5,0
352,240,82057,1,0
320,288,82211,1,2
288,184,82518,1,0
256,232,82672,1,0
224,280,82826,1,2
144,200,83133,5,8
256,48,83441,1,8
320,200,83748,1,8
416,48,84056,1,8
416,160,84363,5,0
416,216,84517,1,0
360,216,84671,1,0
416,216,84825,1,0
416,160,84978,1,0
472,160,85132,1,0
472,216,85286,1,0
472,160,85440,1,0
472,104,85594,1,8
408,64,85901,6,0,B|360:64,5,35
288,64,86516,6,0,B|232:64,5,35
168,64,87131,6,0,B|120:64,5,35
48,64,87747,6,0,B|48:104,5,35
48,184,88362,6,0,B|96:184,5,35
168,184,88977,6,0,B|216:184,5,35
288,184,89592,6,0,B|336:184,5,35
256,192,90207,12,0,92052
256,192,92667,12,0,94820
56,48,97126,5,4
424,48,97741,1,4
424,312,98356,1,4
56,320,98971,1,4
56,320,99125,1,4
56,320,99279,1,4
