osu file format v9

[General]
AudioFilename: AKB48 - Yankee Soul (TV Size).mp3
AudioLeadIn: 2000
PreviewTime: 8859
Countdown: 0
SampleSet: Normal
StackLeniency: 0.7
Mode: 0
LetterboxInBreaks: 0

[Editor]
DistanceSpacing: 1.2
BeatDivisor: 4
GridSize: 8

[Metadata]
Title:Yankee Soul (TV Size)
Artist:AKB48
Creator:Breeze
Version:Insane
Source:Majisuka Gakuen 2
Tags:phonic drama24 Kuramochi Asuka Kojima Haruna Sashihara Rino Shinoda Mariko Takajiyou Aki Takahashi Minami Maeda Atsuko Akimoto Sayaka Itano Tomomi Ooshima Yuuko Minegishi MinamiMiyagiwa Sae Yokoyama Yui Kasai Tomomi Kashiwagi Yuki Kitahara Rie Satou Amina Masuda Yuka Watanabe Mayu Matsui Jurina Matsui Rena Nakaya Sayaka Tanabe Miku Yonezawa Rumi Katayama Haruka Miyazawa Sae Komori Mika Takajiyou Aki Nitou Moeno Miyazaki Miho Oota Aika Oku Manami Yagami Kumi Ono Erena Ooya Jiduka Matsubara Natsumi Matsui Sakiko Nakatsuka Tomomi Uchida Mayumi Ishida Haruka Satou Yukari Ichikawa Miori Kimoto Kanon Nakamota Shiori

[Difficulty]
HPDrainRate:7
CircleSize:4
OverallDifficulty:8
ApproachRate:8
SliderMultiplier:2.2
SliderTickRate:2

[Events]
//Background and Video events
Video,0,"AKB48 - Yankee Soul (TV Size).avi"
0,0,"01.jpg"
//Break Periods
//Storyboard Layer 0 (Background)
//Storyboard Layer 1 (Fail)
//Storyboard Layer 2 (Pass)
//Storyboard Layer 3 (Foreground)
//Storyboard Sound Samples
//Background Colour Transformations
3,100,163,162,255

[TimingPoints]
20,447.761194029851,4,1,1,80,1,0
915,-100,4,1,1,60,0,0
1811,-100,4,1,1,80,0,0
7520,-100,4,1,2,80,0,0
7743,-100,4,1,1,80,0,0
9199,-100,4,1,1,40,0,0
9422,-100,4,1,1,80,0,0
9646,-100,4,1,1,40,0,0
9870,-100,4,1,1,80,0,0
10094,-100,4,1,1,40,0,0
10318,-100,4,1,1,80,0,0
10542,-100,4,1,1,40,0,0
10766,-100,4,1,1,100,0,1
10878,-100,4,1,1,100,0,0
14572,-100,4,1,1,60,0,0
17258,-100,4,1,0,60,0,0
17930,-100,4,1,1,100,0,0
21736,-100,4,1,1,60,0,0
23303,-100,4,1,0,80,0,0
24199,-100,4,1,1,100,0,0
25430,-100,4,1,1,50,0,0
25542,-100,4,1,1,80,0,0
27221,-100,4,1,2,80,0,0
27445,-100,4,1,1,80,0,0
37855,-100,4,1,1,75,0,0
38079,-100,4,1,1,70,0,0
38303,-100,4,1,1,65,0,0
38527,-100,4,1,1,60,0,0
38751,-100,4,1,1,55,0,0
38975,-100,4,1,1,50,0,0
39199,-100,4,1,1,45,0,0
39422,-100,4,1,1,80,0,0
49945,-100,4,1,1,50,0,0
50617,-100,4,1,1,80,0,0
50840,-100,4,1,1,50,0,0
51512,-100,4,1,1,80,0,0
53527,-100,4,1,1,60,0,0
53751,-100,4,1,1,80,0,0
53975,-100,4,1,1,72,0,0
54199,-100,4,1,1,66,0,0
54422,-100,4,1,1,58,0,0
54646,-100,4,1,1,50,0,0
54870,-100,4,1,1,42,0,0
55094,-100,4,1,1,80,0,0
55206,-100,4,1,1,36,0,0
55318,-100,4,1,1,80,0,0
55430,-100,4,1,1,28,0,0
55542,-83.3333333333333,4,1,1,100,0,0
61363,-83.3333333333333,4,1,1,100,0,0
61475,-83.3333333333333,4,1,1,60,0,0
61811,-83.3333333333333,4,1,1,70,0,0
62258,-83.3333333333333,4,1,1,100,0,0
62370,-83.3333333333333,4,1,1,80,0,0
62706,-83.3333333333333,4,1,1,100,0,0
68079,-83.3333333333333,4,1,1,100,0,0
75467,-100,4,1,1,60,0,0
77930,-100,4,1,1,40,0,0
78825,-100,4,1,1,100,0,0
82631,-100,4,1,1,60,0,0
84199,-100,4,1,0,70,0,0
84982,-100,4,1,1,40,0,0
85542,-100,4,1,0,70,0,0
85654,-100,4,1,1,60,0,0
85766,-100,4,1,0,70,0,0
85878,-100,4,1,1,60,0,0
85990,-100,4,1,0,70,0,0
86102,-100,4,1,1,60,0,0
86214,-100,4,1,0,70,0,0
86325,-100,4,1,1,60,0,0
86885,-100,4,1,0,70,0,0
86997,-100,4,1,1,60,0,0
87109,-100,4,1,0,70,0,0
87221,-100,4,1,1,60,0,0
87333,-100,4,1,0,70,0,0
87445,-100,4,1,1,60,0,0
87557,-100,4,1,0,70,0,0
87669,-100,4,1,1,60,0,0
88228,-100,4,1,0,70,0,0
88900,-100,4,1,0,100,0,1
89012,-100,4,1,0,100,0,0

[Colours]
Combo1 : 199,1,2
Combo2 : 255,255,255
SliderBorder : 160,160,160

[HitObjects]
164,192,20,1,0
188,216,131,1,0
212,240,243,1,0
236,264,355,1,0
276,264,467,1,0
300,240,579,1,0
324,216,691,1,0
348,192,803,1,0
304,168,915,6,0,B|352:72,2,73.3333333333333
200,168,1363,2,0,B|152:80,2,73.3333333333333
256,112,1811,1,6
136,344,2258,1,6
360,344,2706,1,6
256,160,3154,1,6
64,48,3602,5,0
64,160,3825,1,0
64,192,3937,1,0
64,224,4049,1,8
64,336,4273,2,0,B|128:336|168:280,1,110
208,192,4721,1,0
208,80,4945,2,0,B|256:32|304:80,1,110,8|0
448,48,5393,5,0
448,160,5617,1,0
448,192,5728,1,0
448,224,5840,1,8
448,336,6064,2,0,B|384:336|344:280,1,110
304,192,6512,1,0
256,96,6736,1,8
208,192,6960,1,0
256,288,7184,5,0
360,328,7408,2,0,B|256:400|152:328,1,220
88,216,8079,1,0
144,96,8303,1,0
256,24,8527,1,8
368,96,8751,1,0
424,216,8975,6,0,B|320:272,1,110
368,96,9422,2,0,B|288:216,1,110
144,96,9870,2,0,B|216:192,1,110
88,216,10318,2,0,B|200:272,1,110
256,360,10766,5,4
256,136,11214,1,8
256,248,11437,1,0
208,32,11885,2,0,B|232:0|280:0|304:32,2,110,0|8|0
48,56,12557,5,0
152,128,12781,1,0
264,200,13005,1,8
376,272,13228,2,0,B|504:360,2,110
256,320,13900,1,8
316,240,14124,1,0
376,152,14348,1,0
320,56,14572,5,2
256,320,15020,1,2
192,56,15467,1,2
368,256,15915,1,2
128,144,16363,1,2
384,144,16811,1,2
144,256,17258,1,0
48,304,17482,1,0
144,352,17706,1,0
256,360,17930,5,4
256,136,18378,1,8
256,248,18602,1,0
304,32,19049,2,0,B|280:0|232:0|208:32,2,110,0|8|0
464,56,19721,5,0
360,128,19945,1,0
248,200,20169,1,8
136,272,20393,2,0,B|8:360,2,110
256,320,21064,1,8
196,240,21288,1,0
136,152,21512,1,0
192,56,21736,5,2
256,320,22184,1,2
320,56,22631,1,2
152,272,23079,1,2
160,144,23303,1,0
232,256,23527,1,0
112,208,23751,1,0
240,176,23975,1,0
152,272,24199,6,0,B|144:232|112:208|112:208|152:184|160:144|160:144|192:176|240:176|240:176|208:224|240:272,1,330
336,224,25094,1,4
488,168,25430,2,0,B|416:136,1,55,0|8
256,24,25990,1,0
120,112,26325,2,0,B|56:152,1,55,0|8
72,248,26661,2,0,B|64:320|152:344,1,110
176,240,27109,2,0,B|192:288|256:312|256:312|320:288|336:240,1,220
386,334,27781,2,0,B|448:320|440:248,1,110
438,141,28228,2,0,B|320:72,1,110,8|0
256,24,28676,5,0
256,248,29124,1,8
256,136,29348,1,0
160,80,29572,2,0,B|88:80|88:176,2,110,0|0|8
184,184,30243,1,0
208,208,30691,1,0
232,232,31139,1,0
256,256,31587,6,0,B|256:368,2,110,0|8|0
328,184,32258,1,0
304,208,32706,1,8
280,232,33154,1,0
256,256,33602,2,0,B|168:336,1,110,8|0
256,256,34049,2,0,B|352:344,1,110
384,216,34497,1,8
360,112,34721,1,0
256,72,34945,1,0
152,112,35169,5,0
128,216,35393,1,8
168,320,35617,1,0
280,320,35840,1,0
312,320,35952,2,0,B|384:320|384:320|440:320|464:272,1,165,0|8
480,248,36400,1,0
480,136,36624,1,0
461,106,36736,2,0,B|440:64|384:64|384:64|328:64,1,110
336,64,37072,1,0
224,64,37296,2,0,B|168:64,1,55
64,104,37631,5,0
128,192,37855,1,0
136,200,37967,1,0
144,208,38079,1,0
152,216,38191,1,0
160,224,38303,1,0
168,232,38415,1,0
176,240,38527,1,0
184,248,38639,1,0
192,256,38751,1,0
200,264,38863,1,0
208,272,38975,1,0
216,280,39087,1,0
224,288,39199,1,0
232,296,39311,1,0
240,304,39422,5,4
408,304,39758,2,0,B|464:304,1,55,0|8
432,200,40094,1,0
432,200,40542,1,0
392,96,40766,1,8
296,48,40990,1,0
184,48,41214,2,0,B|120:8|64:64,2,110,0|0|8
220,152,41885,1,0
220,152,42333,2,0,B|156:160|132:104,1,110,0|8
256,288,43005,5,0
256,288,43452,2,0,B|144:288,1,110,8|0
80,200,43900,1,0
120,96,44124,1,0
216,48,44348,1,8
328,48,44572,2,0,B|392:8|448:64,2,110
292,152,45243,2,0,B|356:160|380:104,1,110,8|0
256,288,45915,2,0,B|400:288,2,110,0|8|0
216,152,46587,6,0,B|184:80|256:28|328:80|296:152,1,220,0|8
256,288,47258,1,0
256,288,47706,2,0,B|200:320|144:288,1,110,0|8
192,192,48154,1,0
256,104,48378,1,0
320,192,48602,1,0
361,291,48825,2,0,B|312:320|256:288,1,110,8|0
256,288,49497,5,0
256,168,49721,1,8
256,48,49945,2,0,B|120:48,1,110,2|0
256,104,50393,2,0,B|384:104,1,110,2|0
224,168,50840,2,0,B|233:175|96:168,1,110,2|0
288,224,51288,2,0,B|424:224,1,110,2|0
184,288,51736,2,0,B|48:288,1,110,4|0
328,336,52184,2,0,B|456:336,1,110
352,160,52631,6,0,B|304:96|208:96|160:160,1,220,4|0
256,336,53303,1,0
256,336,53527,1,4
256,224,53751,5,0
256,212,53863,1,0
256,200,53975,1,0
256,188,54087,1,0
256,176,54199,1,0
256,164,54311,1,0
256,152,54422,1,0
256,140,54534,1,0
256,128,54646,1,0
256,116,54758,1,0
256,104,54870,1,0
256,92,54982,1,0
256,80,55094,1,0
256,68,55206,1,0
256,56,55318,1,0
256,44,55430,1,0
256,32,55542,5,4
128,64,55766,1,0
64,176,55990,1,8
192,192,56214,1,0
64,104,56437,1,0
120,248,56661,1,0
200,112,56885,1,8
256,288,57109,1,0
440,328,57333,2,0,B|376:368|312:320,1,132.000003147125
392,152,57781,6,0,B|432:216|376:280,2,132.000003147125,8|0|0
200,112,58452,1,0
256,288,58676,1,8
392,152,58900,1,0
256,32,59124,5,0
384,64,59348,1,0
448,176,59572,1,8
320,192,59796,1,0
448,104,60020,1,0
392,248,60243,1,0
312,112,60467,1,8
256,288,60691,1,0
72,328,60915,2,0,B|136:368|200:320,1,132.000003147125
120,184,61363,5,8
136,228,61475,1,0
136,272,61587,1,0
80,128,61811,1,0
124,112,61922,1,0
168,120,62034,1,0
24,80,62258,1,8
52,40,62370,1,0
96,24,62482,1,0
256,40,62706,5,4
376,272,63154,2,0,B|360:192|424:160,1,132.000003147125,8|0
448,288,63602,2,0,B|424:352|360:368|304:304,1,132.000003147125
264,232,64049,1,8
320,88,64273,1,0
472,48,64497,1,0
416,192,64721,1,0
392,32,64945,1,8
336,208,65169,2,0,B|344:288|272:352|168:288|192:208,1,264.000006294251
264,96,65840,2,0,B|264:240,1,132.000003147125,8|0
256,192,66288,12,4,68079
256,192,68303,5,0
96,96,68527,1,8
96,288,68751,1,0
200,80,68975,1,0
200,304,69199,1,0
24,192,69422,1,8
256,192,69646,1,4
256,192,70094,5,0
416,96,70318,1,8
416,288,70542,1,0
312,80,70766,1,0
312,304,70990,1,0
488,192,71214,1,8
256,192,71437,1,0
124,192,71661,5,4
388,192,72109,1,8
256,192,72333,1,0
488,60,72781,2,0,B|488:244,1,132.000003147125,0|8
488,324,73228,2,0,B|488:192,1,132.000003147125
352,112,73676,5,0
200,64,73900,1,8
104,192,74124,1,0
200,320,74348,1,0
352,272,74572,1,0
216,192,74796,2,0,B|272:152|272:240|336:192,2,132.000003147125,8|0|0
112,248,75467,6,0,B|88:320|160:352,1,110,2|0
112,136,75915,2,0,B|88:64|160:32,1,110,2|0
208,232,76363,2,0,B|224:304|288:320,1,110,2|0
208,152,76811,2,0,B|224:80|288:64,1,110,2|0
312,192,77258,2,0,B|456:192,2,110,2|0|2
208,152,77930,5,2
176,144,78042,1,2
144,136,78154,1,2
208,232,78378,1,2
176,240,78490,1,2
144,248,78602,1,2
48,192,78825,5,4
272,192,79273,1,8
384,192,79497,1,0
160,192,79945,1,0
272,192,80169,1,8
496,192,80617,1,0
384,192,80840,1,0
272,192,81064,1,8
192,120,81288,2,0,B|104:72|0:192|104:312|192:264,1,330,0|8
272,192,82184,2,0,B|328:152|328:232|368:192,1,110
496,192,82631,6,0,B|496:128|440:80,1,110,2|0
432,192,83079,2,0,B|432:248|384:296,1,110,2|0
368,128,83527,2,0,B|328:72|272:72,1,110,2|0
304,256,83975,2,0,B|256:304|184:304,1,110,2|0
84,260,84422,1,0
84,124,84646,1,0
208,80,84870,1,0
208,136,84982,2,0,B|208:256,1,110
384,336,85542,5,0
400,332,85654,1,0
416,328,85766,1,0
428,316,85878,1,0
440,304,85990,1,0
452,292,86102,1,0
460,280,86214,1,0
468,268,86325,1,0
472,252,86437,2,0,B|472:168,3,55
472,180,86885,5,0
472,164,86997,1,0
472,148,87109,1,0
472,132,87221,1,0
464,116,87333,1,0
456,100,87445,1,0
448,84,87557,1,0
436,72,87669,1,0
424,64,87781,2,0,B|404:44|376:40,3,55
344,40,88228,5,0
240,124,88452,1,0
240,260,88676,1,0
344,344,88900,1,4
