osu file format v13

[General]
AudioFilename: Sugar rush.mp3
AudioLeadIn: 0
PreviewTime: 45350
Countdown: 0
SampleSet: Soft
StackLeniency: 0.7
Mode: 0
LetterboxInBreaks: 1
WidescreenStoryboard: 1

[Editor]
Bookmarks: 34226
DistanceSpacing: 0.8
BeatDivisor: 4
GridSize: 4
TimelineZoom: 1

[Metadata]
Title:Sugar Rush
TitleUnicode:シュガーラッシュ
Artist:AKB48
ArtistUnicode:AKB48
Creator:Swiftheart
Version:Normal
Source:Wreck-it Ralph
Tags:難破-ITラルフ j-pop Walt Disney Animated Classics Rich Moore Vanellope von Schweetz Fix-It Felix, Jr Tamora Jean Calhoun Jane Lynch John Christopher Reilly Ralph Sarah Kate Silverman Jack McBrayer
BeatmapID:479819
BeatmapSetID:202890

[Difficulty]
HPDrainRate:3
CircleSize:3
OverallDifficulty:3
ApproachRate:3
SliderMultiplier:1.4
SliderTickRate:1

[Events]
//Background and Video events
0,0,"CANDY!.jpg",0,0
//Break Periods
2,60284,65917
2,133012,147735
//Storyboard Layer 0 (Background)
//Storyboard Layer 1 (Fail)
//Storyboard Layer 2 (Pass)
//Storyboard Layer 3 (Foreground)
//Storyboard Sound Samples
//Background Colour Transformations
3,100,163,162,255

[TimingPoints]
85,454.545454545454,4,2,1,70,1,0
9630,-100,4,2,1,70,0,0
34175,-100,4,2,1,70,0,0
45539,-100,4,2,1,70,0,1
60084,-100,4,2,1,70,0,0
98266,-100,4,2,1,70,0,1
112812,-100,4,2,1,70,0,0
149175,-100,4,2,1,55,0,0
163721,-100,4,2,1,70,0,1
192812,-100,4,2,1,5,0,0

[Colours]
Combo1 : 255,137,81
Combo2 : 255,128,255
Combo3 : 255,98,98
Combo4 : 128,128,255

[HitObjects]
384,156,7357,6,0,B|344:112|288:140|288:140|252:108,1,140,4|8,0:0|0:0,0:0:0:0:
180,40,8266,1,0,0:0:0:0:
104,120,8721,2,0,P|84:184|112:276,1,140,8|0,0:0|0:0,0:0:0:0:
212,256,9630,2,0,P|232:192|204:100,1,140,8|0,0:0|0:0,0:0:0:0:
148,36,10539,6,0,P|220:12|300:48,2,140,8|0|8,0:0|0:0|0:0,0:0:0:0:
112,132,11903,1,0,0:0:0:0:
68,236,12357,1,8,0:0:0:0:
148,316,12812,1,0,0:0:0:0:
248,268,13266,2,0,L|368:188,1,140,8|8,0:0|0:0,0:0:0:0:
304,96,14175,2,0,L|180:172,1,140,8|8,0:0|0:0,0:0:0:0:
88,224,15084,5,0,0:0:0:0:
16,312,15539,2,0,P|60:336|160:300,1,140
192,288,16221,1,0,0:0:0:0:
244,312,16448,2,0,P|288:336|388:300,1,140
428,308,17130,1,0,0:0:0:0:
468,268,17357,2,0,B|452:236|484:168|484:168|416:168,1,140
340,192,18266,6,0,B|356:224|324:292|324:292|392:292,1,140
424,292,18948,1,0,0:0:0:0:
468,268,19175,2,0,P|492:212|460:128,1,140
368,92,20084,2,0,P|416:32|484:40,2,140,0|0|0,0:0|0:0|0:0,0:0:0:0:
344,144,21221,2,0,L|292:244,2,105,0|0|0,0:0|0:0|0:0,0:0:0:0:
440,84,22357,6,0,P|388:32|312:40,1,140
284,72,23039,1,0,0:0:0:0:
244,112,23266,2,0,L|160:240,2,140,0|0|0,0:0|0:0|0:0,0:0:0:0:
356,116,24630,2,0,L|440:244,2,140,0|0|0,0:0|0:0|0:0,0:0:0:0:
300,108,25766,5,0,0:0:0:0:
248,88,25994,2,0,P|180:68|100:104,1,140,0|0,0:0|0:0,0:0:0:0:
88,200,26903,1,0,0:0:0:0:
172,276,27357,1,0,0:0:0:0:
252,196,27812,1,0,0:0:0:0:
248,88,28266,2,0,P|336:128|360:192,1,140
388,216,28948,1,0,0:0:0:0:
412,268,29175,6,0,L|452:356,2,70,4|0|0,0:0|0:0|0:0,0:0:0:0:
388,216,29857,1,0,0:0:0:0:
364,164,30084,2,0,P|316:140|224:176,1,140
192,264,30994,2,0,P|136:228|132:140,1,140
176,140,31675,1,0,0:0:0:0:
216,100,31903,2,0,P|280:112|316:192,1,140
416,124,32812,6,0,P|384:52|312:8,1,140
280,24,33494,1,0,0:0:0:0:
228,48,33721,2,0,L|156:100,1,70
140,136,34175,2,0,P|144:204|224:236,1,140,0|0,0:0|0:0,0:0:0:0:
300,188,35084,6,0,L|368:136,2,70,0|0|0,0:0|0:0|0:0,0:0:0:0:
244,184,35766,2,0,L|160:112,2,105,0|0|0,0:0|0:0|0:0,0:0:0:0:
352,212,36903,2,0,P|428:196|468:128,1,140
472,92,37584,1,0,0:0:0:0:
472,92,37812,2,0,L|444:0,2,70,0|0|0,0:0|0:0|0:0,0:0:0:0:
416,104,38494,5,0,0:0:0:0:
364,124,38721,2,0,P|296:148|220:104,1,140
220,68,39403,1,0,0:0:0:0:
200,16,39630,2,0,P|132:40|112:120,1,140
108,156,40312,1,0,0:0:0:0:
108,212,40539,2,0,L|108:352,1,140
220,352,41448,2,0,L|220:200,1,140,0|4,0:0|0:0,0:0:0:0:
256,192,42130,12,0,45084,0:0:0:0:
388,208,45539,6,0,L|496:80,1,140,4|4,0:0|0:0,0:0:0:0:
432,68,46221,1,8,0:0:0:0:
380,48,46448,2,0,P|304:60|260:128,1,140,0|8,0:0|0:0,0:0:0:0:
236,152,47130,1,0,0:0:0:0:
204,196,47357,6,0,P|136:184|96:128,1,140,0|8,0:0|0:0,0:0:0:0:
160,36,48266,6,0,P|236:56|264:124,1,140,0|8,0:0|0:0,0:0:0:0:
264,164,48948,1,0,0:0:0:0:
264,220,49175,2,0,P|328:244|404:208,2,140,0|8|0,0:0|0:0|0:0,0:0:0:0:
264,164,50312,1,0,0:0:0:0:
260,108,50539,2,0,P|196:84|120:120,2,140,8|0|8,0:0|0:0|0:0,0:0:0:0:
196,200,51903,2,0,L|196:364,1,140,0|8,0:0|0:0,0:0:0:0:
336,316,52812,6,0,B|404:264|336:204|336:204|264:160|308:76,1,280
264,40,53948,1,0,0:0:0:0:
220,76,54175,2,0,B|262:156|190:200|190:200|122:260|190:312,1,280,8|8,0:0|0:0,0:0:0:0:
248,312,55312,1,8,0:0:0:0:
304,316,55539,2,0,L|456:316,1,140,0|8,0:0|0:0,0:0:0:0:
444,204,56448,6,0,L|304:204,1,140,0|8,0:0|0:0,0:0:0:0:
192,216,57357,2,0,P|192:168|280:104,2,140,0|8|0,0:0|0:0|0:0,0:0:0:0:
192,272,58494,5,0,0:0:0:0:
156,316,58721,2,0,L|68:360,2,70,0|0|8,0:0|0:0|0:0,0:0:0:0:
192,272,59403,1,8,0:0:0:0:
192,216,59630,2,8,L|192:128,2,70,0|0|4,0:0|0:0|0:0,0:0:0:0:
336,208,67357,6,0,L|336:56,1,140,4|0,0:0|0:0,0:0:0:0:
284,52,68039,1,0,0:0:0:0:
232,32,68266,2,0,P|136:20|84:40,1,140
36,128,69175,2,0,P|24:224|44:276,1,140
84,296,69857,1,0,0:0:0:0:
140,300,70084,2,0,L|280:300,1,140
328,272,70766,5,0,0:0:0:0:
332,216,70994,2,0,P|308:104|268:72,2,140,0|0|0,0:0|0:0|0:0,0:0:0:0:
248,288,72357,1,0,0:0:0:0:
184,196,72812,1,0,0:0:0:0:
60,128,73266,6,0,P|128:64|196:72,1,140,0|0,0:0|0:0,0:0:0:0:
220,88,73948,1,0,0:0:0:0:
272,116,74175,2,0,L|356:168,2,70,0|0|0,0:0|0:0|0:0,0:0:0:0:
220,88,74857,1,0,0:0:0:0:
168,68,75084,2,0,P|108:112|104:192,2,140,0|0|0,0:0|0:0|0:0,0:0:0:0:
220,88,76221,5,0,0:0:0:0:
280,72,76448,2,0,P|340:116|344:196,2,140,0|0|0,0:0|0:0|0:0,0:0:0:0:
240,176,77812,2,0,L|156:240,1,105
140,256,78266,2,0,P|172:336|228:360,1,140
312,300,79175,5,0,0:0:0:0:
344,192,79630,1,0,0:0:0:0:
436,124,80084,2,0,P|392:88|288:100,1,140
256,96,80766,1,0,0:0:0:0:
216,136,80994,2,0,L|88:240,2,140,0|0|0,0:0|0:0|0:0,0:0:0:0:
248,28,82357,6,0,P|312:72|332:144,1,140
268,220,83266,2,0,P|328:240|420:200,1,140
436,176,83948,1,0,0:0:0:0:
476,136,84175,2,0,L|536:72,2,70,0|0|0,0:0|0:0|0:0,0:0:0:0:
436,176,84857,1,0,0:0:0:0:
404,132,85084,2,0,L|344:68,2,70,0|0|0,0:0|0:0|0:0,0:0:0:0:
436,176,85766,5,0,0:0:0:0:
424,232,85994,2,0,B|368:260|320:228|320:228|264:228,1,140
264,180,86675,1,0,0:0:0:0:
240,132,86903,2,0,P|228:80|280:8,2,140,0|0|0,0:0|0:0|0:0,0:0:0:0:
264,180,88039,1,0,0:0:0:0:
224,228,88266,2,0,L|160:284,2,70,0|0|0,0:0|0:0|0:0,0:0:0:0:
264,180,88948,2,0,L|324:124,1,70,0|0,0:0|0:0,0:0:0:0:
324,20,89630,6,0,P|408:60|424:124,1,140
400,152,90312,2,0,L|376:248,1,70
332,240,90766,2,0,L|244:240,1,70,0|0,0:0|0:0,0:0:0:0:
224,196,91221,1,0,0:0:0:0:
188,156,91448,2,0,P|180:84|232:16,2,140,0|0|0,0:0|0:0|0:0,0:0:0:0:
248,252,92812,5,0,0:0:0:0:
364,132,93494,1,0,0:0:0:0:
200,92,94175,1,0,0:0:0:0:
256,192,94630,12,0,96448,0:0:0:0:
364,184,96903,6,0,L|328:108,1,70
284,96,97357,2,0,P|224:80|176:100,1,105
172,116,97812,2,0,L|128:204,1,70
116,228,98266,2,0,P|152:264|244:256,2,140,0|0|0,0:0|0:0|0:0,0:0:0:0:
96,176,99403,1,0,0:0:0:0:
96,120,99630,2,0,L|96:24,1,70
152,36,100084,6,0,L|304:36,1,140
288,148,100994,2,0,L|144:148,1,140
108,188,101675,1,0,0:0:0:0:
104,244,101903,2,0,P|148:276|248:260,1,140
280,248,102584,1,0,0:0:0:0:
328,276,102812,2,0,P|372:308|472:292,1,140
412,200,103721,6,0,L|448:56,1,140
396,40,104403,2,0,P|352:12|304:8,1,70
280,4,104857,2,0,P|216:24|200:40,1,70
176,68,105312,1,0,0:0:0:0:
176,124,105539,6,0,L|176:280,1,140
204,312,106221,1,0,0:0:0:0:
252,336,106448,2,0,P|312:360|396:324,1,140
396,284,107130,2,0,L|396:200,1,70
372,164,107584,2,0,L|320:100,1,70,0|0,0:0|0:0,0:0:0:0:
280,84,108039,1,0,0:0:0:0:
228,60,108266,2,0,P|168:36|88:76,2,140,0|0|0,0:0|0:0|0:0,0:0:0:0:
280,84,109403,5,0,0:0:0:0:
276,140,109630,2,0,L|276:228,2,70,0|0|0,0:0|0:0|0:0,0:0:0:0:
280,84,110312,1,0,0:0:0:0:
328,56,110539,2,0,P|396:32|476:80,2,140,0|0|0,0:0|0:0|0:0,0:0:0:0:
392,148,111903,2,0,L|388:292,1,140
280,300,112812,6,0,B|216:236|296:196|300:192|288:68|224:128|128:100|148:188|152:232,2,350,8|0|0,0:0|0:0|0:0,0:0:0:0:
420,296,115539,2,0,P|464:248|416:296,1,280
324,364,116903,6,0,P|272:296|276:220,1,140
196,160,117812,2,0,P|264:128|340:172,1,140
376,248,118721,2,0,P|428:208|432:128,2,140,0|0|0,0:0|0:0|0:0,0:0:0:0:
264,248,120084,2,0,P|212:208|208:128,2,140,0|0|0,0:0|0:0|0:0,0:0:0:0:
316,148,121448,5,0,0:0:0:0:
372,52,121903,1,0,0:0:0:0:
472,104,122357,1,0,0:0:0:0:
476,216,122812,2,0,L|476:360,1,140
372,312,123721,2,4,L|372:160,1,140,4|0,0:0|0:0,0:0:0:0:
320,72,124630,2,0,P|272:128|284:216,1,140
208,284,125539,6,0,P|272:304|356:256,1,140
336,164,126448,1,0,0:0:0:0:
260,80,126903,1,0,0:0:0:0:
192,168,127357,1,0,0:0:0:0:
80,188,127812,2,0,P|88:116|164:72,2,140,0|0|0,0:0|0:0|0:0,0:0:0:0:
256,192,129175,12,0,130766,0:0:0:0:
256,192,130994,12,0,132812,0:0:0:0:
384,192,149175,6,0,P|368:136|232:128,2,210,0|0|0,0:0|0:0|0:0,0:0:0:0:
272,212,150994,2,0,P|288:268|424:276,2,210,0|0|0,0:0|0:0|0:0,0:0:0:0:
184,140,152812,1,0,0:0:0:0:
252,52,153266,1,0,0:0:0:0:
356,96,153721,1,0,0:0:0:0:
436,176,154175,2,0,P|388:212|312:200,1,140
256,196,154857,1,0,0:0:0:0:
208,228,155084,6,0,L|132:284,1,70
96,276,155539,2,0,B|30:267|66:207|66:207|-2:203|26:163|26:163|-2:123|-2:123,1,210
36,104,156448,6,0,P|68:88|184:112,1,140
220,120,157130,1,0,0:0:0:0:
272,100,157357,2,0,P|304:84|420:108,1,140
344,192,158266,6,0,L|344:340,1,140
288,344,158948,2,0,L|208:344,1,70
172,312,159403,2,0,L|124:232,1,70
132,196,159857,1,0,0:0:0:0:
156,144,160084,6,0,B|216:76|216:76|268:76,1,140
320,76,160766,2,0,L|400:76,1,70
440,100,161221,5,0,0:0:0:0:
464,152,161448,2,0,P|476:200|424:268,1,140
376,256,162130,1,0,0:0:0:0:
324,240,162357,2,0,L|248:200,1,70
500,60,163721,6,4,P|468:20|368:12,1,140,4|0,0:0|0:0,0:0:0:0:
352,52,164403,1,0,0:0:0:0:
320,96,164630,2,0,L|244:228,1,140
256,272,165312,2,0,L|332:308,1,70
368,272,165766,2,0,L|412:192,1,70
404,156,166221,5,0,0:0:0:0:
384,104,166448,2,0,P|324:80|248:96,2,140,0|0|0,0:0|0:0|0:0,0:0:0:0:
404,156,167584,1,0,0:0:0:0:
400,212,167812,2,0,L|400:312,2,70,0|0|0,0:0|0:0|0:0,0:0:0:0:
468,124,168721,6,0,P|408:96|340:120,1,140
304,164,169403,1,0,0:0:0:0:
260,200,169630,2,0,P|184:224|128:184,2,140,0|0|0,0:0|0:0|0:0,0:0:0:0:
304,164,170766,1,0,0:0:0:0:
344,124,170994,6,0,L|408:68,1,70
452,92,171448,2,0,L|512:128,1,70
508,184,171903,2,0,P|484:252|408:284,1,140
316,264,172812,1,0,0:0:0:0:
240,180,173266,1,0,0:0:0:0:
304,88,173721,1,0,0:0:0:0:
376,0,174175,6,0,P|408:32|400:136,1,140
388,172,174857,1,0,0:0:0:0:
336,192,175084,2,0,P|256:192|212:148,1,140
224,100,175766,1,0,0:0:0:0:
188,56,175994,2,0,P|136:72|108:160,1,140
96,200,176675,6,0,L|96:296,1,70
120,320,177130,2,0,P|160:332|208:320,1,70
244,316,177584,1,0,0:0:0:0:
300,328,177812,2,0,P|348:328|392:304,1,70
376,264,178266,6,0,L|376:28,2,210,4|0|0,0:0|0:0|0:0,0:0:0:0:
320,364,180084,2,0,P|260:300|272:232,1,140
196,164,180994,2,0,P|260:136|340:184,1,140
360,200,181675,1,0,0:0:0:0:
404,236,181903,2,0,L|464:288,2,70,0|0|0,0:0|0:0|0:0,0:0:0:0:
360,200,182584,1,0,0:0:0:0:
316,164,182812,6,0,L|260:112,1,70
208,112,183266,2,0,P|160:124|92:208,2,140,0|0|0,0:0|0:0|0:0,0:0:0:0:
264,116,184403,1,0,0:0:0:0:
304,156,184630,2,0,L|408:268,2,140,0|0|0,0:0|0:0|0:0,0:0:0:0:
264,116,185766,5,0,0:0:0:0:
220,148,185994,2,0,L|144:196,1,70
116,220,186448,2,0,L|160:312,1,70
184,324,186903,2,0,P|236:340|308:268,2,140,0|0|0,0:0|0:0|0:0,0:0:0:0:
152,216,188266,2,0,P|188:180|292:196,2,140,0|0|0,0:0|0:0|0:0,0:0:0:0:
152,272,189403,5,0,0:0:0:0:
104,300,189630,2,0,L|24:328,2,70,0|0|0,0:0|0:0|0:0,0:0:0:0:
152,272,190312,1,0,0:0:0:0:
208,260,190539,2,0,L|288:236,2,70,0|0|0,0:0|0:0|0:0,0:0:0:0:
152,272,191221,1,0,0:0:0:0:
140,216,191448,2,0,L|128:120,1,70
