osu file format v12

[General]
AudioFilename: 02. RESET.mp3
AudioLeadIn: 0
PreviewTime: -1
Countdown: 1
SampleSet: Normal
StackLeniency: 0.7
Mode: 3
LetterboxInBreaks: 1
SpecialStyle: 0

[Editor]
DistanceSpacing: 0.8
BeatDivisor: 12
GridSize: 32

[Metadata]
Title:RESET
TitleUnicode:RESET
Artist:AKB48
ArtistUnicode:AKB48
Creator:glunt
Version:Easy
Source:
Tags:AKB48 RESET TeamK
BeatmapID:240708
BeatmapSetID:88291

[Difficulty]
HPDrainRate:3
CircleSize:4
OverallDifficulty:5
ApproachRate:5
SliderMultiplier:1.4
SliderTickRate:1

[Events]
//Background and Video events
0,0,"R3.jpg",0,0
//Break Periods
2,6664,12847
2,90289,97431
2,176289,188722
2,216539,222514
//Storyboard Layer 0 (Background)
//Storyboard Layer 1 (Fail)
//Storyboard Layer 2 (Pass)
//Storyboard Layer 3 (Foreground)
//Storyboard Sound Samples
//Background Colour Transformations
3,100,163,162,255

[TimingPoints]
6,500,4,1,0,100,1,0

[HitObjects]
448,192,631,128,0,922:0:0:0:0:
64,192,631,128,0,922:0:0:0:0:
192,192,2172,128,0,2506:0:0:0:0:
320,192,2172,128,0,2506:0:0:0:0:
64,192,3964,1,0,0:0:0:0:
448,192,3964,1,0,0:0:0:0:
320,192,4839,1,0,0:0:0:0:
64,192,4839,1,0,0:0:0:0:
320,192,5631,1,0,0:0:0:0:
448,192,5631,1,0,0:0:0:0:
320,192,6047,1,0,0:0:0:0:
448,192,6047,1,0,0:0:0:0:
320,192,6464,1,0,0:0:0:0:
448,192,6464,1,0,0:0:0:0:
320,192,14047,5,0,0:0:0:0:
192,192,14047,1,0,0:0:0:0:
192,192,14964,1,0,0:0:0:0:
448,192,14964,1,0,0:0:0:0:
320,192,15755,1,0,0:0:0:0:
64,192,15755,1,0,0:0:0:0:
192,192,16589,1,0,0:0:0:0:
320,192,16589,1,0,0:0:0:0:
320,192,17464,1,0,0:0:0:0:
448,192,17464,1,0,0:0:0:0:
192,192,18256,1,0,0:0:0:0:
64,192,18256,1,0,0:0:0:0:
320,192,19089,1,0,0:0:0:0:
192,192,19089,1,0,0:0:0:0:
448,192,19506,1,0,0:0:0:0:
64,192,19506,1,0,0:0:0:0:
320,192,19964,1,0,0:0:0:0:
192,192,19964,1,0,0:0:0:0:
320,192,20881,128,0,21297:0:0:0:0:
320,192,21964,1,0,0:0:0:0:
192,192,21964,1,0,0:0:0:0:
320,192,22172,1,0,0:0:0:0:
192,192,22172,1,0,0:0:0:0:
192,192,22422,128,0,22839:0:0:0:0:
320,192,22422,128,0,22839:0:0:0:0:
64,192,24172,128,0,24506:0:0:0:0:
320,192,24172,128,0,24506:0:0:0:0:
448,192,25006,1,0,0:0:0:0:
192,192,25006,1,0,0:0:0:0:
192,192,25881,128,0,26214:0:0:0:0:
320,192,25881,128,0,26214:0:0:0:0:
320,192,27506,128,0,27797:0:0:0:0:
192,192,27506,128,0,27797:0:0:0:0:
64,192,28297,1,0,0:0:0:0:
448,192,28297,1,0,0:0:0:0:
320,192,28506,1,0,0:0:0:0:
192,192,28506,1,0,0:0:0:0:
64,192,29214,128,0,29589:0:0:0:0:
448,192,29214,128,0,29589:0:0:0:0:
320,192,30089,1,0,0:0:0:0:
192,192,30089,1,0,0:0:0:0:
320,192,30964,1,0,0:0:0:0:
448,192,31172,1,0,0:0:0:0:
320,192,32631,1,0,0:0:0:0:
448,192,33006,1,0,0:0:0:0:
320,192,33464,1,0,0:0:0:0:
192,192,33964,1,0,0:0:0:0:
64,192,34464,128,0,35839:0:0:0:0:
448,192,35839,1,0,0:0:0:0:
64,192,37797,128,0,39589:0:0:0:0:
448,192,37797,128,0,39589:0:0:0:0:
64,192,41131,1,0,0:0:0:0:
448,192,41797,1,0,0:0:0:0:
448,192,41964,1,0,0:0:0:0:
64,192,42839,1,0,0:0:0:0:
448,192,43589,1,0,0:0:0:0:
448,192,44506,1,0,0:0:0:0:
64,192,44506,1,0,0:0:0:0:
448,192,46256,128,0,47047:0:0:0:0:
192,192,46256,128,0,47047:0:0:0:0:
64,192,47922,1,0,0:0:0:0:
192,192,49297,128,0,50006:0:0:0:0:
448,192,50339,1,0,0:0:0:0:
448,192,50756,1,0,0:0:0:0:
192,192,51214,128,0,52047:0:0:0:0:
320,192,52631,128,0,53297:0:0:0:0:
448,192,53756,1,0,0:0:0:0:
192,192,54714,128,0,57047:0:0:0:0:
64,192,56047,1,0,0:0:0:0:
64,192,56631,1,0,0:0:0:0:
448,192,57422,1,0,0:0:0:0:
448,192,58047,1,0,0:0:0:0:
320,192,58256,1,0,0:0:0:0:
64,192,58631,1,0,0:0:0:0:
192,192,58839,1,0,0:0:0:0:
448,192,59256,1,0,0:0:0:0:
64,192,59256,1,0,0:0:0:0:
448,192,59464,1,0,0:0:0:0:
64,192,59464,1,0,0:0:0:0:
448,192,61047,1,0,0:0:0:0:
192,192,61381,128,0,62547:0:0:0:0:
448,192,62881,1,0,0:0:0:0:
448,192,63172,1,0,0:0:0:0:
448,192,63339,1,0,0:0:0:0:
448,192,63506,1,0,0:0:0:0:
448,192,64797,128,0,65547:0:0:0:0:
192,192,66297,128,0,66964:0:0:0:0:
448,192,67547,1,0,0:0:0:0:
192,192,68131,128,0,68797:0:0:0:0:
320,192,69256,1,0,0:0:0:0:
192,192,69464,1,0,0:0:0:0:
64,192,69672,128,0,70339:0:0:0:0:
448,192,71297,1,0,0:0:0:0:
192,192,71297,128,0,72089:0:0:0:0:
448,192,72464,1,0,0:0:0:0:
320,192,72797,128,0,73214:0:0:0:0:
448,192,74089,1,0,0:0:0:0:
64,192,74089,1,0,0:0:0:0:
192,192,74922,1,0,0:0:0:0:
320,192,74922,1,0,0:0:0:0:
320,192,75547,1,0,0:0:0:0:
448,192,75714,1,0,0:0:0:0:
192,192,76672,1,0,0:0:0:0:
320,192,76672,1,0,0:0:0:0:
448,192,78339,1,0,0:0:0:0:
192,192,78339,128,0,78922:0:0:0:0:
320,192,80047,1,0,0:0:0:0:
64,192,80047,1,0,0:0:0:0:
448,192,81631,1,0,0:0:0:0:
192,192,81631,1,0,0:0:0:0:
448,192,82464,1,0,0:0:0:0:
64,192,82464,1,0,0:0:0:0:
448,192,82797,1,0,0:0:0:0:
64,192,82797,1,0,0:0:0:0:
64,192,83131,1,0,0:0:0:0:
448,192,83131,1,0,0:0:0:0:
448,192,83422,1,0,0:0:0:0:
64,192,83422,1,0,0:0:0:0:
192,192,84297,1,0,0:0:0:0:
320,192,84297,1,0,0:0:0:0:
64,192,85047,128,0,85672:0:0:0:0:
448,192,85047,128,0,85672:0:0:0:0:
448,192,86339,1,0,0:0:0:0:
64,192,86339,1,0,0:0:0:0:
192,192,86756,128,0,88131:0:0:0:0:
448,192,88506,128,0,90089:0:0:0:0:
192,192,98631,132,0,99381:0:0:0:0:
320,192,98631,128,0,99381:0:0:0:0:
448,192,100256,128,0,101172:0:0:0:0:
64,192,100256,128,0,101172:0:0:0:0:
320,192,101922,128,0,102714:0:0:0:0:
192,192,101922,128,0,102714:0:0:0:0:
64,192,103714,1,0,0:0:0:0:
448,192,105297,5,0,0:0:0:0:
64,192,105297,1,0,0:0:0:0:
192,192,106464,1,0,0:0:0:0:
64,192,106714,1,0,0:0:0:0:
320,192,106922,1,0,0:0:0:0:
192,192,108756,128,0,109714:0:0:0:0:
320,192,108756,1,0,0:0:0:0:
448,192,110381,1,0,0:0:0:0:
448,192,112131,1,0,0:0:0:0:
64,192,112506,1,0,0:0:0:0:
448,192,112881,1,0,0:0:0:0:
64,192,113381,1,0,0:0:0:0:
448,192,113797,1,0,0:0:0:0:
64,192,114256,1,0,0:0:0:0:
448,192,114672,1,0,0:0:0:0:
64,192,115422,128,0,115756:0:0:0:0:
320,192,116006,128,0,116881:0:0:0:0:
448,192,117214,1,0,0:0:0:0:
448,192,118006,1,0,0:0:0:0:
320,192,118297,1,0,0:0:0:0:
64,192,118631,1,0,0:0:0:0:
192,192,118881,128,0,120464:0:0:0:0:
448,192,120464,1,0,0:0:0:0:
320,192,122172,128,0,123589:0:0:0:0:
448,192,123922,1,0,0:0:0:0:
320,192,125631,128,0,125964:0:0:0:0:
192,192,126339,1,0,0:0:0:0:
192,192,126506,1,0,0:0:0:0:
320,192,127297,128,0,127839:0:0:0:0:
192,192,128172,1,0,0:0:0:0:
64,192,129005,128,0,129964:0:0:0:0:
320,192,129005,128,0,129964:0:0:0:0:
448,192,130714,1,0,0:0:0:0:
64,192,130714,128,0,131714:0:0:0:0:
448,192,132381,1,0,0:0:0:0:
64,192,132381,1,0,0:0:0:0:
192,192,133214,1,0,0:0:0:0:
448,192,133214,128,0,133464:0:0:0:0:
448,192,134089,1,0,0:0:0:0:
320,192,134089,1,0,0:0:0:0:
448,192,134964,1,0,0:0:0:0:
192,192,134964,128,0,135339:0:0:0:0:
448,192,135839,1,0,0:0:0:0:
320,192,135839,1,0,0:0:0:0:
448,192,137172,1,0,0:0:0:0:
192,192,137172,1,0,0:0:0:0:
320,192,137631,1,0,0:0:0:0:
448,192,137881,1,0,0:0:0:0:
448,192,138297,128,0,138506:0:0:0:0:
64,192,138297,128,0,138506:0:0:0:0:
64,192,139089,1,0,0:0:0:0:
320,192,140006,1,0,0:0:0:0:
448,192,140547,128,0,140964:0:0:0:0:
192,192,141214,1,0,0:0:0:0:
320,192,141756,1,0,0:0:0:0:
192,192,142006,1,0,0:0:0:0:
448,192,142464,1,0,0:0:0:0:
448,192,142672,1,0,0:0:0:0:
448,192,143131,1,0,0:0:0:0:
448,192,143339,1,0,0:0:0:0:
448,192,143839,1,0,0:0:0:0:
448,192,144047,1,0,0:0:0:0:
448,192,145672,1,0,0:0:0:0:
320,192,145672,128,0,147214:0:0:0:0:
448,192,147339,1,0,0:0:0:0:
448,192,147631,1,0,0:0:0:0:
448,192,147797,1,0,0:0:0:0:
448,192,148006,1,0,0:0:0:0:
448,192,149339,1,0,0:0:0:0:
64,192,149339,1,0,0:0:0:0:
320,192,149714,1,0,0:0:0:0:
448,192,149714,128,0,150089:0:0:0:0:
448,192,150964,1,0,0:0:0:0:
320,192,150964,1,0,0:0:0:0:
64,192,151589,1,0,0:0:0:0:
192,192,151589,1,0,0:0:0:0:
64,192,152006,1,0,0:0:0:0:
448,192,152006,128,0,152547:0:0:0:0:
448,192,154089,1,0,0:0:0:0:
320,192,154089,1,0,0:0:0:0:
320,192,154381,1,0,0:0:0:0:
192,192,154381,1,0,0:0:0:0:
448,192,155839,1,0,0:0:0:0:
64,192,155839,1,0,0:0:0:0:
320,192,156964,1,0,0:0:0:0:
448,192,157547,1,0,0:0:0:0:
192,192,157547,1,0,0:0:0:0:
448,192,159589,128,0,160172:0:0:0:0:
64,192,160297,1,0,0:0:0:0:
448,192,161047,1,0,0:0:0:0:
64,192,161506,1,0,0:0:0:0:
320,192,162839,1,0,0:0:0:0:
192,192,162839,1,0,0:0:0:0:
320,192,163256,1,0,0:0:0:0:
448,192,163256,1,0,0:0:0:0:
320,192,163714,1,0,0:0:0:0:
192,192,163714,1,0,0:0:0:0:
448,192,164547,1,0,0:0:0:0:
192,192,164547,1,0,0:0:0:0:
320,192,165172,1,0,0:0:0:0:
448,192,165172,1,0,0:0:0:0:
192,192,165589,1,0,0:0:0:0:
64,192,165589,1,0,0:0:0:0:
448,192,166006,1,0,0:0:0:0:
448,192,166214,1,0,0:0:0:0:
320,192,166297,128,0,166714:0:0:0:0:
320,192,167089,1,0,0:0:0:0:
320,192,167381,1,0,0:0:0:0:
320,192,167672,1,0,0:0:0:0:
320,192,167881,1,0,0:0:0:0:
192,192,167881,1,0,0:0:0:0:
64,192,168797,1,0,0:0:0:0:
320,192,168797,1,0,0:0:0:0:
320,192,169631,1,0,0:0:0:0:
448,192,169631,1,0,0:0:0:0:
448,192,171297,1,0,0:0:0:0:
192,192,171297,1,0,0:0:0:0:
320,192,171964,1,0,0:0:0:0:
64,192,171964,128,0,172422:0:0:0:0:
448,192,172922,1,0,0:0:0:0:
320,192,172922,128,0,174214:0:0:0:0:
448,192,174672,1,0,0:0:0:0:
192,192,174672,1,0,0:0:0:0:
320,192,175131,1,0,0:0:0:0:
64,192,175131,1,0,0:0:0:0:
192,192,175589,1,0,0:0:0:0:
320,192,175589,1,0,0:0:0:0:
448,192,175881,1,0,0:0:0:0:
64,192,176089,1,0,0:0:0:0:
448,192,189922,5,0,0:0:0:0:
64,192,189922,1,0,0:0:0:0:
448,192,191547,1,0,0:0:0:0:
320,192,191547,128,0,191922:0:0:0:0:
192,192,192589,1,0,0:0:0:0:
320,192,193256,1,0,0:0:0:0:
448,192,193839,1,0,0:0:0:0:
320,192,194464,1,0,0:0:0:0:
448,192,194714,1,0,0:0:0:0:
64,192,196381,1,0,0:0:0:0:
448,192,196381,128,0,196922:0:0:0:0:
192,192,197464,1,0,0:0:0:0:
320,192,197839,128,0,198339:0:0:0:0:
448,192,199964,1,0,0:0:0:0:
320,192,199964,128,0,200464:0:0:0:0:
192,192,200756,1,0,0:0:0:0:
192,192,200964,1,0,0:0:0:0:
320,192,202464,1,0,0:0:0:0:
192,192,202839,1,0,0:0:0:0:
320,192,203131,1,0,0:0:0:0:
448,192,203381,128,0,203797:0:0:0:0:
192,192,204047,1,0,0:0:0:0:
192,192,204297,1,0,0:0:0:0:
320,192,205089,1,0,0:0:0:0:
192,192,205089,1,0,0:0:0:0:
64,192,206297,1,0,0:0:0:0:
448,192,206756,128,0,206964:0:0:0:0:
448,192,207547,1,0,0:0:0:0:
64,192,207881,1,0,0:0:0:0:
192,192,208256,1,0,0:0:0:0:
448,192,208464,128,0,209089:0:0:0:0:
192,192,210256,1,0,0:0:0:0:
64,192,210256,1,0,0:0:0:0:
320,192,213047,1,0,0:0:0:0:
192,192,213047,128,0,213214:0:0:0:0:
320,192,213547,1,0,0:0:0:0:
320,192,216339,1,0,0:0:0:0:
64,192,216339,1,0,0:0:0:0:
192,192,216339,1,0,0:0:0:0:
448,192,223714,5,0,0:0:0:0:
192,192,223714,1,0,0:0:0:0:
320,192,224464,1,0,0:0:0:0:
64,192,224464,1,0,0:0:0:0:
448,192,225297,1,0,0:0:0:0:
192,192,225297,1,0,0:0:0:0:
320,192,226214,1,0,0:0:0:0:
448,192,226214,1,0,0:0:0:0:
448,192,227006,1,0,0:0:0:0:
192,192,227006,1,0,0:0:0:0:
320,192,228672,128,0,230131:0:0:0:0:
192,192,228672,128,0,230131:0:0:0:0:
320,192,230464,1,0,0:0:0:0:
448,192,230464,1,0,0:0:0:0:
320,192,230756,1,0,0:0:0:0:
192,192,230756,1,0,0:0:0:0:
320,192,231089,1,0,0:0:0:0:
64,192,231089,1,0,0:0:0:0:
