osu file format v9

[General]
AudioFilename: AKB48 - Namida Surprise!.mp3
AudioLeadIn: 1489
PreviewTime: 65539
Countdown: 0
SampleSet: Normal
StackLeniency: 0.7
Mode: 0
LetterboxInBreaks: 1

[Editor]
DistanceSpacing: 0.8
BeatDivisor: 2
GridSize: 4

[Metadata]
Title:Namida Surprise!
Artist:AKB48
Creator:Breeze
Version:Normal
Source:
Tags:Itano Tomomi Kitahara Rie Gojima haruna Shinoda Mariko Takahashi Minami Fujie Reina Maeda Atsuko Minegishi Minami Miyazaki Miho Ooshima Yuuko Ono Erena Kasai tomomi Miyazawa Sae Kashiwagi Yuki Sashihara Rino Nitou Moemo Watanabe Mayu Komori Mika Matsui Jiyurina Matsui Rena liudeye

[Difficulty]
HPDrainRate:3
CircleSize:3
OverallDifficulty:3
ApproachRate:4
SliderMultiplier:1.2
SliderTickRate:2

[Events]
//Background and Video events
0,0,"BG.jpg"
//Break Periods
2,6212,11708
2,100728,105547
2,183366,199386
//Storyboard Layer 0 (Background)
//Storyboard Layer 1 (Fail)
//Storyboard Layer 2 (Pass)
//Storyboard Layer 3 (Foreground)
//Storyboard Sound Samples
//Background Colour Transformations
3,100,163,162,255

[TimingPoints]
750,438.500328875247,4,1,0,100,1,0
969,-200,4,2,0,10,0,0
1188,-200,4,1,0,10,0,0
1407,-200,4,1,0,15,0,0
1627,-200,4,1,0,20,0,0
1846,-200,4,1,0,30,0,0
2065,-200,4,1,0,40,0,0
2284,-200,4,1,0,50,0,0
2504,-100,4,1,0,80,0,0
5025,-100,4,1,0,100,0,0
6012,-100,4,1,0,100,0,1
6121,-100,4,1,0,80,0,0
18180,-100,4,2,0,100,0,0
19934,-100,4,1,0,70,0,0
26073,-100,4,2,0,80,0,0
26731,-100,4,1,0,70,0,0
32322,-100,4,2,0,70,0,0
33966,-100,4,2,0,90,0,0
34185,-100,4,1,0,70,0,0
40105,-100,4,2,0,100,0,0
40763,-100,4,1,0,70,0,0
41530,-100,4,1,0,40,0,0
41969,-100,4,1,0,70,0,0
50739,-100,4,1,0,50,0,0
51177,-100,4,1,0,60,0,0
51616,-100,4,1,0,70,0,0
51835,-100,4,2,0,5,0,0
52493,-100,4,1,0,70,0,0
63674,-100,4,1,0,80,0,0
65648,-100,4,1,0,100,0,1
65757,-100,4,1,0,80,0,0
71787,-100,4,1,0,100,0,0
72444,-100,4,1,0,70,0,0
72992,-100,4,1,0,80,0,0
76062,-100,4,1,0,100,0,0
78364,-100,4,1,0,80,0,0
78693,-100,4,1,0,100,0,0
78912,-100,4,1,0,80,0,0
85819,-100,4,1,0,100,0,0
86476,-100,4,1,0,80,0,0
90094,-100,4,1,0,100,0,0
94917,-100,4,1,0,100,0,0
95137,-100,4,1,0,100,0,0
96671,-100,4,1,0,100,0,0
96891,-100,4,1,0,80,0,0
100508,-100,4,1,0,50,0,0
106867,-100,4,1,0,70,0,0
120789,-100,4,2,0,100,0,0
121447,-100,4,1,0,70,0,0
128792,-100,4,1,0,80,0,0
131423,-100,4,1,0,60,0,0
131861,-100,4,1,0,75,0,0
132519,-100,4,2,0,80,0,0
132738,-100,4,1,0,80,0,0
144358,-100,4,1,0,50,0,0
145564,-100,4,1,0,55,0,0
145783,-100,4,1,0,60,0,0
146003,-100,4,1,0,65,0,0
146332,-100,4,1,0,100,0,1
146441,-100,4,1,0,80,0,0
152471,-100,4,1,0,100,0,0
153128,-100,4,1,0,80,0,0
156746,-100,4,1,0,100,0,0
156965,-100,4,1,0,80,0,0
157404,-100,4,1,0,100,0,0
157623,-100,4,1,0,80,0,0
158281,-100,4,1,0,100,0,0
158500,-100,4,1,0,80,0,0
166503,-100,4,1,0,100,0,0
167160,-100,4,1,0,80,0,0
171765,-100,4,1,0,60,0,0
172203,-100,4,1,0,80,0,0
175930,-100,4,1,0,100,0,0
176369,-100,4,1,0,80,0,0
200706,-100,4,1,0,80,0,1
200815,-100,4,1,0,80,0,0
206625,-100,4,1,0,100,0,0
207722,-100,4,1,0,80,0,0
211120,-100,4,1,0,100,0,0
211559,-100,4,1,0,80,0,0
211778,-100,4,1,0,100,0,0
212216,-100,4,1,0,80,0,0
212655,-100,4,1,0,100,0,0
213751,-100,4,1,0,60,0,0
213970,-100,4,1,0,70,0,0
214190,-100,4,1,0,80,0,0
220877,-100,4,1,0,100,0,0
221315,-100,4,1,0,80,0,0
225810,-100,4,1,0,100,0,0
226029,-100,4,1,0,80,0,0
226687,-100,4,1,0,100,0,0
227783,-100,4,1,0,80,0,0
228002,-100,4,1,0,100,0,0
228879,-100,4,1,0,80,0,0
232058,-100,4,1,0,100,0,0
233593,-100,4,1,0,80,0,0
239294,-100,4,1,0,100,0,0
241048,-100,4,1,0,80,0,0
248941,-100,4,1,0,100,0,0
249598,-100,4,1,0,80,0,0
253326,-100,4,1,0,80,0,0
256614,-100,4,1,0,80,0,0
262973,-100,4,1,0,100,0,0
263630,-100,4,1,0,80,0,0
266371,-100,4,1,0,50,0,0
266590,-100,4,1,0,80,0,0
270646,-100,4,1,0,100,0,0
271304,-100,4,1,0,80,0,0
271743,-100,4,1,0,100,0,0
274374,-100,4,1,0,80,0,0

[Colours]
Combo1 : 128,128,255
Combo2 : 128,255,255
Combo3 : 0,0,160
Combo4 : 210,128,255

[HitObjects]
344,104,969,2,0,B|320:64|256:28|192:64|168:104,1,210,0|0
112,184,2942,5,0
168,256,3381,1,0
256,296,3819,1,0
344,256,4258,1,0
400,184,4696,1,0
312,136,5135,6,0,B|256:96|200:136,2,120,2|2|4
256,180,13028,5,6
320,108,13466,1,8
384,36,13905,2,0,B|472:36|472:148,1,120,0|8
392,164,14782,2,0,B|360:212|392:260|432:260|472:260|504:308|472:356,1,240
376,352,16097,1,8
288,312,16536,5,2
200,344,16974,1,8
104,344,17413,2,0,B|32:344,2,60,0|0|8
152,264,18290,5,4
152,168,18728,1,4
152,72,19167,1,4
336,120,20044,5,0
400,48,20482,2,0,B|456:64|464:192|384:224|336:216,1,240,8|8
328,312,21798,2,0,B|264:328|208:256|240:192,1,180
256,152,22675,2,0,B|256:88|184:32,1,120,0|8
104,48,23552,5,0
152,136,23990,1,8
96,216,24429,2,0,B|8:216,2,60,0|0|8
160,288,25306,2,0,B|200:344|272:344|320:288,1,180
352,264,26183,2,0,B|408:208,2,60,4|4|4
280,200,27060,5,0
184,200,27498,1,8
120,128,27937,2,0,B|32:128,2,60,0|0|8
184,56,28814,2,0,B|288:32|360:136,1,180
392,104,29691,2,0,B|432:144|400:240,1,120,0|8
336,288,30568,6,0,B|384:360,2,60,0|0|8
264,224,31445,2,0,B|288:136,2,60,0|0|8
256,192,32322,12,4,34076
256,192,34514,5,8
352,192,34953,2,0,B|448:192,2,60,0|0|8
304,272,35830,2,0,B|256:360|144:320,1,180
104,344,36707,2,0,B|40:288|64:200,1,120,0|8
72,144,37584,5,0
120,64,38022,1,8
216,48,38461,2,0,B|304:48,2,60,0|0|8
176,136,39338,2,0,B|192:248|312:240,1,180
344,240,40215,2,0,B|448:240,2,60,4|4|4
304,152,41092,6,0,B|270:100|324:21|395:30,2,180,0|0|8
400,136,42846,2,0,B|488:216|488:216|448:224|456:272,1,180
488,296,43723,2,0,B|376:344,1,120,0|8
288,312,44600,6,0,B|216:352,2,60,0|0|8
288,216,45477,2,0,B|192:208,2,60,0|0|8
256,192,46354,12,4,48108
256,192,48546,5,8
176,136,48985,2,0,B|216:80|288:96,1,120,0|8
360,48,49862,2,0,B|448:80|448:224|320:240,1,240,0|2
264,272,51177,1,2
176,312,51616,6,2,B|104:288|56:192|88:112,1,240,2|0
144,40,52931,1,8
240,64,53370,2,0,B|376:96,1,120,0|8
392,56,54027,2,0,B|488:112|448:240,1,180,0|8
424,304,55124,1,4
328,304,55562,5,8
328,304,56001,2,0,B|176:304,1,120,0|8
128,248,56878,1,0
128,248,57316,2,0,B|24:152,2,120,8|0|8
224,248,58632,6,0,B|280:200|360:240,1,120,0|8
296,144,59509,2,0,B|344:136|400:160|432:224,1,120,0|8
408,88,60386,2,0,B|456:104|504:160|496:208,1,120,0|8
464,264,61263,2,0,B|448:336|320:376|264:304,1,240
168,144,63017,1,0
328,40,63894,5,2
352,136,64332,1,2
376,232,64771,1,2
400,328,65209,1,2
312,296,65648,6,0,B|272:368|160:360|96:280|144:176,1,300,4|0
280,184,67402,2,0,B|320:120|416:136|424:224,1,180,2|0
312,296,68717,6,0,B|224:304|136:248|168:112|232:80,1,300,2|0
296,48,70252,1,0
392,72,70690,2,0,B|464:88|464:184,1,120,2|0
464,208,71348,2,0,B|448:280|376:312,1,120,0|4
304,320,72225,1,4
208,320,72664,6,0,B|112:208,1,120,2|0
80,232,73321,2,0,B|40:104|184:80,1,180
232,48,74418,2,0,B|328:128,1,120,2|0
368,104,75075,2,0,B|440:200|344:272,1,180
272,320,76172,5,0
272,176,76829,1,0
96,248,77706,2,0,B|216:248,2,120
56,280,78803,2,0,B|8:232|40:160,1,120
112,104,79680,6,0,B|216:40|216:40|216:160|320:176,1,300,4|0
408,72,81434,2,0,B|488:136|440:248,1,180,2|0
328,320,82749,1,0
220,328,83188,6,0,B|136:288|136:104|320:104|352:336|152:312|112:192,1,420,2|0
68,124,85161,1,0
68,124,85380,2,0,B|100:52|204:52,1,120,0|4
256,64,86257,1,4
352,64,86696,6,0,B|416:56|448:104|416:160|352:152|352:152|416:152|448:200|416:248|352:240,1,360,2|0
264,272,88450,2,0,B|272:336|224:368|168:336|176:272|176:272|176:336|128:368|80:336|88:272,1,360,2|0
88,176,90204,5,0
168,56,90861,1,0
280,216,91738,2,0,B|176:144,2,120
288,264,92835,2,0,B|360:272|408:184,1,120
464,152,93712,6,0,B|404:68|371:125|371:125|386:104|320:44|287:101|287:101|301:80|235:19|194:74,1,360,4|0
104,56,95466,2,0,B|30:127|92:151|92:151|69:140|20:214|81:238|81:238|58:227|9:302|69:333,1,360,4|0
152,336,97220,5,4
344,336,98097,1,4
368,96,99193,2,0,B|368:168|264:168|256:96|256:96|248:16|136:17|136:97,1,360
416,112,106867,6,0,B|352:104,1,60
312,96,107305,2,0,B|160:72,1,120
96,96,108182,1,8
72,192,108621,2,0,B|48:264,2,60,0|0|8
168,168,109498,6,0,B|216:152|304:200|312:272,1,180
280,296,110375,2,0,B|320:352|424:328,1,120,0|8
400,240,111252,2,0,B|480:208,2,60,0|0|8
360,152,112129,2,0,B|384:88,2,60,0|0|8
304,232,113006,6,0,B|144:256,1,120,0|8
120,176,113883,2,0,B|248:156,1,120,0|8
280,72,114760,6,0,B|368:40|464:152|432:328|336:336,1,360,4|8
272,344,116514,2,0,B|176:352,2,60,0|0|8
312,256,117391,2,0,B|352:192|288:136,1,120,0|8
224,208,118268,6,0,B|224:288|144:312,1,120,0|8
128,216,119145,2,0,B|64:168,2,60,0|0|8
192,144,120022,2,0,B|216:40|328:24,1,180
360,40,120899,2,0,B|360:168,1,120,4|4
408,240,121776,5,0
328,296,122214,2,0,B|256:296,1,60,8|0
216,296,122653,2,0,B|136:296,2,60,0|0|8
168,208,123530,2,0,B|136:144|192:96,1,120,0|8
264,40,124407,2,0,B|333:17|373:64,1,120,0|8
304,132,125284,6,0,B|272:176|328:248|352:208|336:160|264:224|288:280,1,180
256,312,126161,2,0,B|168:312,3,60,0|0|8|0
256,192,127038,12,0,128353
344,32,128792,6,0,B|416:24|496:96|488:184|432:248,1,300,4|0
384,252,130107,2,0,B|308:256,1,60,8|0
284,228,130546,2,0,B|240:176|284:88,2,120,0|8|2
252,264,131642,2,0,B|252:348,2,60,2|2|2
204,252,132300,2,2,B|104:152,1,120,2|8
112,120,132957,1,0
160,104,133177,2,0,B|232:80,3,60,0|0|8|0
248,96,134054,6,0,B|360:24,1,120,0|8
400,24,134711,1,0
440,56,134931,2,0,B|472:96|440:152|440:152|416:140|440:128|440:128|472:176|436:224,1,240
392,240,136027,6,0,B|296:200|224:264,1,180
128,256,137123,2,0,B|48:160,3,120,8|0|8|0
248,64,139316,6,0,B|312:32|376:72,1,120,0|8
304,136,140193,2,0,B|240:168|176:128,1,120,0|8
128,208,141070,2,0,B|160:272|120:336,2,120,0|8|0
72,72,142604,6,0,B|16:24,2,60
168,96,143481,2,0,B|248:88,2,60
312,80,144578,5,2
376,152,145017,1,2
432,72,145455,1,2
376,152,145894,1,2
473,154,146332,6,0,B|468:248|388:260,1,120,4|0
368,244,146989,2,0,B|304:224|268:288,1,120,0|0
128,248,148086,2,0,B|144:184|96:120,2,120,2|0|0
40,208,149401,6,0,B|280:152,1,240
304,120,150497,2,0,B|344:56,2,60,0|0|0
336,208,151374,2,0,B|368:296|488:312,1,180,2|0
480,216,152471,1,4
480,120,152909,1,4
392,64,153348,6,0,B|304:48|320:24|320:24|328:56|248:48,1,180,2|0
144,88,154663,2,0,B|88:120,1,60
104,168,155102,2,0,B|192:208|192:320,1,180,2|0
336,288,156417,2,0,B|320:208,1,60
312,184,156856,6,0,B|256:80|152:136,1,180,0|0
136,168,157733,2,0,B|224:112|208:0,1,180,0|0
256,8,158610,2,0,B|336:40|320:72|320:72|312:40|392:80,1,180
424,104,159487,1,0
336,272,160364,6,0,B|280:312|208:304|176:240,1,180,4|0
264,192,161460,1,0
352,76,162118,2,0,B|288:36|216:84,2,120,2|0|0
400,160,163433,1,0
384,256,163872,6,0,B|448:304|520:240,2,120,0|0|0
344,232,164968,1,0
400,160,165406,2,0,B|368:80,3,60
280,88,166503,1,4
184,88,166941,1,4
232,168,167380,6,0,B|232:360,1,180,2|0
136,344,168476,2,0,B|136:216,1,120
88,208,169134,2,0,B|88:104|208:88,1,180,2|0
332,40,170449,6,0,B|300:96,1,60
280,136,170888,2,0,B|280:220|180:280,1,180,0|0
168,232,171765,2,0,B|280:224|344:304,1,180,0|0
376,280,172642,2,0,B|472:200,2,120
184,288,174396,5,4
472,40,176150,1,4
104,144,177904,2,0,B|160:88,1,60
184,136,178342,2,0,B|263:129,1,60
248,80,178781,2,2,B|360:168,1,120,2|0
328,200,179438,2,0,B|416:88,1,120,2|0
256,192,180096,12,0,183166
440,72,200706,6,0,B|440:180|368:228,1,180,4|0
328,200,201583,2,0,B|272:160|200:200,1,120
152,264,202460,2,0,B|72:208|96:96,1,180,2|0
228,52,203775,1,0
296,120,204214,6,0,B|176:96,1,120,2|0
160,144,204871,2,0,B|136:208|56:224,1,120,2|0
64,264,205529,2,0,B|104:328|176:320,1,120
208,304,206187,2,0,B|256:248,1,60
344,248,206845,1,4
280,176,207283,1,4
344,104,207722,6,0,B|298:66|218:74|186:130,1,180,2|0
64,56,209037,2,0,B|128:40,1,60
168,32,209476,2,0,B|264:48|320:136,1,180,2|0
408,128,210572,2,0,B|408:200|336:224,1,120
304,248,211230,5,0
224,192,211668,1,0
144,136,212107,1,0
80,208,212545,1,0
64,304,212984,6,0,B|128:256|128:136|56:88,1,240,0|4
256,72,214738,6,0,B|184:24|80:64,1,180,4|0
80,112,215615,2,0,B|16:216,1,120
96,272,216492,2,0,B|160:360|272:312,1,180,2|0
244,176,217807,1,0
280,88,218246,6,0,B|302:205,1,120,2|0
352,200,218903,2,0,B|376:304|496:304,1,180,2|0
488,256,219780,2,0,B|504:64,1,180,2|0
416,24,220877,1,4
320,32,221315,1,4
296,128,221754,6,0,B|368:136|408:72,1,120,2|0
416,24,222411,1,2
448,168,223069,2,0,B|472:288,2,120,0|2|0
440,120,224165,1,2
360,240,224823,2,0,B|296:228|252:160|288:136|288:136|312:176|248:216|168:188,1,300
140,208,226139,2,0,B|94:117|150:37,1,180
192,32,227016,2,0,B|328:56,2,120
384,64,228770,5,4
104,328,230524,1,4
464,208,232278,6,0,B|480:128|400:56|280:80|272:168,1,300
304,256,233812,2,0,B|232:272|200:216,1,120
164,184,234470,2,0,B|124:156|44:156|8:212|12:292|28:332|108:352|140:324|152:272|104:236,1,360
104,92,236443,6,0,B|48:60,2,60
392,200,238197,2,0,B|424:144,2,60
288,296,239294,2,0,B|240:336,1,60
200,304,239732,2,0,B|136:280,1,60
128,240,240171,2,0,B|224:144,1,120
184,112,240828,2,0,B|280:208,1,120
256,192,241486,12,4,242802
256,192,243240,6,0,B|192:192,1,60,2|0
128,128,243898,2,0,B|64:128|64:264|128:264,1,180,2|0
216,296,244994,1,0
216,296,245213,2,0,B|400:296,1,180,2|0
464,232,246310,6,0,B|464:112|344:112,1,180,2|0
368,208,247406,1,0
272,208,247844,2,0,B|80:208,1,180,2|0
40,128,248941,5,4
88,48,249379,1,4
184,48,249818,6,0,B|256:48,2,60,2|0|0
216,136,250695,2,0,B|144:136,2,60,2|0|0
312,136,251572,2,0,B|400:136|400:136|464:152|464:256|408:272|408:272|312:272,1,360,2|0
248,200,253326,6,0,B|200:240|216:328,1,120,2|0
120,328,254203,2,0,B|104:256|136:200,1,120,2|0
48,152,255080,2,0,B|99:76|146:119|146:119|134:107|198:44|253:85|253:85|240:72|304:9|344:55,1,360,2|0
432,48,256834,6,0,B|488:112|440:208,1,120,4|0
440,208,257491,1,0
496,288,257930,2,0,B|400:336|336:240,1,180,2|0
288,168,259026,1,0
288,168,259245,2,0,B|264:96|184:64|128:112,1,180,2|0
192,184,260342,6,0,B|240:280|344:248,1,180,2|0
368,152,261438,2,0,B|432:192|424:272,2,120,0|2|0
336,120,262534,1,0
248,80,262973,5,4
160,40,263411,1,4
112,128,263850,6,0,B|72:168|72:168|80:256,1,120,2|0
176,216,264727,2,0,B|184:272|184:272|232:312,1,120,2|0
296,240,265604,2,0,B|344:272|344:272|408:208|464:288,2,180,0|2|0
256,152,267358,6,0,B|440:104,1,180,0|0
240,72,268892,2,0,B|368:40,2,120
200,48,269989,2,0,B|120:80|136:168,1,120
216,192,270866,6,2,B|192:248|98:256|56:208,2,180,2|2|2
256,192,272400,12,0,276566
