osu file format v9

[General]
AudioFilename: AKB48 - Namida Surprise!.mp3
AudioLeadIn: 1489
PreviewTime: 65539
Countdown: 0
SampleSet: Normal
StackLeniency: 0.7
Mode: 0
LetterboxInBreaks: 1

[Editor]
DistanceSpacing: 0.6
BeatDivisor: 4
GridSize: 4

[Metadata]
Title:Namida Surprise!
Artist:AKB48
Creator:Breeze
Version:Hard
Source:
Tags:Itano Tomomi Kitahara Rie Gojima haruna Shinoda Mariko Takahashi Minami Fujie Reina Maeda Atsuko Minegishi Minami Miyazaki Miho Ooshima Yuuko Ono Erena Kasai tomomi Miyazawa Sae Kashiwagi Yuki Sashihara Rino Nitou Moemo Watanabe Mayu Komori Mika Matsui Jiyurina Matsui Rena liudeye

[Difficulty]
HPDrainRate:5
CircleSize:4
OverallDifficulty:5
ApproachRate:8
SliderMultiplier:1.8
SliderTickRate:2

[Events]
//Background and Video events
0,0,"BG.jpg"
//Break Periods
2,6212,12278
2,100927,106117
2,200906,206095
//Storyboard Layer 0 (Background)
//Storyboard Layer 1 (Fail)
//Storyboard Layer 2 (Pass)
//Storyboard Layer 3 (Foreground)
//Storyboard Sound Samples
//Background Colour Transformations
3,100,163,162,255

[TimingPoints]
750,438.500328875247,4,1,0,100,1,0
969,-200,4,2,0,10,0,0
1188,-200,4,1,0,10,0,0
1407,-200,4,1,0,15,0,0
1627,-200,4,1,0,20,0,0
1846,-200,4,1,0,30,0,0
2065,-200,4,1,0,40,0,0
2284,-200,4,1,0,50,0,0
2504,-100,4,1,0,80,0,0
5025,-100,4,1,0,100,0,0
6012,-100,4,1,0,100,0,1
6121,-100,4,1,0,80,0,0
18180,-100,4,2,0,100,0,0
19495,-100,4,2,0,50,0,0
19934,-100,4,1,0,70,0,0
26073,-100,4,2,0,80,0,0
26731,-100,4,1,0,70,0,0
32322,-100,4,2,0,70,0,0
32541,-100,4,1,0,50,0,0
33966,-100,4,2,0,90,0,0
34185,-100,4,1,0,70,0,0
40105,-100,4,2,0,100,0,0
40763,-100,4,1,0,70,0,0
50739,-100,4,1,0,50,0,0
51177,-100,4,1,0,60,0,0
51616,-100,4,1,0,70,0,0
51835,-100,4,2,0,5,0,0
52273,-100,4,1,0,70,0,0
63674,-100,4,1,0,80,0,0
65648,-100,4,1,0,100,0,1
65757,-100,4,1,0,80,0,0
71787,-100,4,1,0,100,0,0
72444,-100,4,1,0,70,0,0
72992,-100,4,1,0,80,0,0
76062,-100,4,1,0,100,0,0
76281,-100,4,1,0,80,0,0
76720,-100,4,1,0,100,0,0
76939,-100,4,1,0,80,0,0
77597,-100,4,1,0,100,0,0
77816,-100,4,1,0,80,0,0
78035,-100,4,1,0,100,0,0
78254,-100,4,1,0,80,0,0
78693,-100,4,1,0,100,0,0
78912,-100,4,1,0,80,0,0
85819,-100,4,1,0,100,0,0
86476,-100,4,1,0,80,0,0
90094,-100,4,1,0,100,0,0
93931,-100,4,1,0,80,0,0
94260,-100,4,1,0,80,0,0
95246,-100,4,1,0,100,0,0
95685,-100,4,1,0,80,0,0
97000,-100,4,1,0,100,0,0
106867,-100,4,1,0,70,0,0
120789,-100,4,2,0,100,0,0
121447,-100,4,1,0,70,0,0
128792,-100,4,1,0,80,0,0
131423,-100,4,1,0,60,0,0
131861,-100,4,1,0,75,0,0
132519,-100,4,2,0,80,0,0
133177,-100,4,1,0,80,0,0
138658,-100,4,1,0,60,0,0
138877,-100,4,1,0,70,0,0
139096,-100,4,1,0,80,0,0
139316,-100,4,1,0,80,0,0
144358,-100,4,1,0,50,0,0
145564,-100,4,1,0,55,0,0
145783,-100,4,1,0,60,0,0
146003,-100,4,1,0,65,0,0
146332,-100,4,1,0,100,0,1
146441,-100,4,1,0,80,0,0
152471,-100,4,1,0,100,0,0
153128,-100,4,1,0,80,0,0
156746,-100,4,1,0,100,0,0
156965,-100,4,1,0,80,0,0
157404,-100,4,1,0,100,0,0
157623,-100,4,1,0,80,0,0
158281,-100,4,1,0,100,0,0
158500,-100,4,1,0,80,0,0
158719,-100,4,1,0,100,0,0
158938,-100,4,1,0,80,0,0
166503,-100,4,1,0,100,0,0
167160,-100,4,1,0,80,0,0
171765,-100,4,1,0,60,0,0
172203,-100,4,1,0,80,0,0
175930,-100,4,1,0,100,0,0
176369,-100,4,1,0,80,0,0
179877,-100,4,1,0,50,0,0
180096,-100,4,1,0,55,0,0
180315,-100,4,1,0,60,0,0
180535,-100,4,1,0,65,0,0
180754,-100,4,1,0,70,0,0
180973,-100,4,1,0,75,0,0
181192,-100,4,1,0,80,0,0
182946,-100,4,1,0,80,0,0
183385,-100,4,1,0,60,0,0
184262,-100,4,1,0,70,0,0
184700,-100,4,1,0,80,0,0
185797,-100,4,2,0,80,0,0
186235,-100,4,1,0,80,0,0
186893,-100,4,1,0,60,0,0
187770,-100,4,1,0,70,0,0
188208,-100,4,1,0,80,0,0
189305,-100,4,2,0,80,0,0
189743,-100,4,1,0,80,0,0
189962,-100,4,1,0,50,0,0
190401,-100,4,1,0,65,0,0
190839,-100,4,1,0,80,0,0
192374,-100,4,1,0,100,0,0
193032,-100,4,1,0,60,0,0
193361,-100,4,1,0,70,0,0
193580,-100,4,1,0,80,0,0
194128,-100,4,1,0,100,0,0
194786,-100,4,1,0,80,0,0
195663,-100,4,1,0,100,0,0
196101,-100,4,1,0,80,0,0
196540,-100,4,1,0,100,0,0
196978,-100,4,1,0,80,0,0
198842,-100,4,1,0,100,0,0
199390,-100,4,1,0,80,0,0
200706,-100,4,1,0,80,0,1
200815,-100,4,1,0,80,0,0
206625,-100,4,1,0,100,0,0
207722,-100,4,1,0,80,0,0
211120,-100,4,1,0,100,0,0
211559,-100,4,1,0,80,0,0
211778,-100,4,1,0,100,0,0
212216,-100,4,1,0,80,0,0
212655,-100,4,1,0,100,0,0
213751,-100,4,1,0,60,0,0
213970,-100,4,1,0,70,0,0
214190,-100,4,1,0,80,0,0
220877,-100,4,1,0,100,0,0
221315,-100,4,1,0,80,0,0
225152,-100,4,1,0,100,0,0
225371,-100,4,1,0,80,0,0
225810,-100,4,1,0,100,0,0
226029,-100,4,1,0,80,0,0
226687,-100,4,1,0,100,0,0
227783,-100,4,1,0,80,0,0
228002,-100,4,1,0,100,0,0
228879,-100,4,1,0,80,0,0
232058,-100,4,1,0,100,0,0
233593,-100,4,1,0,80,0,0
239294,-100,4,1,0,100,0,0
241048,-100,4,1,0,80,0,0
248941,-100,4,1,0,100,0,0
249598,-100,4,1,0,80,0,0
253326,-100,4,1,0,80,0,0
256614,-100,4,1,0,80,0,0
262973,-100,4,1,0,100,0,0
263630,-100,4,1,0,80,0,0
266371,-100,4,1,0,50,0,0
266590,-100,4,1,0,80,0,0
270646,-100,4,1,0,100,0,0
272620,-100,4,2,0,80,0,0
272839,-100,4,2,0,60,0,0
274374,-100,4,1,0,80,0,0
277005,-100,4,1,0,30,0,0

[Colours]
Combo1 : 128,128,255
Combo2 : 128,255,255
Combo3 : 0,0,160
Combo4 : 210,128,255

[HitObjects]
336,104,969,2,0,B|416:72|504:192|416:312|336:280,1,315
256,256,2723,5,0
176,224,2942,1,0
96,184,3161,1,0
96,272,3381,5,0
176,224,3600,1,0
256,184,3819,1,0
216,104,4038,5,0
304,120,4258,1,0
392,136,4477,1,0
480,104,4696,5,0
448,192,4915,1,0
416,280,5135,1,2
96,280,5573,1,2
256,40,6012,1,4
168,320,13028,5,6
344,320,13466,1,8
256,160,13905,2,0,B|256:32,2,90,0|0|8
256,344,14782,5,0
184,224,15110,1,0
328,224,15439,1,0
400,280,15659,2,0,B|440:232|416:144|344:136,1,180,0|8
184,224,16536,5,6
352,136,16974,1,8
184,224,17413,1,0
104,272,17632,1,0
96,184,17851,1,8
256,40,18290,5,4
352,192,18728,1,4
440,352,19167,1,4
264,352,19605,2,8,B|184:352,2,45
352,352,20044,6,0,B|352:312|328:272|288:272|288:272|216:272,1,180,0|8
128,272,20701,1,0
128,184,20921,2,0,B|72:184|48:240,2,90,0|0|8
216,184,21578,1,0
304,184,21798,6,0,B|368:112,1,90
480,120,22236,2,0,B|416:183,1,90,8|0
424,56,22675,2,0,B|368:16|304:56|304:56|208:56,1,180,0|8
72,64,23552,6,0,B|48:112|72:152|72:152|96:200|72:256,1,180,0|8
152,352,24319,2,0,B|208:352,1,45
288,336,24648,1,0
360,288,24867,2,0,B|416:248|448:192|440:128,1,180,8|0
432,48,25525,1,0
352,96,25744,1,8
312,16,25963,1,0
224,48,26183,5,4
136,80,26402,1,4
48,112,26621,1,4
48,272,27060,5,0
224,336,27498,2,0,B|392:336,1,135,8|0
408,336,27937,1,0
488,296,28156,1,0
408,256,28375,2,0,B|336:240|336:144|408:128,1,180,8|0
488,88,29033,5,0
408,48,29252,1,8
328,16,29471,1,0
304,104,29691,2,0,B|256:104|240:56|240:56|196:24|152:56,1,180,0|8
72,96,30348,1,0
56,192,30568,5,0
40,280,30787,1,0
128,256,31006,1,8
200,304,31225,1,0
208,216,31445,1,0
264,152,31664,1,0
288,240,31883,1,8
320,328,32102,1,0
408,328,32322,6,2,B|476:323|504:231|450:190,1,180,0|2
384,248,32979,2,2,B|452:243|480:151|426:110,1,180
360,168,33637,2,2,B|428:163|456:71|402:30,1,180,2|4
280,72,34404,6,0,B|336:104,1,45,0|8
184,88,34843,2,0,B|136:64,1,45
64,104,35172,1,0
64,192,35391,2,0,B|104:224|144:192|144:192|144:320,1,180,8|0
64,320,36049,1,0
144,360,36268,1,8
224,320,36487,1,0
312,320,36707,2,0,B|392:344|440:240|384:176,1,180,0|8
328,152,37364,1,0
320,240,37584,6,0,B|400:264|448:160|392:96,1,180,0|8
344,64,38241,1,0
256,48,38461,2,0,B|200:40|176:88,2,90,0|0|8
248,136,39118,1,0
248,224,39338,1,0
288,304,39557,1,0
248,224,39776,1,8
160,224,39995,1,0
72,224,40215,5,4
72,224,40434,1,4
72,224,40653,1,4
184,80,41092,6,0,B|212:20|300:20|328:80,1,180,0|8
256,248,41969,2,0,B|284:308|372:308|400:248,2,180,0|8|0
328,200,43065,2,0,B|352:152|408:160,2,90,0|8|0
328,288,43723,2,0,B|326:356|235:387|191:334,1,180,0|8
120,280,44380,1,0
96,192,44600,6,0,B|152:120,1,90
184,208,45038,2,0,B|256:280,1,90,8|0
288,192,45477,2,0,B|352:120,1,90
384,208,45915,2,0,B|456:280,1,90,8|0
256,192,46354,12,4,48108
256,192,48546,5,8
256,192,48985,1,0
256,192,49204,1,0
256,192,49423,1,8
400,80,49862,1,0
400,80,50081,1,0
400,80,50300,2,0,B|464:80|464:136|464:136|464:256,1,180,8|2
464,312,50958,1,2
392,256,51177,1,2
392,344,51396,1,2
312,296,51616,6,2,B|132:296|132:296|96:252|128:208,1,270,2|0
168,136,52493,1,0
168,136,52712,1,0
248,88,52931,1,8
248,88,53150,1,0
328,136,53370,2,0,B|368:168|360:232,2,90,0|0|8
272,208,54027,2,0,B|236:240|200:216|200:216|220:260|166:295|133:259|133:259|142:301|97:321,1,270,0|8
48,248,54904,2,0,B|48:200|96:176,1,90,0|4
176,128,55343,6,0,B|224:104|224:48,2,90,0|8|0
136,48,56001,2,0,B|96:16|40:40,2,90,0|0|8
80,120,56658,2,0,B|80:184|136:208,1,90
208,208,57097,1,0
272,144,57316,2,0,B|320:168|360:144,1,90,8|0
328,56,57755,2,0,B|400:24|480:88|440:176,1,180,0|8
440,232,58412,1,0
392,312,58632,5,0
392,312,59070,2,8,B|288:312,1,90,8|0
208,312,59509,1,0
208,312,59947,2,0,B|96:312,1,90,8|0
32,288,60386,1,0
32,288,60605,1,0
88,224,60824,1,8
88,224,61043,1,0
168,192,61263,2,0,B|240:192|288:80|240:24,1,180,0|8
168,56,61920,6,0,B|80:56,2,90,0|0|0
344,56,62797,2,0,B|432:56,2,90,0|0|0
256,354,63894,5,2
256,246,64332,1,2
256,138,64771,1,2
256,30,65209,1,2
120,152,65648,6,0,B|51:145|9:231|56:281,1,180,4|8
136,240,66305,2,0,B|143:307|236:331|275:274,2,180
216,208,67402,2,0,B|254:151|347:174|355:242,1,180,2|8
352,328,68059,2,0,B|417:346|474:268|436:211,1,180
392,136,68717,5,8
392,136,68936,1,0
344,56,69156,2,0,B|320:-7|223:-7|199:56,1,180,2|8
272,104,69813,2,0,B|307:157|250:235|185:217,1,180
116,164,70471,1,8
196,132,70690,2,0,B|180:66|84:54|52:115,1,180,2|0
32,200,71348,2,0,B|-1:258|60:332|125:309,2,180,8|4|4
208,208,72664,6,0,B|152:232,2,45,0|0|0
288,176,73102,1,8
216,128,73321,2,0,B|237:67|333:65|358:128,1,180,0|0
384,216,73979,1,8
384,216,74198,1,0
384,304,74418,2,0,B|432:304,2,45,2|0|0
304,264,74856,1,8
224,304,75075,2,0,B|202:364|106:366|81:303,1,180,0|0
64,216,75733,5,8
64,216,75952,1,0
64,128,76172,2,0,B|58:61|146:21|192:65,1,180,0|8
264,112,76829,1,0
184,152,77049,2,0,B|193:217|288:232|328:184,1,180,0|8
368,104,77706,2,0,B|392:56|448:56,2,90,0|0|0
448,152,78364,2,0,B|493:196|456:285|388:282,2,180,8|0|8
312,264,79680,5,4
312,264,80118,2,0,B|248:336,1,90,8|0
360,184,80776,2,0,B|312:184|312:184|280:184|256:208|256:208|192:280,1,180,0|0
144,320,81434,1,2
144,320,81872,2,0,B|96:344|56:320,2,90,8|0|0
144,136,82749,6,0,B|136:80|72:64,2,90,8|0|2
144,320,83626,2,0,B|144:224,1,90,8|0
328,232,84284,2,0,B|284:179|186:262|229:314,2,180,0|2|0
328,320,85380,2,0,B|371:372|469:289|426:237,2,180,0|4|4
328,136,86696,5,2
216,56,87024,1,0
88,88,87353,1,0
80,176,87573,2,0,B|72:232|24:240,2,90,0|0|8
160,144,88230,1,0
248,112,88450,2,0,B|288:72,2,45,2|0|0
224,200,88888,1,8
152,256,89107,2,0,B|176:312|272:320|304:256,1,180,0|0
344,184,89765,5,0
344,184,89984,1,0
368,96,90204,1,0
96,128,90861,1,0
448,208,91738,1,0
280,280,92177,1,0
112,336,92615,1,0
24,360,92835,2,0,B|8:296|56:256|56:256|48:192,1,180,0|0
136,32,93712,5,4
312,80,94150,1,8
392,120,94369,2,0,B|488:120,2,90
312,160,95027,1,8
136,208,95466,1,4
312,256,95904,1,8
392,296,96123,2,0,B|488:296,2,90
312,336,96781,1,8
136,352,97220,5,4
136,32,98097,1,4
472,236,99193,2,0,B|472:132,1,90
400,64,99631,2,0,B|400:160,1,90
328,240,100070,2,0,B|328:132,1,90
256,64,100508,2,0,B|256:160,1,90,0|0
112,104,106867,5,0
112,192,107086,1,0
112,280,107305,2,0,B|64:328,2,45
184,232,107744,2,0,B|208:176|304:176|336:232,1,180,0|8
448,312,108511,2,0,B|448:248,1,45
448,176,108840,1,0
448,88,109059,2,0,B|360:32|360:152|280:88,1,180,8|0
216,32,109717,5,0
128,24,109936,1,8
64,88,110155,1,0
56,176,110375,2,0,B|24:216|52:312|128:316,1,180,0|8
136,224,111032,1,0
152,128,111252,6,0,B|200:128|224:176,1,90
224,312,111691,2,0,B|220:258|276:226,1,90,8|0
400,232,112129,2,0,B|351:242|321:197,1,90
320,64,112568,2,0,B|329:113|285:139,1,90,8|0
152,128,113006,6,0,B|152:344,1,180,0|8
320,244,113883,2,0,B|320:28,1,180,0|8
152,128,114760,5,4
24,256,115198,1,8
208,256,115637,1,0
272,192,115856,1,0
336,128,116075,2,0,B|360:72|408:72|456:72|480:128,1,180,8|0
408,180,116733,2,0,B|408:268,2,90,0|8|0
404,88,117391,2,0,B|382:36|334:36|286:36|262:92,1,180,0|8
208,160,118048,1,0
144,96,118268,5,0
48,248,118706,1,8
144,344,119035,2,0,B|192:344,1,45
280,344,119364,1,0
368,344,119583,2,0,B|432:344|480:296|480:224,1,180,8|0
480,136,120241,2,0,B|480:40,2,90,0|8|0
400,176,120899,5,4
400,176,121118,1,4
400,176,121337,1,4
256,288,121776,6,0,B|216:344|144:344|104:288,1,180,0|8
104,152,122543,2,0,B|104:224,1,45
104,288,122872,1,0
180,240,123091,2,0,B|220:184|292:184|332:240,1,180,8|0
392,304,123749,2,0,B|416:352|464:352,2,90,0|8|0
456,240,124407,2,0,B|511:200|511:128|455:88,1,180,0|8
368,64,125064,1,0
208,96,125284,6,0,B|232:48|288:64,1,90
272,224,125722,2,0,B|308:184|276:142,1,90,8|0
128,216,126161,2,0,B|145:166|198:175,1,90
288,312,126599,2,0,B|236:328|211:281,1,90,8|0
256,192,127038,12,4,128792
256,192,129230,5,8
256,192,129669,2,0,B|384:192,2,90,0|0|8
168,192,130326,1,0
80,152,130546,2,0,B|80:64,1,90
80,232,130984,2,0,B|80:328,1,90,8|0
160,272,131423,6,2,B|224:344,1,90
264,264,131861,2,2,B|384:264,1,90
416,336,132300,2,2,B|476:312|476:216|416:192|416:192|352:168|352:80|416:48,1,360,2|0
464,120,133396,1,0
464,120,133615,2,0,B|392:144|320:104|336:16,2,180,8|0|8
416,48,134711,2,0,B|432:104|352:184|280:128|280:128|208:72|96:168|160:264,1,450,0|4
232,208,136027,6,0,B|304:264,2,90,0|8|0
232,208,136685,1,0
96,96,137123,1,8
96,96,137342,1,0
184,96,137562,2,0,B|272:96,1,90
328,168,138000,2,0,B|440:168,1,90,8|0
472,240,138439,1,0
424,312,138658,2,0,B|424:360,6,45,0|0|0|0|0|0|4
424,312,139754,6,0,B|312:312,1,90,8|0
336,224,140193,1,0
336,224,140631,2,0,B|224:224,1,90,8|0
248,136,141070,1,0
248,136,141508,2,0,B|144:136,1,90,8|0
96,64,141947,2,0,B|36:88|36:184|96:208,1,180,0|8
168,256,142604,5,0
256,288,142824,1,0
344,280,143043,1,0
464,152,143481,5,0
384,200,143701,1,0
296,200,143920,1,0
64,56,144578,6,2,B|104:88,1,45,2|2
184,48,144906,2,2,B|224:88,1,45,2|2
384,200,145455,2,2,B|336:208|336:208|288:200,3,90,2|2|2|2
208,176,146332,6,0,B|163:156|114:198|107:262|147:289,1,180,4|8
232,264,146989,2,0,B|225:311|278:348|342:338|356:292,2,180
312,224,148086,2,0,B|352:188|428:216|432:272|432:272|496:252|496:176,2,270,2|0|8
232,264,149620,1,0
156,312,149840,2,0,B|112:332|61:292|52:228|91:201,1,180,2|8
152,136,150497,2,0,B|170:91|235:87|284:128|273:175,2,180,0|0|2
92,200,151594,5,0
92,200,151813,1,0
232,264,152251,1,0
232,264,152471,2,0,B|432:264,1,180,4|4
416,80,153348,6,0,B|464:80,2,45,2|0|0
344,136,153786,1,8
272,80,154005,2,0,B|176:56|144:160|200:176|256:160|224:56|128:80,1,270,0|8
56,136,154882,1,0
56,224,155102,2,0,B|24:256,2,45,2|0|0
144,224,155540,1,8
144,224,155759,2,0,B|240:200|272:304|216:320|160:304|192:200|288:224,1,270,0|8
376,224,156636,1,0
464,224,156856,6,0,B|464:280,2,45
464,136,157294,2,0,B|464:80|400:80,1,90,8|0
320,80,157733,2,0,B|320:24,2,45
232,80,158171,2,0,B|175:79|175:135,1,90,8|0
104,192,158610,1,0
104,192,158829,1,0
176,248,159048,2,0,B|200:308|296:308|320:248,2,180,8|0|4
248,80,160364,5,4
248,80,160802,2,0,B|368:80,1,90,8|0
480,192,161460,2,2,B|474:184|474:184|466:200|466:200|458:184|458:184|450:200|450:200|442:184|442:184|434:192|434:192|248:192,1,270,2|0
256,192,162556,2,0,B|152:192,2,90,8|0|0
424,264,163433,5,8
424,264,163652,1,0
424,264,163872,2,0,B|344:336|264:264,2,180,2|8|0
344,216,164968,2,0,B|416:135|344:55,2,180,0|2|0
296,136,166064,2,0,B|216:64|136:136,2,180,0|4|4
360,304,167380,6,0,B|416:304,2,45,2|0|0
272,304,167818,1,8
184,304,168037,2,0,B|136:304|136:304|88:304|88:256|88:256|88:184,1,180,0|0
96,112,168695,1,8
168,56,168914,1,0
256,48,169134,2,0,B|256:0,2,45,2|0|0
344,56,169572,1,8
416,112,169791,2,0,B|448:160|496:160|496:160|476:192|476:192|496:224|496:224|448:224|416:272,1,270,0|8
344,328,170668,1,0
256,328,170888,6,0,B|256:280,1,45
32,328,171545,2,0,B|32:136,1,180
144,288,172422,1,0
144,104,172861,1,0
296,192,173299,1,0
208,192,173519,2,0,B|24:192,2,180,0|0|4
352,80,174834,6,0,B|472:80,2,90,8|0|0
208,192,175711,1,8
352,304,176150,1,4
208,192,176588,2,0,B|104:192,2,90,8|0|0
392,192,177465,1,8
456,40,177904,5,4
56,40,178781,1,4
256,360,179438,2,0,B|256:160,1,180,0|2
176,136,180096,2,0,B|112:56,1,90,2|2
256,104,180535,2,0,B|256:8,1,90,2|2
336,132,180973,2,0,B|400:52,1,90,2|2
336,232,181631,5,2
336,232,181850,1,2
256,264,182069,1,2
256,264,182289,1,2
176,232,182508,1,2
176,232,182727,1,4
16,144,183166,6,0,B|48:96|144:96|176:144,2,180,0|2|2
96,304,184481,1,2
96,304,184920,2,2,B|152:160|388:320|176:464|16:312|208:128|304:128|496:312|336:464|124:320|360:160|416:304,1,540,2|0
496,144,186674,6,0,B|464:96|368:96|336:144,2,180,0|2|2
416,304,187989,1,2
416,304,188428,2,2,B|360:160|124:320|336:464|496:312|304:128|208:128|16:312|176:464|388:320|152:160|96:304,1,540,2|0
96,120,190182,5,2
256,32,190620,1,2
416,120,191059,1,2
344,284,191497,1,2
168,284,191936,1,2
256,32,192593,5,0
256,32,192813,1,0
256,192,193251,1,2
256,192,193470,1,2
256,192,193690,1,2
256,344,194347,1,0
256,344,194567,1,0
96,256,195005,6,0,B|96:344,2,90
96,72,195882,1,0
256,160,196321,1,0
416,72,196759,1,0
416,256,197198,6,0,B|416:344,1,90
344,296,197636,2,0,B|280:360,1,90
272,272,198075,2,0,B|176:272,1,90
240,200,198513,2,0,B|176:136,1,90
264,120,198952,1,0
264,120,199061,2,0,B|264:16,1,90,0|0
384,224,199829,5,0
344,304,200048,1,0
256,328,200267,1,0
168,304,200486,1,0
128,224,200706,1,4
256,192,206845,5,4
256,192,207283,1,4
344,32,207722,6,0,B|392:32,2,45
256,32,208160,1,8
256,32,208379,2,0,B|208:32|208:32|224:80|200:136|144:136,1,180
120,56,209037,1,8
80,136,209256,1,0
80,224,209476,6,0,B|24:224,2,45
112,304,209914,1,8
112,304,210133,2,0,B|160:304|160:304|184:344|248:344|272:304,1,180
216,232,210791,1,8
216,232,211010,1,0
144,176,211230,6,0,B|168:116|272:116|288:176,1,180,0|0
216,232,211887,2,0,B|240:292|344:292|360:232,1,180
392,152,212545,1,0
392,64,212764,2,0,B|455:55|507:145|464:189,2,180
320,112,213861,1,0
240,72,214080,1,0
160,112,214299,2,0,B|112:112,4,45,0|0|0|0|4
152,296,215176,5,8
152,296,215395,2,0,B|192:336|232:296|232:296|272:256|312:296,2,180
64,320,216492,2,0,B|48:240|128:192|184:216,1,180,2|8
256,192,217149,2,0,B|320:224|392:144|360:80,1,180
280,112,217807,1,8
280,112,218026,1,0
208,56,218246,6,0,B|168:8|96:8|48:56,1,180,2|8
120,104,218903,2,0,B|61:125|36:192|65:254,1,180,0|0
136,200,219561,1,8
136,200,219780,2,0,B|123:261|169:317|236:324,1,180,2|0
232,232,220438,2,0,B|296:251|360:218|373:156,2,180,8|4|4
256,56,221754,6,0,B|184:56,2,45,2|0|0
344,56,222192,1,8
432,56,222411,2,0,B|480:88|512:144|512:216|456:272|408:296,1,270,0|8
352,328,223288,1,0
264,344,223508,2,0,B|240:360|200:352,2,45,2|0|0
232,264,223946,1,8
176,192,224165,2,0,B|32:48|32:48|64:64|96:48,1,270,0|8
184,48,225042,1,0
272,48,225262,5,0
448,48,225700,2,0,B|352:48,1,90
192,128,226358,2,0,B|312:128,1,90
368,128,226796,1,0
416,304,227235,1,0
280,192,227673,1,0
280,192,227893,1,0
456,192,228331,1,0
312,304,228770,1,4
136,304,229208,5,8
312,304,229647,2,0,B|408:304,2,90,0|0|8
192,176,230524,1,0
368,176,230962,1,8
192,176,231401,2,0,B|80:176,2,90,0|0|8
312,40,232278,5,0
96,328,233155,1,0
256,112,233812,1,0
152,256,234251,6,0,B|272:256,1,90
324,188,234689,2,0,B|220:188,1,90
316,260,235128,2,0,B|432:260,1,90
488,188,235566,2,0,B|384:188,1,90,0|4
256,192,235895,12,4,237540
256,192,237649,12,4,239294
256,192,240171,5,0
240,192,241267,2,0,B|152:192,1,90
256,192,241705,2,0,B|352:192,1,90
264,264,242144,2,0,B|176:264,1,90
248,120,242582,2,0,B|352:120,1,90,0|4
304,336,243240,6,0,B|208:336,1,90,8|0
280,40,243898,2,0,B|400:40,1,90,0|8
216,192,244556,2,0,B|32:192,1,180,2|8
72,112,245213,2,0,B|112:152|96:192|96:192|80:232|96:296|160:320|192:280,1,270,0|8
216,192,246090,5,0
216,104,246310,2,0,B|264:104|312:136|320:208|280:264,1,180,2|8
376,184,246967,2,0,B|384:224|380:288|324:328|272:304,1,180,0|0
192,280,247625,1,8
112,240,247844,2,0,B|74:209|67:151|98:102|150:89,1,180,2|0
168,176,248502,2,0,B|216:152|232:104|232:48|176:16,2,180,8|4|4
296,48,249818,5,2
376,96,250037,1,0
416,176,250256,1,8
368,352,250695,2,0,B|400:232,1,90,2|0
336,176,251133,2,0,B|312:280,1,90,8|0
200,344,251572,2,0,B|232:240,1,90,2|0
200,120,252010,2,0,B|160:240,1,90,8|0
56,344,252668,5,0
56,344,252887,2,2,B|56:144,1,180,8|0
456,40,253983,2,0,B|456:248,1,180
160,328,254860,1,0
344,328,255299,1,0
256,168,255737,1,0
256,168,255957,1,0
256,168,256395,1,0
120,48,256834,6,0,B|64:64|64:168|128:192,1,180,4|8
176,120,257491,2,0,B|211:63|290:55|333:125,2,180,0|0|0
216,200,258588,2,0,B|152:216|152:328|224:352,1,180,2|8
256,272,259245,2,0,B|296:232|336:272|336:272|376:312|424:272,1,180,0|0
472,208,259903,5,8
472,208,260122,1,0
464,120,260342,2,0,B|456:80|408:40|344:48|320:96,1,180,2|8
384,152,260999,2,0,B|384:104|328:64|240:80|240:160,1,180,0|0
208,200,261657,1,8
296,192,261876,2,0,B|96:216,1,180,2|0
96,232,262425,1,0
76,248,262534,2,0,B|244:320,1,180,0|4
464,200,263411,1,0
264,40,263850,6,0,B|72:64,1,180,2|8
248,344,264727,2,0,B|440:320,1,180,2|8
256,136,265604,1,0
184,192,265823,1,0
256,248,266042,1,8
328,192,266261,2,0,B|384:176,2,45
256,248,266700,1,0
184,296,266919,2,2,B|192:352|144:376|96:352|88:304|128:248|176:272,1,180,2|0
184,192,267577,6,0,B|216:160|216:160|200:112,2,90,0|8|0
256,248,268235,2,0,B|296:224|296:224|304:160,2,90,0|0|8
312,320,268892,2,0,B|352:304|352:304|384:248,2,90
224,336,269550,1,8
224,336,269769,1,0
168,264,269989,2,0,B|136:232|136:232|88:224,2,90,0|0|8
240,96,270866,6,2,B|432:64,1,180,2|0
320,184,271523,2,2,B|88:144,1,180,2|0
248,280,272181,2,2,B|448:232,1,180,2|2
208,344,272949,5,2
208,344,273058,2,0,B|80:320,1,90,2|2
304,40,273935,1,2
304,40,274044,2,2,B|432:64,1,90
256,192,275470,5,2
256,192,275799,1,2
256,192,276128,1,2
344,192,276566,2,0,B|144:192,1,180
