osu file format v12

[General]
AudioFilename: Heavy Rotation.mp3
AudioLeadIn: 0
PreviewTime: 11957
Countdown: 0
SampleSet: Normal
StackLeniency: 0.7
Mode: 0
LetterboxInBreaks: 1
WidescreenStoryboard: 0

[Editor]
Bookmarks: 7912,11957,32182,42294,115777,120497,194653,204766,270158,275256
DistanceSpacing: 0.8
BeatDivisor: 16
GridSize: 4

[Metadata]
Title:Heavy Rotation
TitleUnicode:ヘビーローテーション
Artist:AKB48
ArtistUnicode:AKB48
Creator:Latias_Haruka
Version:A Team
Source:AKB48
Tags:Akimoto Yasushi
BeatmapID:178016
BeatmapSetID:53225

[Difficulty]
HPDrainRate:1
CircleSize:3
OverallDifficulty:1
ApproachRate:2
SliderMultiplier:0.94
SliderTickRate:2

[Events]
//Background and Video events
Video,415,"Heavy Rotation.avi"
0,0,"BG2.jpg",0,0
//Break Periods
2,7912,10397
2,32182,41071
2,115777,119274
2,194653,203206
2,270358,273696
//Storyboard Layer 0 (Background)
//Storyboard Layer 1 (Fail)
//Storyboard Layer 2 (Pass)
//Storyboard Layer 3 (Foreground)
//Storyboard Sound Samples
Sample,2182,0,"count3.wav",100
Sample,2856,0,"count2.wav",100
Sample,3530,0,"count1.wav",100
Sample,4204,0,"go.wav",100
//Background Colour Transformations
3,100,255,128,255

[TimingPoints]
4542,337.078651685393,4,1,1,100,1,0
52744,-200,4,1,1,100,0,0
53081,-100,4,1,1,100,0,0
74654,-100,4,1,1,100,0,1
95553,-100,4,1,1,100,0,0
96227,-100,4,1,1,100,0,1
115777,-100,4,1,1,100,0,0
152182,337.078651685393,4,1,1,100,1,0
153530,-100,4,1,1,100,0,1
174429,-100,4,1,1,100,0,0
175103,-100,4,1,1,100,0,1
194653,-100,4,1,1,100,0,0
228361,337.078651685393,4,1,1,100,1,0
229709,-100,4,1,1,100,0,1
250608,-100,4,1,1,100,0,0
251282,-100,4,1,1,100,0,1
270074,-100,4,1,1,100,0,0
270158,339.878651685394,4,1,1,100,1,0
275256,-100,4,2,1,100,0,0
275256,-100,4,2,1,100,0,0
275598,789.473684210526,4,2,1,100,1,0
276387,594.059405940594,4,2,1,100,1,0
276979,740.74074074074,4,2,1,100,1,0
277346,833.333333333333,4,2,1,100,1,0
277762,628.272251308901,4,2,1,100,1,0
278076,851.063829787234,4,2,1,100,1,0
278501,-100,4,2,1,100,0,1
279778,-100,4,2,1,90,0,1
280203,-100,4,2,1,80,0,1
280629,-100,4,2,1,70,0,1
281054,-100,4,2,1,60,0,1
281480,-100,4,2,1,50,0,1
281693,-100,4,2,1,45,0,1
281905,-100,4,2,1,40,0,1
282118,-100,4,2,1,35,0,1
282331,-100,4,2,1,30,0,1
282544,-100,4,2,1,25,0,1
282756,-100,4,2,1,20,0,1
282969,-100,4,2,1,10,0,1
283076,-100,4,2,1,10,0,0
283182,-100,4,2,0,5,0,1
283288,-100,4,2,0,5,0,0

[Colours]
Combo1 : 128,255,128
Combo2 : 255,128,255
Combo3 : 255,128,128
Combo4 : 128,255,255

[HitObjects]
336,192,4541,1,4,0:0:0:0:
180,192,5216,5,4,0:0:0:0:
324,172,5890,5,0,0:0:0:0:
296,244,6227,1,0,0:0:0:0:
216,244,6564,1,0,0:0:0:0:
188,172,6901,1,0,0:0:0:0:
256,132,7238,5,4,0:0:0:0:
349,211,11957,5,0,0:0:0:0:
415,245,12294,1,0,0:0:0:0:
474,290,12631,2,0,B|397:360|288:347,1,188,4|0,0:0|0:0,0:0:0:0:
256,288,13643,1,0,0:0:0:0:
212,348,13980,2,0,B|112:340|48:248,1,188
96,192,14991,5,0,0:0:0:0:
56,128,15328,2,0,B|88:40|208:28,1,188
256,80,16339,1,0,0:0:0:0:
311,28,16676,2,0,B|440:48|456:136,1,188
408,192,17688,5,0,0:0:0:0:
350,240,18025,2,0,B|162:240,1,188
104,192,19036,1,0,0:0:0:0:
162,144,19373,2,0,B|350:144,1,188
408,192,20384,5,0,0:0:0:0:
388,264,20721,2,0,B|380:348|268:348|268:252,3,188
256,120,23418,6,0,B|148:156|164:276,1,188
128,332,24429,2,0,B|80:328|52:280,1,94
28,212,25103,2,0,B|28:112,1,94
28,44,25777,1,0,0:0:0:0:
104,48,26115,6,0,B|188:48|240:104|240:176,1,188
256,228,27126,1,0,0:0:0:0:
320,192,27463,1,0,0:0:0:0:
476,28,28474,5,0,0:0:0:0:
432,88,28811,2,0,B|244:88,2,188
500,120,30497,5,0,0:0:0:0:
476,192,30834,1,0,0:0:0:0:
500,264,31171,1,0,0:0:0:0:
476,336,31508,1,4,0:0:0:0:
56,124,42631,6,0,B|188:28|332:128,1,282
432,120,44148,1,0,0:0:0:0:
456,260,45328,6,0,B|324:356|180:256,1,282
80,264,46845,1,0,0:0:0:0:
188,96,48025,6,0,B|196:160|308:172|328:92,2,188
256,228,50047,1,0,0:0:0:0:
256,308,50384,1,0,0:0:0:0:
424,332,51058,6,0,B|424:280,1,47
376,192,51733,2,0,B|360:32|148:24|136:200,1,376
56,260,53418,6,0,B|188:356|332:256,1,282
432,264,54935,1,0,0:0:0:0:
456,124,56115,6,0,B|324:28|180:128,1,282
80,120,57631,1,0,0:0:0:0:
332,232,58811,6,0,B|280:300|224:300|176:224,1,188
180,152,59822,2,0,B|232:84|288:84|336:160,1,188
388,200,60834,1,0,0:0:0:0:
396,268,61171,6,0,B|368:376|244:368,1,188
108,344,62519,2,0,B|8:300|28:180,1,188
204,52,64204,5,0,0:0:0:0:
256,104,64541,1,0,0:0:0:0:
376,192,65216,1,0,0:0:0:0:
256,284,65890,1,0,0:0:0:0:
136,192,66564,6,0,B|88:216|72:280,2,94
212,192,67575,1,0,0:0:0:0:
256,252,67912,1,0,0:0:0:0:
368,344,68586,5,0,0:0:0:0:
432,308,68924,1,0,0:0:0:0:
460,240,69261,2,0,B|460:136,1,94
336,60,70272,5,0,0:0:0:0:
428,52,70609,2,0,B|412:176|252:168|236:44,1,282
164,52,71957,2,0,B|60:104|76:208|164:252|164:252|284:252,1,376
172,148,73980,5,0,0:0:0:0:
96,148,74317,1,0,0:0:0:0:
96,72,74654,2,0,B|332:-24|344:316|80:224,1,470
56,164,76676,5,0,0:0:0:0:
0,216,77013,1,0,0:0:0:0:
28,284,77350,2,0,B|256:384|500:280,1,470
476,212,79373,5,0,0:0:0:0:
456,140,79710,1,0,0:0:0:0:
440,68,80047,2,0,B|256:68|256:276|28:276,1,470
24,200,82070,5,0,0:0:0:0:
100,192,82407,1,0,0:0:0:0:
176,196,82744,1,0,0:0:0:0:
256,68,83418,1,0,0:0:0:0:
336,196,84092,1,0,0:0:0:0:
256,324,84766,1,0,0:0:0:0:
404,352,85440,5,0,0:0:0:0:
256,364,86115,2,0,B|252:284|124:284|128:376,2,188
312,316,87800,1,0,0:0:0:0:
360,260,88137,6,0,B|420:260|464:208|420:156|360:156,1,188
304,116,89148,1,0,0:0:0:0:
256,56,89485,1,0,0:0:0:0:
192,192,90159,5,0,0:0:0:0:
132,148,90497,1,0,0:0:0:0:
72,192,90834,2,0,B|60:288|140:376|272:324,1,282
332,320,92182,5,0,0:0:0:0:
388,272,92519,1,0,0:0:0:0:
332,220,92856,1,0,0:0:0:0:
276,272,93193,1,0,0:0:0:0:
256,192,93530,8,0,94879,0:0:0:0:
256,344,95553,5,0,0:0:0:0:
188,312,95890,1,0,0:0:0:0:
180,236,96227,2,0,B|86:-8|436:-8|328:252,1,470
256,231,98249,5,0,0:0:0:0:
256,155,98586,1,0,0:0:0:0:
332,144,98924,2,0,B|426:388|76:388|184:128,1,470
192,72,100946,5,0,0:0:0:0:
256,112,101283,1,0,0:0:0:0:
320,72,101620,2,0,B|388:152|374:251|256:292|140:256|112:148|204:57,1,470
256,116,103643,5,0,0:0:0:0:
256,192,103980,1,0,0:0:0:0:
256,268,104317,1,0,0:0:0:0:
384,192,104991,1,0,0:0:0:0:
256,116,105665,1,0,0:0:0:0:
128,192,106339,1,0,0:0:0:0:
256,264,107013,6,0,B|364:228|348:108,1,188
384,52,108025,2,0,B|432:56|460:104,1,94
484,172,108699,2,0,B|484:272,1,94
484,340,109373,1,0,0:0:0:0:
408,336,109710,6,0,B|324:336|272:280|272:208,1,188
256,156,110721,1,0,0:0:0:0:
192,192,111058,1,0,0:0:0:0:
36,356,112070,5,0,0:0:0:0:
80,296,112407,2,0,B|268:296,2,188
12,264,114092,5,0,0:0:0:0:
36,192,114429,1,0,0:0:0:0:
12,120,114766,1,0,0:0:0:0:
36,49,115103,1,4,0:0:0:0:
400,60,120834,6,0,B|492:192|392:340,1,282
324,244,122350,1,0,0:0:0:0:
112,324,123530,6,0,B|20:192|120:44,1,282
188,140,125047,1,0,0:0:0:0:
328,356,126227,6,0,B|300:288|208:288|180:360,2,188
400,344,127912,1,0,0:0:0:0:
464,304,128249,1,0,0:0:0:0:
484,232,128586,1,0,0:0:0:0:
412,100,129261,5,0,0:0:0:0:
412,100,129429,1,0,0:0:0:0:
332,180,129935,2,0,B|124:132|132:356|336:300,1,376
400,324,131620,6,0,B|492:192|392:44,1,282
324,140,133137,1,0,0:0:0:0:
112,60,134317,6,0,B|20:192|120:340,1,282
188,244,135834,1,0,0:0:0:0:
184,356,137013,6,0,B|212:288|304:288|332:360,2,188
112,344,138699,1,0,0:0:0:0:
48,304,139036,1,0,0:0:0:0:
28,232,139373,5,0,0:0:0:0:
176,196,140047,1,0,0:0:0:0:
336,196,140721,1,0,0:0:0:0:
484,232,141395,1,0,0:0:0:0:
304,372,142407,5,0,0:0:0:0:
256,312,142744,2,0,B|256:120,2,188
180,320,144429,1,0,0:0:0:0:
128,268,144766,6,0,B|80:288|60:332,2,94
68,224,145777,1,0,0:0:0:0:
0,192,146115,1,0,0:0:0:0:
76,64,146789,5,0,0:0:0:0:
140,104,147126,1,0,0:0:0:0:
204,64,147463,2,0,B|400:64,1,188
464,76,148474,6,0,B|464:176,1,94
392,192,149148,1,0,0:0:0:0:
328,232,149485,1,0,0:0:0:0:
256,252,149822,1,0,0:0:0:0:
256,192,150159,8,0,151508,0:0:0:0:
384,304,152856,5,0,0:0:0:0:
328,256,153193,1,0,0:0:0:0:
264,216,153530,2,0,B|344:136|320:24|216:-1|112:24|72:136|176:224,1,470
100,252,155552,5,0,0:0:0:0:
20,252,155889,1,0,0:0:0:0:
24,328,156226,2,0,B|502:327,1,470
472,256,158249,5,0,0:0:0:0:
424,196,158586,1,0,0:0:0:0:
368,152,158923,2,0,B|256:128|200:192|256:252|364:232|364:232|364:288|356:344|300:360|240:320,1,470
184,300,160946,5,0,0:0:0:0:
116,268,161283,1,0,0:0:0:0:
84,200,161620,2,0,B|116:96|212:60,3,188
172,212,164316,5,0,0:0:0:0:
236,112,164991,2,0,B|236:176|292:200|348:176|348:100,2,188
184,60,166676,1,0,0:0:0:0:
152,124,167013,6,0,B|92:124|48:176|92:228|152:228,1,188
208,268,168024,1,0,0:0:0:0:
256,328,168361,1,0,0:0:0:0:
320,192,169035,5,0,0:0:0:0:
380,236,169373,1,0,0:0:0:0:
440,192,169710,2,0,B|452:96|372:8|240:60,1,282
180,64,171058,5,0,0:0:0:0:
124,112,171395,1,0,0:0:0:0:
180,164,171732,1,0,0:0:0:0:
236,112,172069,1,0,0:0:0:0:
256,192,172406,8,0,173755,0:0:0:0:
163,173,174429,5,0,0:0:0:0:
97,139,174766,1,0,0:0:0:0:
38,94,175103,2,0,B|115:24|224:37,1,188,0|0,0:0|0:0,0:0:0:0:
256,96,176115,1,0,0:0:0:0:
300,36,176452,2,0,B|400:44|464:136,1,188
416,192,177463,5,0,0:0:0:0:
456,256,177800,2,0,B|424:344|304:356,1,188
256,304,178811,1,0,0:0:0:0:
201,356,179148,2,0,B|72:336|56:248,1,188
104,192,180160,5,0,0:0:0:0:
162,144,180497,2,0,B|350:144,1,188
408,192,181508,1,0,0:0:0:0:
350,240,181845,2,0,B|162:240,1,188
104,192,182856,5,0,0:0:0:0:
124,120,183193,2,0,B|132:40|246:38|249:130,3,188
400,116,185889,6,0,B|468:164|468:220|392:272,1,188
324,284,186901,1,0,0:0:0:0:
256,292,187238,2,0,B|48:292,2,188
248,216,188923,5,0,0:0:0:0:
172,216,189260,1,0,0:0:0:0:
100,192,189597,2,0,B|52:180|20:124,1,94
148,328,190946,5,0,0:0:0:0:
204,280,191283,2,0,B|280:352|392:348,2,188
256,224,192968,5,0,0:0:0:0:
328,252,193305,1,0,0:0:0:0:
396,224,193642,1,0,0:0:0:0:
464,252,193979,1,4,0:0:0:0:
64,328,204766,6,0,B|64:120,2,188
176,328,206620,1,0,0:0:0:0:
364,344,207462,6,0,B|416:328|440:280,2,94
288,348,208474,1,0,0:0:0:0:
256,280,208811,1,0,0:0:0:0:
405,265,209485,6,0,B|409:209|361:165,1,94
328,120,210159,2,0,B|260:24|156:24|96:124,1,282
68,192,211507,6,0,B|80:240|128:280,1,94
124,344,212181,2,0,B|180:372|224:376,1,94
256,312,212856,2,0,B|256:104,3,188
296,60,215215,5,0,0:0:0:0:
372,52,215552,2,0,B|476:64|504:172,2,188
304,140,217406,5,0,0:0:0:0:
360,192,217743,1,0,0:0:0:0:
280,272,218249,2,0,B|196:360|120:364|40:260,1,282
44,192,219597,2,0,B|76:104|184:72,1,188
256,80,220608,5,0,0:0:0:0:
332,72,220946,2,0,B|424:96|480:184,2,188
372,192,222968,5,0,0:0:0:0:
320,248,223305,1,0,0:0:0:0:
256,288,223642,2,0,B|100:288,2,141
256,192,224990,8,0,227687,0:0:0:0:
350,259,229035,5,0,0:0:0:0:
418,227,229372,1,0,0:0:0:0:
350,191,229709,2,0,B|162:191,1,188
108,244,230720,1,0,0:0:0:0:
56,192,231057,2,0,B|68:88|196:56,1,188
200,132,232068,5,0,0:0:0:0:
256,180,232405,2,0,B|348:128|452:184,1,188
508,192,233417,1,0,0:0:0:0:
476,260,233754,2,0,B|420:336|308:352,1,188
332,276,234765,5,0,0:0:0:0:
256,284,235102,2,0,B|52:284,1,188
8,240,236113,1,0,0:0:0:0:
40,172,236450,2,0,B|48:116|120:100,1,94
168,72,237125,5,0,0:0:0:0:
216,132,237462,1,0,0:0:0:0:
256,68,237799,2,0,B|448:68,3,188
356,192,240495,6,0,B|356:384,1,188
280,372,241507,1,0,0:0:0:0:
256,300,241844,2,0,B|152:292|92:196,2,188
256,224,243529,5,0,0:0:0:0:
280,152,243866,1,0,0:0:0:0:
328,212,244203,1,0,0:0:0:0:
304,284,244540,2,0,B|336:320|400:320,1,94
456,288,245214,5,0,0:0:0:0:
400,240,245552,1,0,0:0:0:0:
456,192,245889,2,0,B|448:92|360:32|252:36,1,282
256,112,247237,5,0,0:0:0:0:
192,152,247574,1,0,0:0:0:0:
192,228,247911,1,0,0:0:0:0:
256,268,248248,1,0,0:0:0:0:
320,228,248585,2,0,B|472:228|472:228|477:193|472:156|472:156|312:156,1,376
204,60,250608,5,0,0:0:0:0:
256,116,250945,1,0,0:0:0:0:
188,148,251282,2,0,B|88:160|48:268,1,188
124,268,252293,1,0,0:0:0:0:
180,320,252630,2,0,B|380:320,1,188
440,296,253641,5,0,0:0:0:0:
476,232,253978,2,0,B|476:128|388:64,1,188
344,124,254990,1,0,0:0:0:0:
296,68,255327,2,0,B|236:120|240:188|292:232,1,188
356,192,256338,5,0,0:0:0:0:
412,240,256675,2,0,B|380:344|264:352,1,188
256,280,257686,1,0,0:0:0:0:
204,332,258023,2,0,B|96:332,1,94
56,280,258698,5,0,0:0:0:0:
116,236,259035,1,0,0:0:0:0:
56,192,259372,2,0,B|88:96|208:72,3,188
336,32,262068,6,0,B|388:44|424:88,3,94
464,136,263417,1,0,0:0:0:0:
416,192,263754,1,0,0:0:0:0:
464,252,264091,5,0,0:0:0:0:
404,296,264428,1,0,0:0:0:0:
344,340,264765,2,0,B|232:340,3,94
176,336,266113,2,0,B|68:300|32:208,1,188
52,144,267125,5,0,0:0:0:0:
120,116,267462,2,0,B|200:204|288:112,2,188
176,64,269147,1,0,0:0:0:0:
244,28,269484,1,0,0:0:0:0:
320,28,269821,1,0,0:0:0:0:
384,68,270158,1,4,0:0:0:0:
404,192,275256,5,0,0:0:0:0:
377,256,275598,2,0,B|260:255,1,94
237,294,276981,1,0,0:0:0:0:
214,266,277349,1,0,0:0:0:0:
207,226,277762,1,0,0:0:0:0:
209,190,278076,1,0,0:0:0:0:
208,96,278501,1,0,0:0:0:0:
256,192,278714,8,2,283182,0:0:0:0:
