osu file format v9

[General]
AudioFilename: AKB48-.mp3
AudioLeadIn: 2000
PreviewTime: 130865
Countdown: 0
SampleSet: Normal
StackLeniency: 0.5
Mode: 0
LetterboxInBreaks: 0

[Editor]
DistanceSpacing: 1
BeatDivisor: 4
GridSize: 8

[Metadata]
Title:Flying Get
Artist:AKB48
Creator:Breeze
Version:Challenge
Source:
Tags:phonic Kuramochi Asuka Kojima Haruna Sashihara Rino Shinoda Mariko Takajiyou Aki Takahashi Minami Maeda Atsuko Akimoto Sayaka Itano Tomomi Ooshima Yuuko Minegishi MinamiMiyagiwa Sae Yokoyama Yui Kasai Tomomi Kashiwagi Yuki Kitahara Rie Satou Amina Masuda Yuka Watanabe Mayu Matsui Jurina Matsui Rena

[Difficulty]
HPDrainRate:6
CircleSize:4
OverallDifficulty:7
ApproachRate:8
SliderMultiplier:2
SliderTickRate:1

[Events]
//Background and Video events
0,0,"AKB.jpg"
//Break Periods
2,24805,26895
2,92592,98970
2,165874,170420
//Storyboard Layer 0 (Background)
//Storyboard Layer 1 (Fail)
//Storyboard Layer 2 (Pass)
//Storyboard Layer 3 (Foreground)
//Storyboard Sound Samples
//Background Colour Transformations
3,100,0,0,0

[TimingPoints]
789,458.015267175573,4,1,2,40,1,0
789,-133.333333333333,4,1,2,40,0,0
1476,-100,4,1,1,90,0,0
2621,-100,4,1,2,90,0,0
2964,-100,4,1,1,90,0,0
5598,-100,4,1,0,55,0,0
6285,-100,4,1,2,90,0,0
6628,-100,4,1,1,90,0,0
8804,-100,4,1,2,90,0,0
9491,-100,4,1,1,100,0,0
9949,-100,4,1,1,90,0,0
12468,-100,4,1,2,60,0,0
13155,-100,4,1,2,70,0,0
13613,-100,4,1,1,90,0,0
16361,-100,4,1,2,50,0,0
16934,-100,4,1,2,90,0,0
17277,-100,4,1,1,90,0,0
19796,-100,4,1,2,60,0,0
20483,-100,4,1,2,70,0,0
20941,-100,4,1,1,90,0,0
23689,-100,4,1,2,50,0,0
24262,-100,4,1,2,70,0,0
24605,-100,4,1,1,70,0,0
28498,-100,4,1,1,90,0,0
34682,-100,4,1,2,50,0,0
35140,-100,4,1,2,30,0,0
35254,-100,4,1,2,50,0,0
35598,-100,4,1,1,90,0,0
42010,-100,4,1,2,55,0,0
42353,-100,4,1,2,40,0,0
42582,-100,4,1,2,55,0,0
42926,-100,4,1,1,90,0,0
43842,-100,4,1,2,55,0,0
44300,-100,4,1,1,90,0,0
47506,-100,4,1,2,55,0,0
47964,-100,4,1,1,90,0,0
49796,-100,4,1,0,60,0,0
50254,-100,4,1,1,90,0,0
51170,-100,4,1,2,55,0,0
51628,-100,4,1,1,90,0,0
55292,-100,4,1,2,60,0,0
55979,-100,4,1,1,90,0,0
57239,-100,4,1,0,70,0,0
57582,-100,4,1,2,70,0,0
58384,-100,4,1,1,60,0,0
58727,-100,4,1,2,80,0,0
59071,-100,4,1,2,90,0,0
59414,-80,4,1,2,100,0,1
59529,-80,4,1,2,100,0,0
59872,-80,4,1,1,100,0,0
62392,-80,4,1,2,70,0,0
63079,-80,4,1,1,100,0,0
64911,-80,4,1,2,50,0,0
65712,-80,4,1,2,90,0,0
66743,-80,4,1,1,100,0,0
69720,-80,4,1,2,70,0,0
70407,-80,4,1,1,100,0,0
71895,-80,4,1,0,60,0,0
72239,-80,4,1,2,70,0,0
73384,-80,4,1,2,100,0,0
74185,-80,4,1,1,100,0,0
79567,-80,4,1,2,70,0,0
80025,-80,4,1,1,100,0,0
80712,-80,4,1,2,100,0,0
81399,-80,4,1,1,100,0,0
84376,-80,4,1,2,70,0,0
84834,-80,4,1,1,40,0,0
85063,-80,4,1,1,100,0,0
86895,-80,4,1,2,70,0,0
88040,-80,4,1,2,100,0,0
88956,-80,4,1,1,100,0,0
89872,-80,4,1,2,100,0,0
90617,-80,4,1,1,70,0,0
91705,-80,4,1,2,100,0,0
92392,-100,4,1,2,100,0,0
99720,-133.333333333333,4,1,2,100,0,0
100865,-100,4,1,2,100,0,0
101552,-100,4,1,1,90,0,0
106361,-100,4,1,2,90,0,0
107048,-100,4,1,1,90,0,0
113460,-100,4,1,2,60,0,0
114147,-100,4,1,1,90,0,0
115292,-100,4,1,2,70,0,0
115750,-100,4,1,1,90,0,0
118956,-100,4,1,2,70,0,0
119414,-100,4,1,1,90,0,0
121247,-100,4,1,0,60,0,0
121705,-100,4,1,1,90,0,0
122621,-100,4,1,2,70,0,0
123079,-100,4,1,1,90,0,0
125712,-100,4,1,2,90,0,0
126170,-100,4,2,0,40,0,0
126628,-100,4,1,2,70,0,0
127430,-100,4,1,1,90,0,0
128346,-100,4,1,0,50,0,0
129033,-100,4,1,2,70,0,0
130178,-100,4,1,2,80,0,0
130521,-100,4,1,2,90,0,0
130865,-80,4,1,2,100,0,1
130979,-80,4,1,1,100,0,0
133842,-80,4,1,2,70,0,0
134529,-80,4,1,1,100,0,0
136361,-80,4,1,2,70,0,0
137506,-80,4,1,2,100,0,0
138193,-80,4,1,1,100,0,0
141170,-80,4,1,2,70,0,0
141628,-80,4,1,1,40,0,0
141743,-80,4,1,1,100,0,0
143689,-80,4,1,2,70,0,0
144834,-80,4,1,2,80,0,0
145178,-80,4,1,2,90,0,0
145750,-80,4,1,1,100,0,0
148498,-80,4,1,2,70,0,0
149071,-80,4,1,1,100,0,0
151018,-80,4,1,2,70,0,0
151590,-80,4,1,1,100,0,0
152163,-80,4,1,2,70,0,0
152850,-80,4,1,1,100,0,0
155827,-80,4,1,2,70,0,0
156285,-80,4,1,1,100,0,0
158346,-80,4,1,2,100,0,0
160407,-80,4,1,1,100,0,0
161323,-80,4,1,2,100,0,0
162239,-80,4,1,1,100,0,0
163155,-80,4,1,2,100,0,0
163384,-80,4,1,2,70,0,0
163498,-80,4,1,2,100,0,0
163556,-80,4,1,2,70,0,0
163842,-80,4,1,2,100,0,0
165674,-100,4,1,1,100,0,0
171170,-100,4,1,2,100,0,1
171285,-100,4,1,2,100,0,0
172315,-100,4,1,1,100,0,0
174147,-100,4,1,2,70,0,0
174605,-100,4,1,1,100,0,0
176666,-100,4,1,2,70,0,0
176895,-100,4,1,1,100,0,0
177697,-100,4,1,2,100,0,0
178498,-100,4,1,2,70,0,0
182163,-100,4,1,1,100,0,0
183995,-100,4,1,2,70,0,0
184453,-100,4,1,2,78,0,0
184911,-100,4,1,2,86,0,0
185369,-100,4,1,2,92,0,0
185827,-100,4,1,2,100,0,0
187430,-100,4,1,1,100,0,0
188880,-100,4,1,2,100,0,0
189491,-133.333333333333,4,1,2,100,0,0
190636,-133.333333333333,4,1,1,100,0,0
196132,-133.333333333333,4,1,2,70,0,0
196819,-133.333333333333,4,1,1,100,0,0
202315,-133.333333333333,4,1,2,70,0,0
203460,-133.333333333333,4,1,2,100,0,0
204147,-80,4,1,2,100,0,1
204262,-80,4,1,1,100,0,0
207124,-80,4,1,2,70,0,0
207697,-80,4,1,1,100,0,0
209643,-80,4,1,2,70,0,0
211476,-80,4,1,1,100,0,0
214453,-80,4,1,2,70,0,0
214911,-80,4,1,1,50,0,0
215025,-80,4,1,1,80,0,0
215140,-80,4,1,1,100,0,0
216628,-80,4,1,0,60,0,0
216972,-80,4,1,2,70,0,0
218117,-80,4,1,2,100,0,0
219033,-80,4,1,1,100,0,0
219615,-80,4,2,0,100,0,0
219949,-80,4,1,2,100,0,0
220750,-80,4,1,0,55,0,0
221781,-80,4,1,2,100,0,0
225674,-100,4,1,1,90,0,0
228651,-100,4,1,2,50,0,0
229338,-100,4,1,2,60,0,0
229796,-100,4,1,1,90,0,0
232544,-100,4,1,2,50,0,0
233002,-100,4,1,2,60,0,0
233460,-100,4,1,1,90,0,0
235979,-100,4,1,2,50,0,0
236666,-100,4,1,2,60,0,0
237124,-100,4,1,1,90,0,0
238956,-100,4,1,2,50,0,0
240789,-100,4,1,1,90,0,0
241018,-100,4,1,2,60,0,0
246743,-100,4,1,1,90,0,0
246972,-100,4,1,2,60,0,0
247430,-100,4,1,1,90,0,0
247659,-100,4,1,2,60,0,0
248117,-100,4,1,2,60,0,1
248231,-100,4,1,2,60,0,0

[Colours]
Combo1 : 255,223,0
Combo2 : 139,64,253
Combo3 : 242,2,98
Combo4 : 11,111,232
SliderBorder : 0,0,0

[HitObjects]
40,192,789,2,0,B|264:192,1,224.999993294478
288,192,1590,1,0
312,192,1705,2,0,B|392:192,3,66.6666666666667
464,144,2392,2,0,B|496:192|464:240,1,100,0|6
320,272,2964,1,0
320,120,3308,1,0
320,96,3422,1,0
320,72,3537,1,8
192,72,3766,5,0
112,128,3995,1,0
192,192,4224,1,0
112,256,4453,2,0,B|88:248|64:272|48:304|48:344|88:368,2,150,2|2|0
136,272,5254,1,0
160,288,5369,1,0
248,344,5598,5,0
272,344,5712,1,0
296,344,5827,1,0
320,344,5941,1,0
344,344,6056,1,0
440,344,6285,6,2,B|496:224,1,100,6|0
456,240,6628,2,0,B|456:136,1,100
482,130,6972,2,0,B|440:40,1,100,0|0
344,24,7430,1,0
256,72,7659,1,8
168,24,7888,1,0
72,39,8117,2,0,B|30:130,1,100,2|0
56,140,8461,2,0,B|56:240,1,100,2|0
32,264,8804,2,2,B|40:272|40:272|40:280|40:280|48:280|48:280|48:288|48:288|56:288|56:288|56:296|56:296|64:296|64:296|64:304|64:304|72:304|72:304|72:312|72:312|80:312|80:312|80:320|80:320|88:320|88:320|88:328|88:328|96:328|96:328|96:336|96:336|104:328|104:328|112:336|112:336|120:328|120:328|128:336|128:336|136:328|136:328|144:336|144:336|152:328|152:328|160:336|160:336|168:328|168:328|176:336|176:336|184:328|184:328|192:336|192:336|200:328|200:328|208:336|208:336|216:328|216:328|224:336,1,300,0|2
416,192,9949,5,4
432,176,10063,2,0,B|488:128,2,50
96,192,10636,1,0
80,208,10750,2,0,B|24:256,2,50
224,232,11323,1,8
288,152,11552,1,0
296,336,11781,5,2
272,336,11895,1,0
248,336,12010,1,0
224,336,12124,1,0
216,48,12468,1,2
240,48,12582,1,2
264,48,12697,1,2
288,48,12811,1,2
288,232,13155,5,2
216,152,13384,1,2
80,160,13613,6,0,B|32:176,1,50,2|0
32,224,13842,2,0,B|80:248,1,50
435,246,14300,2,0,B|480:224,1,50
479,175,14529,2,0,B|432:160,1,50,2|0
280,152,14987,1,8
224,232,15216,1,0
160,312,15445,5,2
136,328,15559,1,0
112,312,15674,1,0
48,240,15903,1,8
48,144,16132,1,0
112,72,16361,5,2
136,56,16476,1,2
160,72,16590,1,2
184,56,16705,1,2
208,72,16819,1,2
232,56,16934,2,2,B|392:56,1,150
416,56,17392,6,0,B|464:56,2,50
416,328,17964,2,0,B|466:328,2,50,0|0|2
382,328,18308,2,0,B|232:328,1,150,0|8
136,328,18880,1,0
136,232,19109,5,2
136,208,19224,1,0
136,184,19338,1,0
136,160,19453,1,0
376,160,19796,1,2
376,184,19911,1,2
376,208,20025,1,2
376,232,20140,1,2
256,144,20483,2,2,B|256:256,1,100
256,368,20941,6,0,B|200:368,1,50,2|0
256,304,21170,2,0,B|304:304,1,50
256,16,21628,2,0,B|312:16,1,50
256,80,21857,2,0,B|208:80,1,50,2|0
304,192,22315,1,8
208,192,22544,1,0
112,192,22773,6,0,B|48:192,2,50,2|0|0
256,280,23231,2,0,B|256:336,2,50,8|0|0
400,192,23689,2,2,B|464:192,2,50
368,192,24033,1,2
336,192,24147,1,2
304,192,24262,2,2,B|112:192,1,150,2|6
256,48,28498,5,0
216,136,28727,2,0,B|200:192,1,50,8|0
296,136,29071,2,0,B|312:192,1,50,0|2
256,264,29414,1,0
208,352,29643,1,8
304,352,29872,1,0
400,352,30101,5,2
464,272,30330,2,0,B|464:224,1,50
464,120,30674,2,0,B|464:184,1,50
440,192,30903,2,0,B|264:192,1,150
264,192,31361,1,0
240,192,31476,1,8
216,192,31590,1,0
64,192,31934,1,2
32,96,32163,5,0
64,88,32277,1,0
96,96,32392,1,8
120,112,32506,2,0,B|160:152|160:224|120:272,1,150,0|2
64,328,33079,2,0,B|88:352|120:368|160:360|184:336,1,100,0|8
256,328,33537,1,0
256,328,33651,1,0
256,328,33766,5,2
280,312,34109,1,0
304,296,34453,2,0,B|328:280|360:264|392:280|432:248,1,100,0|2
472,192,34911,1,2
400,120,35140,1,2
376,112,35254,2,2,B|328:120|272:72|224:88,1,150,2|2
40,192,35827,5,0
64,192,35941,1,0
88,192,36056,1,8
112,192,36170,1,0
208,192,36399,2,0,B|360:192,1,150
448,144,36972,1,8
448,240,37201,1,0
352,280,37430,5,2
256,304,37659,1,0
256,304,37773,1,0
160,328,38002,1,0
160,328,38117,2,0,B|128:328|88:312|56:280|32:232|32:184,1,200
32,168,38689,2,0,B|40:136|64:104,2,50,0|8|0
128,56,39262,1,2
256,32,39491,5,0
256,56,39605,1,0
256,80,39720,1,8
256,104,39834,1,0
256,200,40063,2,0,B|256:352,1,150
344,304,40636,2,0,B|344:192,1,100,8|0
440,200,41094,5,2
440,200,41323,1,8
392,72,41552,1,8
392,72,41781,1,0
256,48,42010,2,2,B|144:48,1,100,2|2
128,48,42353,2,2,B|64:48|64:136,1,100,2|0
64,144,42697,2,2,B|64:272,1,100,2|6
64,272,43040,5,0
144,336,43269,2,0,B|192:352|224:304|192:272|160:304|192:352|240:336,1,150
344,336,43842,2,2,B|392:336,1,50
496,336,44185,2,2,B|432:336,1,50,2|8
392,248,44529,1,0
480,192,44758,5,2
256,32,45216,1,8
32,192,45674,1,2
256,352,46132,1,8
384,144,46590,5,2
352,144,46705,1,0
384,240,46934,1,0
352,240,47048,2,0,B|288:224|216:328|360:328|296:224|224:240,1,200,0|2
192,240,47621,1,2
224,144,47850,1,2
192,144,47964,1,8
128,192,48193,1,0
32,192,48422,6,0,B|112:288,1,100,2|0
256,352,48880,2,0,B|360:280,1,100,8|0
472,192,49338,2,0,B|384:120,1,100,2|0
256,32,49796,1,0
256,32,49911,1,0
256,192,50140,5,0
256,192,50254,1,4
256,192,50369,1,0
176,256,50598,2,0,B|144:232|128:192|144:152|176:120,1,150
344,128,51170,2,2,B|376:176,1,50
344,256,51514,2,2,B|376:208,1,50,2|8
472,192,51857,1,0
472,192,52086,5,2
256,32,52544,1,8
32,192,53002,1,2
256,352,53460,1,8
352,312,53689,5,0
400,288,53804,2,0,B|456:248,2,50,0|6|0
304,328,54262,2,0,B|232:208,1,100
224,240,54605,2,0,B|152:112,1,100,0|2
144,152,54949,2,0,B|96:48,1,100
72,64,55292,2,2,B|40:160|96:176|64:264,1,200
136,328,55979,5,0
272,288,56208,1,8
400,240,56437,1,0
400,240,56666,5,2
272,184,56895,1,0
144,128,57124,1,8
168,120,57239,1,0
192,112,57353,1,0
216,104,57468,1,0
240,96,57582,1,2
432,48,58040,6,2,B|464:64|480:96|496:128|496:176|480:208,1,150,2|0
488,200,58498,1,2
488,296,58727,1,2
256,320,59071,1,2
24,296,59414,1,6
96,192,59643,5,0
48,80,59872,2,0,B|80:64|120:64|152:80|176:112,1,124.999998137355,8|0
192,120,60216,1,0
368,192,60559,1,0
464,80,60789,2,0,B|432:64|392:64|360:80|336:112,1,124.999998137355,8|0
256,184,61247,1,2
256,216,61361,1,0
256,248,61476,1,0
184,352,61705,5,8
216,352,61819,2,0,B|320:352,1,62.4999990686774
312,352,62048,2,0,B|360:352|392:320|392:272|392:272|432:264|448:224|448:184,1,187.499997206032,0|2
448,200,62506,2,2,B|456:192|456:160|424:128,2,62.4999990686774
288,96,63079,6,0,B|312:72|344:64,2,62.4999990686774,2|0|0
224,96,63422,2,0,B|200:72|168:64,2,62.4999990686774,0|8|0
304,192,63880,2,0,B|312:232|256:268|256:268|200:232|208:192,1,187.499997206032
104,128,64453,1,8
40,240,64682,1,0
104,344,64911,5,2
136,344,65025,1,2
168,344,65140,1,2
200,344,65254,1,2
232,344,65369,1,2
264,344,65483,1,2
392,344,65712,2,0,B|424:328|448:296|456:264|456:216,1,124.999998137355
424,224,66056,2,2,B|472:120|352:48|352:232|472:184|424:64,1,249.99999627471,2|0
304,40,66743,5,2
320,72,66857,1,0
200,40,67086,1,0
176,72,67201,2,0,B|72:200,1,124.999998137355,8|0
80,200,67544,2,0,B|48:256|96:320|176:296|192:224,1,187.499997206032
256,152,68117,1,8
256,152,68346,1,0
328,256,68575,5,2
360,272,68689,1,0
392,280,68804,1,0
424,272,68918,1,0
440,240,69033,2,0,B|456:200|456:200|376:112,1,124.999998137355,8|0
376,120,69376,2,0,B|304:40|304:40|256:64|216:40,1,187.499997206032,0|2
192,40,69834,2,2,B|160:24|128:32,2,62.4999990686774
256,216,70407,6,0,B|256:152,2,62.4999990686774,2|0|0
256,248,70750,1,0
256,280,70865,2,0,B|256:352,1,62.4999990686774,8|0
384,344,71208,5,0
128,344,71552,1,0
256,248,71781,1,8
256,216,71895,1,0
256,184,72010,1,0
256,152,72124,1,0
256,120,72239,5,2
320,16,72468,1,2
192,16,72697,1,2
256,120,72926,1,2
256,120,73040,1,2
416,216,73384,6,2,B|392:280|320:320,1,124.999998137355,6|0
312,336,73727,2,2,B|256:376|192:336,1,124.999998137355,6|0
168,312,74071,2,0,B|113:283|89:219,1,124.999998137355,6|0
64,96,74529,1,8
64,96,74643,1,0
184,56,74872,1,0
216,40,74987,6,0,B|240:24|280:24,2,62.4999990686774,2|0|0
168,152,75445,1,8
168,152,75559,1,0
216,264,75789,1,0
232,288,75903,6,0,B|232:321|203:350,2,62.4999990686774,2|0|0
256,280,76247,2,0,B|289:291|306:330,2,62.4999990686774,0|8|0
136,240,76705,1,0
104,248,76819,6,0,B|80:264|40:264,2,62.4999990686774,2|0|0
224,200,77277,1,8
224,200,77392,1,0
336,144,77621,1,0
368,136,77735,6,0,B|400:128|432:136,2,62.4999990686774,2|0|0
336,112,78079,2,0,B|344:80|384:56,2,62.4999990686774,0|8|0
320,232,78537,1,0
312,264,78651,2,0,B|312:288|304:320|280:344|240:352,1,124.999998137355,2|0
152,256,79109,1,8
120,248,79224,2,0,B|96:240|72:216|64:176|80:144,1,124.999998137355
96,120,79567,6,2,B|112:88|144:72,1,62.4999990686774
160,56,79796,1,2
192,48,79911,1,2
224,40,80025,2,0,B|256:32|296:40,1,62.4999990686774,8|0
400,80,80369,2,0,B|424:96|448:120|464:160|464:200,1,124.999998137355
464,216,80712,2,2,B|456:248|432:344|256:216|408:128|432:344|320:344|288:344,1,249.99999627471,2|0
88,256,81399,6,0,B|120:264|143:283,1,62.4999990686774,2|0
264,248,81743,2,0,B|240:224|208:216,1,62.4999990686774,0|8
96,168,82086,1,0
80,144,82201,2,0,B|72:112|72:72|104:40|152:24|192:32,1,187.499997206032
304,72,82773,1,8
424,112,83002,1,0
480,224,83231,6,0,B|496:256|488:288,1,62.4999990686774,2|0
480,312,83460,2,0,B|464:336|424:344,1,62.4999990686774
392,344,83689,1,8
360,336,83804,1,0
240,296,84033,2,0,B|202:318|170:310|162:270|162:270|130:294|106:286|90:254,1,187.499997206032,0|2
80,224,84491,1,2
72,192,84605,1,2
72,160,84720,1,2
80,128,84834,2,2,B|80:96|104:64,1,62.4999990686774
120,48,85063,6,0,B|144:24|192:24,2,62.4999990686774,2|0|0
128,88,85407,2,0,B|232:168,1,124.999998137355
288,272,85865,2,0,B|312:304|376:312|408:248|376:200|336:184,1,187.499997206032
272,88,86437,2,0,B|232:56,8,31.2499995343387,8|0|0|0|0|0|0|0|2
392,128,87124,5,0
448,240,87353,1,2
384,352,87582,1,0
352,360,87697,2,2,B|320:368|280:360|240:344|208:312,1,124.999998137355,2|0
208,312,88040,6,2,B|160:256|96:256,1,124.999998137355,6|0
72,240,88384,2,2,B|32:224|32:160|72:136,1,124.999998137355,6|0
100,127,88727,2,2,B|160:128|208:72,1,124.999998137355,6|0
328,40,89185,1,8
440,96,89414,1,0
440,128,89529,2,0,B|440:320,1,187.499997206032,0|2
256,312,90216,1,2
72,312,90559,2,0,B|24:312,16,31.2499995343387,2|0|0|0|0|0|0|0|0|0|0|0|0|0|0|0|2
72,72,91705,5,2
256,72,92048,1,2
432,72,92392,1,6
480,192,99720,6,2,B|304:192,1,149.999995529652,2|0
32,192,100865,2,2,B|208:192,1,150
256,40,101552,5,2
256,192,101895,1,0
256,344,102239,1,0
352,344,102468,1,2
448,344,102697,2,0,B|496:344,3,50,0|0|8|0
400,232,103384,1,2
304,232,103613,5,0
272,232,103727,1,0
240,232,103841,1,8
208,232,103956,1,0
112,232,104185,2,0,B|48:232,2,50,0|2|0
160,144,104643,1,0
176,136,104758,2,0,B|208:112|256:144|256:144|312:112|368:144,1,200,8|2
256,192,105445,12,2,106361
256,192,106705,5,2
112,144,107048,2,0,B|72:192|112:232,1,100,2|0
144,240,107392,2,0,B|176:256|216:256,2,50,0|8|0
144,136,107850,2,0,B|168:120|200:112|240:112|304:112,1,150
384,144,108422,2,0,B|424:192|384:232,1,100,8|0
328,312,108880,2,0,B|256:352|184:312,2,150,2|0|0
424,296,109796,1,2
480,216,110025,2,0,B|480:160,3,50,0|0|8|0
368,64,110712,1,2
272,48,110941,5,0
240,48,111056,1,0
208,56,111170,1,8
176,72,111285,1,0
96,128,111514,2,0,B|40:192|96:264,1,150
160,192,112086,2,0,B|216:192|272:208,1,100,8|0
360,224,112544,5,2
392,360,112773,1,0
280,272,113002,1,8
416,288,113231,1,0
288,344,113460,2,2,B|232:368|160:328,1,100
160,336,113804,2,2,B|120:328|80:304|56:272,1,100,2|2
56,264,114147,2,0,B|32:240|24:192|40:152,1,100,0|6
48,136,114491,5,0
88,48,114720,1,0
120,64,114834,1,8
208,112,115063,1,0
296,152,115292,2,2,B|344:176,1,50
440,152,115636,2,2,B|384:176,1,50,2|8
352,264,115979,1,0
256,304,116208,6,0,B|200:320|184:368,1,100,2|0
200,232,116666,2,0,B|144:232|80:280,1,100,8|0
199,151,117124,2,0,B|144:152|106:121,1,100,2|0
255,79,117582,2,0,B|200:64|184:16,1,100,8|0
320,32,118040,5,2
352,48,118155,1,0
448,56,118384,1,0
424,88,118498,1,8
352,160,118727,1,0
256,160,118956,2,2,B|192:176,1,50
112,216,119300,2,2,B|96:280,1,50,2|8
168,336,119643,1,0
256,304,119872,6,0,B|312:320|328:368,1,100,2|0
312,232,120330,2,0,B|368:232|432:280,1,100,8|0
312,151,120788,2,0,B|368:152|405:121,1,100,2|0
256,80,121247,2,0,B|304:64,1,50,0|0
168,80,121590,1,0
136,72,121705,5,6
104,64,121819,1,0
96,160,122048,1,0
64,168,122163,1,8
96,264,122392,1,0
192,296,122621,2,2,B|256:328,1,50
192,224,122964,2,2,B|248:200,1,50,2|8
328,168,123308,5,0
288,80,123537,2,0,B|336:56|400:96,1,100,2|0
408,112,123880,1,0
432,144,123995,2,0,B|456:192|432:240,1,100,8|0
408,272,124338,1,0
384,296,124453,2,0,B|360:320|336:336|296:344|240:336,2,150,2|0|0
304,240,125369,6,0,B|248:232,1,50,6|0
312,144,125712,2,0,B|96:192|160:0|288:8|312:200|104:136,1,400,0|0
88,136,126743,2,2,B|64:128|32:136|8:160|0:200|8:240|32:264,1,150,2|0
24,264,127201,2,2,B|32:296|56:320|88:336|128:320,1,100,2|0
128,328,127544,1,0
160,328,127659,1,8
256,328,127888,1,0
256,328,128117,1,2
352,328,128346,5,0
384,320,128460,1,0
416,304,128575,1,0
440,288,128689,1,0
464,264,128804,1,0
476,232,128918,1,0
480,200,129033,5,2
320,80,129491,2,2,B|288:40|224:40|184:80,1,150,2|0
168,104,129949,1,0
152,136,130063,1,0
144,168,130178,2,2,B|136:216|104:256|40:264,2,150,6|6|6
352,168,131208,6,0,B|416:200,1,62.4999990686774,0|8
256,88,131666,2,0,B|256:275,1,187.499997206032
376,312,132239,1,8
256,344,132468,1,0
136,312,132697,6,0,B|64:312,1,62.4999990686774,2|0
40,312,132926,1,0
40,312,133040,1,0
40,280,133155,2,0,B|40:192,1,62.4999990686774,8|0
40,96,133498,2,0,B|128:40|136:136|224:96,1,187.499997206032,0|2
248,88,133956,2,2,B|280:72|288:40,2,62.4999990686774
248,296,134529,6,0,B|216:312|208:344,2,62.4999990686774,2|0|0
368,248,134987,1,8
400,232,135101,2,0,B|432:232|448:192|432:144|400:144,1,124.999998137355
368,144,135445,1,2
248,88,135674,2,0,B|248:48|288:24,2,62.4999990686774,0|0|8
216,104,136018,2,0,B|176:112|144:72,2,62.4999990686774
224,144,136361,6,2,B|232:184|176:224,2,62.4999990686774
256,128,136705,2,2,B|296:128|312:192,2,62.4999990686774
128,144,137163,2,0,B|88:136|48:160|40:224|56:248,1,124.999998137355
56,248,137506,2,2,B|56:280|72:312|112:320|112:320|120:360|176:376|224:360|232:328,1,249.99999627471,2|0
176,224,138193,6,0,B|176:296,1,62.4999990686774,2|0
288,224,138537,2,0,B|368:224,1,62.4999990686774,0|8
440,312,138880,1,0
440,280,138995,2,0,B|440:80,1,187.499997206032
328,40,139567,1,8
224,112,139796,1,0
104,72,140025,6,0,B|114:45|160:32,2,62.4999990686774,2|0|0
88,104,140369,2,0,B|64:128|64:184,2,62.4999990686774,0|8|0
160,208,140827,2,0,B|192:240|240:248|288:224|320:184|320:136,1,187.499997206032,0|2
328,136,141285,2,2,B|344:96|376:80,2,62.4999990686774
352,168,141628,2,0,B|376:192|416:200,1,62.4999990686774
440,192,141857,2,0,B|456:168|448:120,2,62.4999990686774,2|0|0
432,224,142201,2,0,B|424:256|392:288,2,62.4999990686774,0|8|0
328,296,142659,6,0,B|304:320|272:336|232:336|176:328|136:296,1,187.499997206032
40,248,143231,1,8
72,232,143346,1,0
104,224,143460,1,0
224,192,143689,1,2
224,64,143918,1,2
352,64,144147,2,2,B|400:56|448:88|440:136,1,124.999998137355
440,160,144491,2,2,B|440:320,1,124.999998137355,2|0
440,320,144834,6,2,B|392:368|304:360,1,124.999998137355,6|0
312,328,145178,2,2,B|256:296|256:296|200:328,1,124.999998137355,6|0
186,361,145521,2,2,B|120:368|72:320,1,124.999998137355,6|0
72,192,145979,2,0,B|72:128,1,62.4999990686774,8|0
168,48,146323,1,0
200,40,146437,6,0,B|272:24,2,62.4999990686774,2|0|0
176,160,146895,2,0,B|224:248,1,62.4999990686774,8|0
272,320,147239,1,0
312,328,147353,6,0,B|384:344,2,62.4999990686774,2|0|0
304,200,147811,1,8
328,184,147926,1,0
432,120,148155,1,0
416,88,148269,6,0,B|360:32,2,62.4999990686774,2|0|2
448,88,148613,2,2,B|496:40,2,62.4999990686774
320,104,149071,1,0
288,104,149185,5,2
256,104,149300,1,0
224,104,149414,1,0
192,104,149529,2,0,B|128:104,2,62.4999990686774,0|8|0
96,24,149987,6,0,B|56:40|24:104|56:176|96:192,1,187.499997206032
208,184,150559,2,0,B|248:208|248:272|208:304,1,124.999998137355,8|0
104,248,151018,2,2,B|64:272|64:328|104:352,1,124.999998137355
136,352,151361,1,2
168,352,151476,2,2,B|240:352,1,62.4999990686774,2|0
352,352,151819,2,0,B|384:352|416:336|440:304|440:256,1,124.999998137355
440,240,152163,2,2,B|440:56,1,124.999998137355,2|0
440,80,152506,1,0
256,48,152850,5,2
224,48,152964,1,0
96,48,153193,1,0
64,48,153308,1,8
32,168,153537,1,0
64,168,153651,2,0,B|256:168,1,187.499997206032
352,248,154224,1,8
256,328,154453,1,0
128,328,154682,5,2
32,248,154911,2,0,B|120:248,1,62.4999990686774
128,248,155140,2,0,B|208:248,1,62.4999990686774,8|0
256,144,155483,2,0,B|288:112|336:88|384:112|424:152,1,187.499997206032,0|2
448,176,155941,2,2,B|472:200|504:208,2,62.4999990686774
424,200,156285,2,0,B|416:232|432:272,1,62.4999990686774
432,296,156514,6,0,B|464:304|496:336,2,62.4999990686774,2|0|0
392,296,156857,1,0
360,296,156972,2,0,B|328:296|280:312,1,62.4999990686774,8|0
176,320,157315,2,0,B|144:328|96:312|56:280|80:208|112:176,1,187.499997206032
208,136,157888,2,0,B|216:176|184:232|144:256,1,124.999998137355,8|0
24,304,158346,5,2
24,176,158575,1,0
24,48,158804,2,0,B|96:48,1,62.4999990686774,2|0
208,48,159147,2,0,B|240:48|272:64|304:104|296:152,1,124.999998137355
296,160,159491,2,2,B|304:192|328:224|360:248|400:232|424:200|440:168,2,187.499997206032,6|2|2
344,48,160407,5,0
456,112,160636,1,8
480,232,160865,1,0
472,264,160979,2,0,B|472:296|456:328|424:352|368:352,1,124.999998137355
360,344,161323,2,2,B|320:344|288:320|288:224|208:240|176:272,2,187.499997206032
384,224,162239,5,0
296,136,162468,1,8
176,96,162697,1,0
144,88,162811,2,0,B|112:80|72:80|40:96|24:136,1,124.999998137355
24,152,163155,2,0,B|24:224,1,62.4999990686774,2|0
24,248,163384,2,0,B|24:304,8,31.2499995343387,0|0|2|0|0|0|0|0|6
256,192,164071,12,4,165674
32,192,171170,6,2,B|240:192|240:192|248:184|248:184|264:200|264:200|288:176|288:176|320:208|320:208|352:176|352:176|376:200|376:200|392:184|392:184|400:192|400:192|472:192,1,500,2|0
464,288,172544,1,8
432,304,172659,1,0
400,320,172773,1,0
368,336,172888,1,0
320,352,173002,5,2
304,320,173117,1,0
288,288,173231,1,0
272,256,173346,1,0
248,216,173460,5,8
216,232,173575,1,0
184,240,173689,2,0,B|152:256|128:248|88:224|64:184|64:128|104:96,1,200,0|2
96,88,174262,2,2,B|104:56|120:24,2,50
128,112,174605,2,0,B|152:128|208:128,1,50
224,136,174834,5,2
256,144,174949,1,0
288,152,175063,1,0
320,160,175178,1,0
360,128,175292,5,8
376,160,175407,1,0
392,192,175521,1,0
408,224,175636,1,0
448,256,175750,5,2
424,280,175865,1,0
400,304,175979,1,0
376,328,176094,1,0
328,344,176208,5,8
296,344,176323,2,0,B|272:344|272:344|264:336|264:336|256:344|256:344|248:352|248:352|240:344|240:344|120:344,1,150,0|2
128,344,176781,1,2
96,344,176895,1,0
64,344,177010,1,0
32,304,177124,5,8
40,272,177239,1,0
48,240,177353,1,0
56,208,177468,1,0
96,176,177582,5,0
128,176,177697,2,2,B|176:176|176:176|184:168|184:168|192:176|192:176|200:184|200:184|208:176|208:176|392:176,1,250,0|0
448,128,178498,1,2
424,104,178613,1,2
400,80,178727,1,2
376,56,178842,2,0,B|376:16,2,25
352,80,179071,5,2
328,104,179185,1,2
304,128,179300,1,2
280,152,179414,1,0
256,176,179529,2,0,B|256:216,2,25
224,160,179758,6,2,B|184:128,1,50,2|2
160,112,179987,2,0,B|160:80,2,25,2|0|0
128,128,180216,2,0,B|88:160,1,50,0|2
64,176,180445,2,0,B|24:176,2,25,2|0|0
88,200,180674,2,2,B|128:240,1,50,2|2
144,256,180903,1,0
168,280,181018,2,2,B|192:312|216:336|288:336|320:312|336:280,1,200,2|2
360,256,181590,2,2,B|392:208,2,50
488,336,182163,5,0
488,240,182392,2,0,B|488:184,1,50
488,160,182621,2,0,B|488:96,1,50,8|0
480,80,182850,2,0,B|384:24,1,100,0|2
376,128,183308,1,0
344,112,183422,1,0
312,96,183537,2,0,B|224:48,1,100,8|0
128,48,183995,5,2
112,72,184109,1,2
96,96,184224,1,2
144,224,184453,5,2
136,256,184567,1,2
128,288,184682,1,2
256,224,184911,5,2
288,248,185025,1,2
320,272,185140,1,2
336,112,185369,5,2
376,88,185483,1,2
416,64,185598,1,2
232,80,185827,6,0,B|240:24,2,50,2|0|0
152,144,186285,1,0
56,184,186514,2,0,B|0:208,2,50,2|0|0
64,280,186972,2,2,B|80:312|104:336|144:360|192:368|240:360,1,200,2|0
336,344,187659,5,0
392,312,187811,1,0
432,256,187964,1,0
448,192,188117,1,0
432,128,188269,1,0
392,72,188422,1,0
336,40,188575,1,0
312,192,188880,2,2,B|152:192,2,133.333333333333,2|2|6
88,112,190636,5,0
64,224,190979,1,0
40,336,191323,1,2
424,272,192468,5,0
448,160,192811,1,0
472,48,193155,1,2
256,120,194300,5,0
256,232,194644,1,0
256,344,194987,1,2
352,80,196132,6,2,B|320:32|256:8|192:32|160:80,1,224.999993294478,2|2
304,344,197964,5,0
392,272,198308,1,0
480,200,198651,1,2
208,40,199796,5,0
120,112,200140,1,0
32,184,200483,1,2
296,320,201399,6,0,B|352:160,1,149.999995529652
216,96,202315,1,2
188,164,202544,1,2
160,232,202773,1,2
128,304,203002,2,2,B|104:360,1,37.4999988824129
40,256,203460,2,2,B|40:152,1,74.9999977648259,6|0
40,144,203804,2,2,B|104:64,1,74.9999977648259,6|0
112,64,204147,6,2,B|144:32|184:24|240:40,1,124.999998137355,6|0
344,80,204605,2,0,B|368:96|392:128,1,62.4999990686774,8|0
432,240,204949,1,0
448,272,205063,6,0,B|456:312|488:336,2,62.4999990686774,2|0|0
352,192,205521,1,8
320,208,205636,1,0
208,264,205865,1,0
176,280,205979,6,0,B|147:297|112:296,3,62.4999990686774,2|0|0|0
88,288,206437,2,0,B|56:280|48:240,1,62.4999990686774,8|0
40,120,206781,1,0
72,96,206895,6,0,B|128:64,2,62.4999990686774,2|0|2
32,88,207239,2,2,B|24:16,2,62.4999990686774
152,192,207697,1,0
128,160,207811,6,0,B|64:192,2,62.4999990686774,2|0|0
160,148,208155,1,0
192,136,208269,2,0,B|248:112,1,62.4999990686774,8|0
368,64,208613,6,0,B|400:48|440:72|464:112|464:160,1,124.999998137355
464,160,208956,1,0
464,192,209071,2,0,B|464:224|448:256,1,62.4999990686774,0|8
432,280,209300,1,0
408,304,209414,2,0,B|384:328|352:344|320:352|280:344,1,124.999998137355,0|2
264,336,209758,6,2,B|232:320|192:328,2,62.4999990686774
296,304,210101,2,2,B|304:264|288:224,1,62.4999990686774
280,120,210445,2,0,B|272:88|248:56|200:48|168:64,1,124.999998137355
152,64,210789,2,2,B|104:80|40:152|24:208|24:208|112:240,1,249.99999627471,2|0
200,240,211476,6,0,B|264:224,1,62.4999990686774,2|0
376,264,211819,1,0
408,256,211934,2,0,B|472:232|472:232|472:128,1,124.999998137355,8|0
472,144,212277,2,0,B|472:96|440:48|392:32|336:48,1,187.499997206032
216,72,212850,1,8
96,96,213079,1,0
64,216,213308,6,0,B|40:184|40:144,2,62.4999990686774,2|0|0
80,248,213651,1,0
104,280,213766,2,0,B|120:304|152:320,1,62.4999990686774,8|0
272,336,214109,2,0,B|320:344|360:328|384:280|384:280|376:264|376:264|384:256|384:256|384:224,1,187.499997206032,0|2
384,200,214567,2,2,B|384:136,2,62.4999990686774
352,216,214911,2,0,B|264:216,1,62.4999990686774
256,216,215140,5,2
224,216,215254,1,0
192,216,215369,1,0
160,200,215483,2,0,B|112:176|112:128|160:104,1,124.999998137355
280,144,215941,2,0,B|312:144|352:128|352:48|312:24|272:24,1,187.499997206032
144,24,216514,1,8
112,32,216628,1,0
80,48,216743,1,0
60,76,216857,1,0
48,112,216972,5,2
48,240,217201,1,0
128,336,217430,1,2
208,240,217659,1,0
208,208,217773,2,2,B|208:184|256:160|312:184|312:224,1,124.999998137355,2|0
312,240,218117,6,2,B|312:280|344:320|392:320,1,124.999998137355,6|0
416,320,218460,2,2,B|463:320|495:280|495:240,1,124.999998137355,6|0
496,208,218804,2,2,B|496:72,1,124.999998137355,6|0
416,176,219262,1,0
416,48,219491,1,0
384,48,219605,2,0,B|184:48,1,187.499997206032,0|2
72,192,220292,1,2
192,336,220636,5,2
224,336,220750,1,0
256,336,220865,1,0
288,336,220979,1,0
320,336,221094,1,0
352,336,221208,1,0
384,336,221323,1,0
416,336,221437,1,0
448,336,221552,1,0
464,192,221781,5,2
256,192,222124,1,2
48,192,222468,1,2
256,192,222697,12,4,224300
256,192,225674,5,6
224,40,226132,2,0,B|296:40,3,50,2|0|0|0
296,344,226819,2,0,B|224:344,3,50,0|0|2|0
208,200,227506,1,8
304,176,227735,1,0
464,144,227964,5,2
480,176,228079,1,0
480,208,228193,1,0
464,240,228308,1,0
48,240,228651,1,2
32,208,228766,1,2
32,176,228880,1,2
48,144,228995,1,2
208,200,229338,2,2,B|328:168,1,100
256,32,229796,6,0,B|192:48,1,50,2|0
256,104,230025,2,0,B|320:88,1,50
256,352,230483,2,0,B|192:336,1,50
256,280,230712,2,0,B|320:296,1,50,2|0
208,176,231170,1,8
304,208,231399,1,0
400,192,231628,6,0,B|440:160,2,50,2|0|0
256,112,232086,2,0,B|256:64,2,50,8|0|0
112,192,232544,2,2,B|72:160,2,50
136,216,232888,2,2,B|192:256,1,50
200,264,233117,2,2,B|256:304|256:304|336:256,1,150
352,248,233575,6,0,B|384:248|408:264,2,50
184,120,234147,1,0
160,136,234262,2,0,B|128:136|104:120,2,50,0|2|0
312,192,234834,1,8
200,192,235063,1,0
48,256,235292,6,0,B|96:296,1,50,2|0
112,312,235521,2,0,B|168:352,1,50
464,128,235979,2,2,B|416:88,1,50
400,72,236208,2,2,B|352:32,1,50
256,248,236666,1,2
256,136,236895,1,2
120,192,237124,5,2
88,192,237239,2,0,B|24:192,2,50
392,192,237811,1,0
424,192,237926,2,0,B|488:192,2,50,0|2|0
256,192,238498,1,8
256,192,238727,1,0
296,288,238956,5,2
256,288,239071,1,2
216,288,239185,1,2
120,232,239414,1,2
120,192,239529,1,2
120,152,239643,1,2
216,96,239872,5,2
256,96,239987,1,2
296,96,240101,2,2,B|352:96,1,50
384,96,240330,1,2
416,120,240445,2,2,B|456:192|416:264,1,150,2|2
344,344,241018,6,2,B|280:360,1,50
256,360,241247,2,2,B|200:360,1,50
96,360,241590,1,2
168,40,241934,6,2,B|232:24,1,50
256,24,242163,2,2,B|312:24,1,50
472,24,242621,1,2
328,192,243079,6,0,B|312:216,3,25
288,240,243308,2,0,B|256:248,3,25
232,248,243537,2,0,B|192:232,3,25
184,216,243766,2,0,B|168:176,3,25
176,160,243995,2,0,B|184:128,3,25
200,104,244224,2,0,B|232:72,3,25
248,72,244453,2,0,B|280:72,3,25
304,88,244682,2,0,B|336:112,3,25
352,128,244911,2,0,B|384:152,3,25
384,176,245140,2,0,B|392:208,3,25
392,232,245369,1,0
344,336,245598,5,2
192,344,245941,1,2
72,248,246285,1,6
200,48,246743,5,0
296,40,246972,2,2,B|336:40|368:56|400:104,1,100,6|0
424,192,247430,1,0
400,288,247659,2,2,B|392:312|352:344|312:360|256:368|208:352,1,200,6|4
