osu file format v10

[General]
AudioFilename: Beginner.mp3
AudioLeadIn: 0
PreviewTime: 52650
Countdown: 0
SampleSet: Normal
StackLeniency: 0.7
Mode: 0
LetterboxInBreaks: 1

[Editor]
DistanceSpacing: 0.9
BeatDivisor: 4
GridSize: 8

[Metadata]
Title:Beginner
TitleUnicode:Beginner
Artist:AKB48
ArtistUnicode:AKB48
Creator:Pink Agate
Version:Normal
Source:
Tags:Breeze j-pop Jurina&Mayuyu
BeatmapID:174251
BeatmapSetID:50144

[Difficulty]
HPDrainRate:3
CircleSize:3
OverallDifficulty:3
ApproachRate:4
SliderMultiplier:0.99999990463257
SliderTickRate:2

[Events]
//Background and Video events
0,0,"background.jpg"
Video,0,"AKB48_18_Beginner_Jurina&2BMayuyu_Ver.avi"
//Break Periods
2,76670,78350
2,91869,102350
//Storyboard Layer 0 (Background)
//Storyboard Layer 1 (Fail)
//Storyboard Layer 2 (Pass)
//Storyboard Layer 3 (Foreground)
//Storyboard Sound Samples
//Background Colour Transformations
3,100,163,162,255

[TimingPoints]
16670,375,4,1,0,60,1,0
27357,-100,4,1,0,40,0,0
27920,-100,4,2,0,40,0,0
28670,-100,4,1,0,60,0,0
52670,-100,4,1,0,80,0,1
52857,-100,4,1,0,60,0,1
64670,-100,4,1,0,80,0,1
64857,-100,4,1,0,60,0,1
70670,-100,4,1,0,80,0,1
70857,-100,4,1,0,60,0,1
76295,-100,4,1,0,60,0,0
79670,-100,4,1,0,80,0,0
79857,-100,4,1,0,60,0,0
85670,-100,4,1,0,80,0,0
85857,-100,4,1,0,60,0,0
91670,-100,4,1,0,80,0,0
103670,-100,4,2,0,60,0,0
115670,-100,4,1,0,80,0,1
115857,-100,4,1,0,60,0,1
121670,-100,4,1,0,80,0,1
121857,-100,4,1,0,60,0,1
140045,-100,4,1,0,80,0,1
140795,-100,4,1,0,60,0,1
141545,-100,4,1,0,80,0,1
141920,-100,4,1,0,60,0,1
146045,-100,4,2,0,60,0,0
147920,-100,4,2,0,80,0,0
148107,-100,4,2,0,60,0,0
151670,-100,4,1,0,80,0,1
151763,-100,4,1,0,80,0,0

[Colours]
Combo1 : 255,255,255
Combo2 : 255,128,255
Combo3 : 128,128,255
SliderBorder : 255,255,255

[HitObjects]
256,200,16107,38,4,B|256:128,3,49.9999952316285,0|0|0|4,0:0|0:0|0:0|0:0,0:0:0
288,64,17045,6,0,B|384:96,1,99.999990463257,0|8,0:0|0:0,0:0:0
424,224,18357,6,0,B|329:192,1,99.999990463257,0|0,0:0|0:0,0:0:0
288,208,18920,2,0,B|312:264|288:320,2,99.999990463257,8|0|4,0:0|0:0|0:0,0:0:0
216,264,20045,6,0,B|120:312,1,99.999990463257,0|8,0:0|0:0,0:0:0
56,96,21357,6,0,B|145:51,1,99.999990463257
192,48,21920,2,0,B|168:104|200:152,2,99.999990463257,8|0|4,0:0|0:0|0:0,0:0:0
272,88,23045,6,0,B|384:120,1,99.999990463257,0|8,0:0|0:0,0:0:0
280,320,24357,6,0,B|369:275,1,99.999990463257
400,240,24920,2,0,B|424:192|400:144,2,99.999990463257,8|0|4,0:0|0:0|0:0,0:0:0
320,192,26045,6,0,B|230:236,1,99.999990463257,0|8,0:0|0:0,0:0:0
272,40,27357,6,0,B|184:88,1,99.999990463257
144,112,27920,2,0,B|56:161,1,99.999990463257,2|0,0:0|0:0,0:0:0
16,240,28670,22,0,B|88:288|155:235,1,149.999985694886
192,208,29420,2,0,B|243:189|296:232,1,99.999990463257,8|0,0:0|0:0,0:3:0
232,296,30170,2,0,B|180:314|172:370,2,99.999990463257,0|0|8,0:0|0:0|0:0,0:0:0
320,288,31295,1,0,0:0:0
320,288,31670,6,0,P|400:320|464:240,1,199.999980926514,0|8,0:0|0:0,0:0:0
376,208,32795,1,0,0:0:0
440,144,33170,2,0,B|496:120|496:64,2,99.999990463257,0|0|8,0:0|0:0|0:0,0:0:0
336,120,34295,1,0,0:0:0
336,120,34670,6,0,B|304:200|192:184,1,149.999985694885,4|0,0:0|0:0,0:0:0
176,216,35420,2,0,B|136:176|160:112,1,99.999990463257,8|0,0:0|0:0,0:0:0
224,56,36170,2,0,B|304:0|416:40,1,199.999980926514,0|8,0:0|0:0,0:0:0
376,120,37295,1,0,0:0:0
376,120,37670,6,0,B|296:160|320:264,1,149.999985694885
288,280,38420,2,0,B|240:312|184:280,1,99.999990463257,8|0,0:0|0:0,0:0:0
128,216,39170,2,0,B|152:136|88:72,1,149.999985694886,0|0,0:0|0:0,0:0:0
136,56,39920,2,0,B|176:88|232:64,1,99.999990463257,8|0,0:0|0:0,0:0:0
320,64,40670,6,0,B|312:168|216:184,1,149.999985694886
216,216,41420,2,0,B|248:272,1,49.9999952316285,8|0,0:0|0:0,0:0:0
248,352,41982,2,0,B|328:360|384:240|304:168,1,249.999976158143,0|8,0:0|0:0,0:0:0
168,48,43670,6,0,B|138:122|48:128,1,149.999985694886
48,176,44420,2,0,B|77:271,1,99.999990463257,8|0,0:0|0:0,0:0:0
152,328,45170,2,0,B|200:296|256:328,2,99.999990463257,0|0|8,0:0|0:0|0:0,0:0:0
232,72,46670,6,0,B|312:104|312:208,1,149.999985694886
272,216,47420,2,0,B|216:224|208:288,1,99.999990463257,8|0,0:0|0:0,0:0:0
224,328,47982,2,0,B|296:360|408:320|416:216,1,249.999976158143,0|8,0:0|0:0,0:0:0
256,192,49670,12,0,51170,0:0:0
112,48,52670,6,0,B|160:120|248:112,1,149.999985694886,4|0,0:0|0:0,0:0:0
280,104,53420,2,0,B|296:160|256:208,1,99.999990463257,8|0,0:0|0:0,0:0:0
224,224,53982,2,0,B|272:320|176:392|88:336,1,249.999976158143,0|8,0:0|0:0,0:0:0
136,256,55295,5,0,0:0:0
136,256,55670,2,0,B|96:224|104:160,1,99.999990463257
160,88,56420,2,0,B|216:64|272:96,1,99.999990463257,8|0,0:0|0:0,3:0:0
256,136,56982,2,0,B|384:144|328:16|472:32,1,249.999976158143,0|8,0:0|0:0,0:0:0
488,224,58670,6,0,B|424:272|368:200|288:256,1,199.999980926514,4|8,0:0|0:0,0:0:0
152,360,60170,2,0,B|216:312|272:384|352:328,1,199.999980926514,0|8,0:0|0:0,0:0:0
280,80,61670,6,0,B|216:128|216:128|136:128,1,149.999985694886
104,128,62420,1,8,0:0:0
24,176,62795,1,0,0:0:0
24,264,63170,1,0,0:0:0
104,304,63545,1,0,0:0:0
192,296,63920,2,0,B|248:296|248:296|296:272,1,99.999990463257,8|0,0:0|0:0,0:0:0
376,208,64670,6,0,B|464:144|416:16,2,199.999980926514,4|8|0,0:0|0:0|0:0,0:0:0
344,240,66357,2,0,B|304:272,1,49.9999952316285
224,312,66920,1,8,0:0:0
136,320,67295,6,0,B|80:336|40:272|72:192|136:208,1,199.999980926514
88,128,68420,2,0,B|136:104|184:136,1,99.999990463257,8|0,0:0|0:0,0:0:0
224,112,68982,2,0,B|240:56|304:48,2,99.999990463257,0|0|0,0:0|0:0|0:0,0:0:0
296,192,70295,1,0,0:0:0
296,192,70670,6,0,B|320:312|440:328,1,199.999980926514,4|8,0:0|0:0,0:0:0
456,240,71795,1,0,0:0:0
456,240,72170,2,0,B|432:120|312:104,1,199.999980926514,0|8,0:0|0:0,0:0:0
240,96,73295,5,0,0:0:0
240,96,73670,2,2,B|216:48|152:56,1,99.999990463257,0|0,0:0|0:0,0:0:0
168,144,74420,2,2,B|192:192|256:184,1,99.999990463257,8|0,0:0|0:0,0:0:0
336,216,75170,2,2,B|360:160|312:120,1,99.999990463257,0|0,0:0|0:0,0:0:0
312,32,75920,2,2,B|368:32|400:80,1,99.999990463257,8|0,0:0|0:0,0:0:0
256,280,79670,6,0,B|344:272|360:176,1,149.999985694886,4|0,0:0|0:0,0:0:0
336,144,80420,2,0,B|272:56,1,99.999990463257,8|0,0:0|0:0,0:0:0
352,16,81170,2,0,B|410:96,1,99.999990463257,0|0,0:0|0:0,0:0:0
464,168,81920,1,8,0:0:0
384,328,82670,6,0,B|440:312|448:248,2,99.999990463257,0|0|8,0:0|0:0|0:0,0:0:0
360,240,83795,1,0,0:0:0
328,152,84170,2,0,B|272:168|264:232,2,99.999990463257,0|0|8,0:0|0:0|0:0,0:0:0
360,240,85295,1,0,0:0:0
360,240,85670,6,0,B|448:184|416:48,1,199.999980926514,4|8,0:0|0:0,0:0:0
336,40,86795,1,0,0:0:0
336,40,87170,2,2,B|304:0|224:16|208:64,2,149.999985694886,4|0|0,0:0|0:0|0:0,0:0:0
280,112,88670,5,0,0:0:0
280,112,89045,1,0,0:0:0
304,200,89420,1,8,0:0:0
304,200,89795,1,0,0:0:0
224,240,90170,6,0,B|256:336,2,99.999990463257,0|0|8,0:0|0:0|0:0,0:0:0
192,160,91295,2,0,B|160:64,1,99.999990463257,0|4,0:0|0:0,0:0:0
8,224,103670,6,0,B|32:312|112:320,1,149.999985694886,4|0,0:0|0:0,0:0:0
144,288,104420,2,0,B|168:240|232:248,1,99.999990463257,8|0,0:0|0:0,0:0:0
248,288,104982,2,0,B|296:368|432:320|424:208,1,249.999976158143,0|8,0:0|0:0,0:0:0
320,216,106295,5,0,0:0:0
320,216,106670,2,0,B|352:160|320:112,1,99.999990463257
256,56,107420,2,0,B|200:48|160:96,1,99.999990463257,8|0,0:0|0:0,0:0:0
128,120,107982,2,0,B|104:192|128:264|224:288|280:248,1,249.999976158143,0|8,0:0|0:0,0:0:0
280,136,109670,6,0,B|336:96|432:144|416:224,1,199.999980926514,0|8,0:0|0:0,0:0:0
280,136,111170,2,0,B|295:61|199:13|143:53,1,199.999980926514,0|8,0:0|0:0,0:0:0
56,120,112670,6,0,B|32:176|104:248|184:208,1,199.999980926514,0|8,0:0|0:0,0:0:0
232,288,113795,1,0,0:0:0
312,240,114170,2,0,B|376:232|392:176,1,99.999990463257,0|0,0:0|0:0,0:0:0
312,144,114920,2,0,B|265:115|209:134,1,99.999990463257,8|0,0:0|0:0,0:0:0
128,104,115670,6,0,B|176:32|264:48,1,149.999985694886,4|0,0:0|0:0,0:0:0
304,56,116420,2,0,B|352:88|408:64,1,99.999990463257,8|0,0:0|0:0,0:0:0
440,80,116982,2,0,B|504:128|472:280|368:264,1,249.999976158143,0|8,0:0|0:0,0:0:0
368,176,118295,1,0,0:0:0
368,176,118670,6,0,B|280:208|240:128,1,149.999985694886
200,112,119420,2,0,B|176:168|120:168,1,99.999990463257,8|0,0:0|0:0,0:0:0
112,216,119982,2,0,B|80:168|16:184,2,99.999990463257,0|0|0,0:0|0:0|0:0,0:0:0
224,288,121295,5,0,0:0:0
224,288,121670,2,0,B|216:216|280:168|360:200,1,199.999980926514,4|8,0:0|0:0,0:0:0
352,288,122795,1,0,0:0:0
352,288,123170,6,0,B|280:296|232:232|264:152,1,199.999980926514,0|8,0:0|0:0,0:0:0
280,64,124295,1,0,0:0:0
192,64,124670,6,0,B|112:144,1,99.999990463257
104,224,125420,2,0,B|216:235,1,99.999990463257,8|0,0:0|0:0,0:0:0
264,168,126170,2,0,B|315:268,1,99.999990463257,4|0,0:0|0:0,0:0:0
400,256,126920,2,0,B|470:185,1,99.999990463257,8|0,0:0|0:0,0:0:0
448,96,127670,6,0,B|448:32,2,49.9999952316285,0|0|2,0:0|0:0|0:0,0:0:0
360,96,128420,2,0,P|320:128|264:128,1,99.999990463257,8|0,0:0|0:0,0:0:0
192,168,129170,2,0,B|192:224,2,49.9999952316285,0|0|2,0:0|0:0|0:0,0:0:0
144,96,129920,2,0,P|112:64|56:64,1,99.999990463257,8|0,0:0|0:0,0:0:0
48,152,130670,6,2,P|24:272|168:328,1,299.999971389771,0|0,0:0|0:0,0:0:0
240,280,132170,2,0,P|272:240|328:232,2,99.999990463257,0|0|8,0:0|0:0|0:0,0:0:0
392,184,133670,6,0,B|392:128,2,49.9999952316285,0|0|2,0:0|0:0|0:0,0:0:0
304,152,134420,2,0,P|256:120|208:128,1,99.999990463257,8|0,0:0|0:0,0:0:0
144,184,135170,2,0,B|144:240,2,49.9999952316285,0|0|2,0:0|0:0|0:0,0:0:0
96,104,135920,2,0,P|64:136|56:192,1,99.999990463257,8|0,0:0|0:0,0:0:0
72,280,136670,6,2,P|144:328|304:216,1,299.999971389771,2|0,0:0|0:0,0:0:0
280,136,138170,2,0,B|264:80|200:80,2,99.999990463257,2|0|8,0:0|0:0|0:0,0:0:0
200,176,139295,1,0,0:0:0
200,176,139670,6,0,B|176:224|104:224,1,99.999990463257,2|4,0:0|0:0,0:0:0
256,104,140795,1,0,0:0:0
256,104,141170,2,0,B|280:56|352:56,1,99.999990463257,6|4,0:0|0:0,0:0:0
424,80,141920,5,8,0:0:0
440,168,142295,1,0,0:0:0
408,248,142670,2,0,B|376:288|312:280,1,99.999990463257
240,232,143420,2,0,B|232:176|176:160,1,99.999990463257,8|0,0:0|0:0,0:0:0
144,248,144170,2,0,B|88:272|40:232,2,99.999990463257,0|0|8,0:0|0:0|0:0,0:0:0
320,48,146045,6,0,B|264:144|328:240,1,199.999980926514,2|0,0:0|0:0,0:0:0
368,256,146982,2,0,B|264:200|168:272,1,199.999980926514,2|0,0:0|0:0,0:0:0
136,272,147920,2,0,B|96:240|104:168,1,99.999990463257,8|0,0:0|0:0,0:0:0
256,192,148670,12,4,151670,0:0:0
