osu file format v9

[General]
AudioFilename: 01.mp3
AudioLeadIn: 0
PreviewTime: -1
Countdown: 0
SampleSet: Normal
StackLeniency: 0.7
Mode: 0
LetterboxInBreaks: 1

[Editor]
Bookmarks: 102812
DistanceSpacing: 1.6
BeatDivisor: 4
GridSize: 8

[Metadata]
Title:Aitakatta
Artist:AKB48
Creator:miccoliasms
Version:Insane
Source:
Tags:

[Difficulty]
HPDrainRate:7
CircleSize:4
OverallDifficulty:8
ApproachRate:8
SliderMultiplier:1.6
SliderTickRate:1

[Events]
//Background and Video events
0,0,"01.jpg"
//Break Periods
//Storyboard Layer 0 (Background)
//Storyboard Layer 1 (Fail)
//Storyboard Layer 2 (Pass)
//Storyboard Layer 3 (Foreground)
//Storyboard Sound Samples
//Background Colour Transformations
3,100,163,162,255

[TimingPoints]
2812,312.5,4,1,0,80,1,0

[Colours]
Combo1 : 128,255,128
Combo2 : 255,128,64
Combo3 : 128,0,255
Combo4 : 255,128,255

[HitObjects]
176,56,2812,2,0,B|96:40|96:40,2,80
240,104,3280,2,0,B|320:120|320:120,2,80
168,136,3749,2,0,B|120:160|128:216|128:216,1,80
208,208,4062,6,0,B|248:240|296:216|296:216,2,80
192,288,4530,2,0,B|152:256|104:280|104:280,2,80,0|0|0
248,344,4999,1,0
248,344,5155,1,0
320,312,5312,2,0,B|400:272|400:272,1,80,8|0
416,152,5624,2,0,B|336:192|336:192,1,80,0|0
392,360,5937,6,0,B|472:320|472:320,1,80,8|0
344,104,6249,2,0,B|264:144|264:144,1,80
208,192,6562,1,8
168,264,6718,1,0
176,344,6874,1,8
176,344,7030,1,0
104,304,7187,2,0,B|32:232|96:136|96:136,2,160,8|0|4
176,344,7968,5,0
256,344,8124,1,0
336,320,8280,2,0,B|432:280|408:184|408:184,1,160
368,72,8749,2,0,B|320:88|328:136|328:136,1,80,8|0
296,208,9062,6,0,B|264:248|208:232|208:232,2,80,4|0|0
376,208,9530,2,0,B|464:248|448:352|448:352,1,160
456,168,9999,2,0,B|416:144|424:96|424:96,1,80,8|0
456,24,10312,1,4
376,32,10468,1,0
352,112,10624,1,0
432,104,10780,2,0,B|496:184|432:264|432:264,1,160
384,312,11249,1,8
384,312,11405,1,0
256,360,11562,5,0
24,192,11874,1,6
256,24,12187,1,6
488,192,12499,1,6
256,360,12812,6,0,B|160:376|160:376,2,80,4|0|0
320,312,13280,2,0,B|416:296|416:296,1,80
280,248,13593,2,0,B|184:264|184:264,2,80,0|8|0
344,200,14062,1,4
392,136,14218,1,0
400,56,14374,1,0
464,104,14530,2,0,B|512:184|464:264|464:264,1,160
344,200,14999,2,0,B|296:168|320:104|320:104,1,80,8|0
280,256,15312,6,0,B|328:288|304:352|304:352,2,80,4|0|0
224,200,15780,2,0,B|144:256|64:200|64:200,1,160
168,120,16249,2,0,B|208:88|256:120|256:120,1,80,8|0
344,192,16562,5,0
168,192,16874,1,6
512,192,17187,5,6
0,192,17499,1,6
256,384,17812,5,4
256,0,18124,2,0,B|200:80|256:152|256:152,1,160,4|0
240,280,18593,2,0,B|240:224|184:200|184:200,1,80,0|8
128,184,18905,1,0
88,112,19062,2,0,B|128:88|168:112|168:112,1,80
128,184,19374,1,8
128,264,19530,2,0,B|112:280|144:288|112:304|144:320|112:328|128:344|128:344,2,80
200,224,19999,2,0,B|240:248|280:224|280:224,1,80,8|0
344,184,20312,1,4
344,184,20624,6,0,B|408:96|336:24|336:24,1,160,4|0
272,144,21093,2,0,B|248:184|272:224|272:224,2,80,0|8|0
344,184,21562,2,0,B|384:216|432:184|432:184,1,80
488,144,21874,1,8
488,144,22030,1,0
464,64,22187,1,0
392,24,22343,1,0
392,24,22421,1,0
392,24,22499,1,8
320,64,22655,1,0
320,64,22733,1,0
320,64,22812,6,0,B|240:120|160:56|160:56,1,160,4|8
104,112,23280,2,0,B|152:192|96:272|96:272,1,160
40,320,23749,1,8
40,320,23905,1,0
112,352,24062,2,0,B|192:384|272:352|272:352,2,160,0|8|0
40,320,24843,2,0,B|80:272|32:224|32:224,1,80,0|8
24,120,25155,6,0,B|72:208|160:184|160:184,1,160
288,184,25624,2,0,B|256:128|200:152|200:152,1,80,8|0
160,256,25937,2,0,B|192:312|248:288|248:288,1,80
304,280,26249,1,8
360,224,26405,1,0
360,144,26562,6,0,B|376:48|472:40|472:40,1,160,0|8
488,192,27030,2,0,B|472:288|376:296|376:296,1,160
304,280,27499,1,8
304,280,27655,1,0
232,248,27812,6,0,B|152:200|72:248|72:248,1,160,0|8
256,56,28437,2,0,B|336:104|416:56|416:56,1,160,0|8
256,384,29062,1,0
512,192,29374,1,8
256,384,29687,1,0
0,192,29999,1,8
256,0,30312,6,0,B|296:24|344:0|344:0,2,80,0|0|8
184,32,30780,2,0,B|144:8|96:32|96:32,2,80,0|0|0
248,80,31249,2,0,B|240:128|304:160|304:160,1,80,8|0
360,176,31562,6,0,B|408:192|416:240|416:240,2,80,0|0|8
368,96,32030,2,0,B|320:80|312:32|312:32,2,80
440,128,32499,2,0,B|488:144|496:192|496:192,1,80,8|0
496,264,32812,6,0,B|464:360|352:344|352:344,1,160,4|8
296,312,33280,2,0,B|216:232|120:280|120:280,1,160
72,296,33749,1,8
24,360,33905,1,0
72,296,34062,2,0,B|120:192|32:128|32:128,1,160,0|8
0,88,34530,1,0
80,80,34687,2,0,B|176:80|224:8|224:8,1,160,0|8
336,64,35155,2,0,B|240:64|192:136|192:136,1,160
168,208,35624,2,0,B|144:288|144:288,1,80,8|0
272,248,35937,2,0,B|296:168|296:168,1,80
80,240,36249,6,0,B|56:320|56:320,1,80,8|0
360,224,36562,2,0,B|376:136|464:104|464:104,1,160,0|8
328,104,37030,2,0,B|312:192|224:224|224:224,1,160
152,232,37499,1,8
152,232,37655,1,0
88,176,37812,6,0,B|32:96|88:24|88:24,2,160,0|8|0
152,232,38593,2,0,B|192:264|160:328|160:328,2,80,0|8|0
168,152,39062,2,0,B|232:96|232:96,1,80
304,200,39374,2,0,B|240:256|240:256,1,80,8|0
160,144,39687,2,0,B|288:32|288:32,1,160,0|8
360,16,40155,1,0
416,72,40312,5,0
488,112,40468,1,0
416,144,40624,1,8
416,144,40780,1,0
488,184,40937,1,0
416,216,41093,1,0
416,216,41249,1,8
488,256,41405,1,0
488,256,41562,2,0,B|480:304|416:296|416:296,2,80,0|0|8
416,216,42030,2,0,B|296:72|296:72,2,160
360,272,42812,6,0,B|272:224|192:280|192:280,1,160,0|8
144,320,43280,1,0
136,240,43437,2,0,B|128:160|128:160,2,80,0|0|8
144,320,43905,1,0
72,288,44062,2,0,B|0:224|48:128|48:128,1,160,0|8
112,32,44530,1,0
112,32,44687,2,0,B|184:96|136:192|136:192,1,160,0|8
72,288,45155,1,0
144,320,45312,6,0,B|240:352|240:352,2,80,0|0|8
136,240,45780,2,0,B|216:192|216:192,2,80
56,216,46249,2,0,B|32:136|32:136,1,80,8|0
8,64,46562,5,0
80,24,46718,1,0
152,64,46874,1,8
152,64,47030,1,0
224,24,47187,1,0
296,64,47343,1,0
368,24,47499,1,8
368,24,47655,1,0
440,64,47812,6,0,B|496:136|448:216|448:216,1,160,0|8
368,312,48280,1,0
368,312,48437,2,0,B|312:240|360:160|360:160,1,160,0|8
440,64,48905,1,0
464,144,49062,6,0,B|496:224|496:224,1,80
360,160,49374,2,0,B|328:80|328:80,1,80,8|0
264,200,49687,2,0,B|320:352|320:352,1,160,0|8
319,350,50155,1,0
392,320,50312,6,0,B|464:288|464:288,2,80,0|0|8
328,272,50780,2,0,B|344:192|344:192,2,80
256,304,51249,2,0,B|192:248|192:248,1,80,8|0
128,200,51562,5,0
64,152,51718,1,0
0,104,51874,1,8
136,120,52030,5,0
72,72,52186,1,0
8,24,52342,1,0
144,40,52499,5,8
208,88,52655,1,0
272,136,52812,5,0
288,296,53124,1,8
128,288,53437,1,0
88,136,53749,1,8
344,96,54062,5,0
344,352,54374,1,8
88,360,54687,1,0
16,112,54999,1,8
408,48,55312,6,0,B|480:88|480:88,1,80
440,208,55624,2,0,B|368:168|368:168,1,80,8|0
408,48,55937,1,0
408,48,56093,1,0
440,208,56249,1,8
440,208,56405,1,0
360,352,56562,1,0
408,48,56874,1,8
360,352,57187,6,0,B|280:384|192:352|192:352,2,160,4|0|4
424,304,57968,1,0
456,232,58124,1,8
456,152,58280,2,0,B|448:56|368:24|368:24,1,160
296,128,58749,2,0,B|296:184|336:192|336:192,1,80,8|0
392,248,59062,6,0,B|368:344|272:344|272:344,1,160,0|8
120,136,59530,1,0
120,136,59687,2,0,B|144:40|240:40|240:40,1,160,0|8
312,48,60155,1,0
384,88,60312,2,0,B|464:136|464:136,1,80
448,256,60624,2,0,B|368:208|368:208,1,80,8|0
440,40,60937,6,0,B|520:88|520:88,1,80
384,304,61249,2,0,B|304:256|304:256,1,80,8|0
240,240,61562,2,0,B|152:192|72:248|72:248,2,160,0|8|0
256,320,62343,1,0
256,320,62499,1,8
256,64,62812,5,0
256,336,63124,1,4
256,48,63437,5,0
256,352,63749,1,4
256,32,64062,5,0
256,368,64374,1,4
256,16,64687,5,0
256,384,64999,1,4
472,272,65312,6,0,B|512:192|472:112|472:112,1,160,0|4
40,112,65937,2,0,B|0:192|40:272|40:272,1,160,0|4
472,272,66562,2,0,B|512:192|472:112|472:112,1,160,0|4
256,16,67187,5,0
176,32,67343,1,0
176,32,67421,1,0
176,32,67499,1,0
136,104,67655,1,0
152,184,67812,6,0,B|144:280|40:296|40:296,1,160,0|8
176,328,68280,1,0
176,328,68437,2,0,B|184:232|288:216|288:216,1,160,0|8
376,232,68905,1,0
416,144,69062,2,0,B|448:72|448:72,1,80
304,64,69374,2,0,B|272:136|272:136,1,80,8|0
224,224,69687,1,0
224,224,69843,1,0
136,264,69999,1,8
136,264,70155,1,0
64,192,70312,6,0,B|16:104|96:40|96:40,2,160,0|8|0
136,264,71093,2,0,B|160:312|120:352|120:352,2,80,0|8|0
168,176,71562,1,0
200,88,71718,1,0
224,48,71796,1,0
272,32,71874,1,8
368,40,72030,1,0
448,96,72187,2,0,B|512:152|512:152,1,80
368,168,72499,2,0,B|304:112|304:112,1,80,8|0
256,192,72812,6,0,B|320:272|256:352|256:352,1,160,0|8
168,240,73280,1,0
168,240,73437,2,0,B|104:160|168:80|168:80,1,160,0|8
224,16,73905,1,0
320,32,74062,2,0,B|408:56|408:56,1,80
432,192,74374,2,0,B|344:168|344:168,1,80,8|0
264,144,74687,6,0,B|160:120|104:200|104:200,1,160,0|8
232,232,75155,1,0
232,232,75312,2,0,B|336:256|392:176|392:176,1,160,0|8
424,104,75780,1,0
384,16,75937,2,0,B|336:0|288:24|288:24,2,80,0|0|8
424,104,76405,1,0
464,192,76562,2,0,B|456:304|360:304|360:304,2,160,4|8|0
424,104,77343,1,0
424,104,77421,1,0
424,104,77499,1,8
384,16,77655,1,0
328,96,77812,6,0,B|272:176|272:176,1,80
376,184,78124,2,0,B|328:256|328:256,1,80,8|0
424,264,78437,2,0,B|408:352|328:384|328:384,2,160,0|8|0
472,176,79218,2,0,B|496:128|464:88|464:88,1,80,0|8
416,24,79530,1,0
320,32,79687,6,0,B|160:48|160:48,1,160,0|8
272,112,80155,1,0
272,112,80312,2,0,B|432:96|432:96,1,160,0|8
336,184,80780,1,0
336,184,80937,2,0,B|176:200|176:200,1,160,0|8
80,208,81405,1,0
136,288,81562,6,0,B|168:320|144:368|144:368,2,80,0|0|8
80,208,82030,2,0,B|16:120|96:48|96:48,1,160
84,60,82421,1,0
84,60,82499,1,8
168,24,82655,1,0
264,32,82812,6,0,B|344:48|344:48,1,80
408,176,83124,2,0,B|328:160|328:160,1,80,8|0
272,16,83437,6,0,B|344:48|344:48,1,80
400,192,83749,2,0,B|320:160|320:160,1,80,8|0
288,0,84062,6,0,B|352:56|352:56,1,80
384,208,84374,2,0,B|320:160|320:160,1,80,8|0
216,64,84687,6,0,B|128:16|56:64|56:64,1,160,0|8
112,192,85155,1,0
112,192,85312,2,0,B|200:240|272:192|272:192,1,160,0|8
344,144,85780,1,0
408,72,85937,2,0,B|456:8|456:8,2,80,0|0|8
344,144,86405,1,0
400,224,86562,6,0,B|496:352|496:352,1,160,4|8
280,208,87030,2,0,B|376:336|376:336,1,160,4|0
168,184,87499,1,8
168,184,87655,1,0
96,120,87812,6,0,B|72:72|120:32|120:32,2,80,4|0|8
88,200,88280,2,0,B|64:248|16:248|16:248,2,80
168,184,88749,2,0,B|208:160|248:184|248:184,1,80,8|0
312,232,89062,6,0,B|384:288|352:384|352:384,1,160,4|8
432,272,89530,2,0,B|360:216|392:120|392:120,1,160
424,56,89999,1,8
424,56,90155,1,0
344,48,90312,6,0,B|184:32|184:32,1,160,4|8
280,112,90780,2,0,B|120:96|120:96,1,160
216,184,91249,1,8
216,184,91405,1,0
256,384,91562,5,0
512,192,91874,1,6
256,0,92187,1,6
0,192,92499,1,6
256,360,92812,6,0,B|352:376|352:376,2,80,4|0|8
192,312,93280,2,0,B|96:296|96:296,1,80
232,248,93593,2,0,B|328:264|328:264,2,80,0|8|0
168,200,94062,1,4
120,136,94218,1,0
112,56,94374,1,8
48,104,94530,2,0,B|0:184|48:264|48:264,1,160
168,200,94999,2,0,B|216:168|192:104|192:104,1,80,8|0
232,256,95312,6,0,B|184:288|208:352|208:352,2,80,4|0|8
288,200,95780,2,0,B|368:256|448:200|448:200,1,160
344,120,96249,2,0,B|304:88|256:120|256:120,1,80,8|0
168,192,96562,5,0
344,192,96874,1,6
0,192,97187,5,6
512,192,97499,1,6
256,384,97812,5,0
256,0,98124,2,0,B|312:80|256:152|256:152,1,160,4|0
272,280,98593,2,0,B|272:224|328:200|328:200,1,80,0|8
384,184,98905,1,0
424,112,99062,2,0,B|384:88|344:112|344:112,1,80
384,184,99374,1,8
384,264,99530,2,0,B|400:280|368:288|400:304|368:320|400:328|384:344|384:344,2,80
312,224,99999,2,0,B|272:248|232:224|232:224,1,80,8|0
168,184,100312,1,0
168,184,100624,6,0,B|104:96|176:24|176:24,1,160,4|0
240,144,101093,2,0,B|264:184|240:224|240:224,2,80,0|8|0
168,184,101562,2,0,B|128:216|80:184|80:184,1,80
24,144,101874,1,8
24,144,102030,1,0
48,64,102187,1,0
120,24,102343,1,0
120,24,102421,1,0
120,24,102499,1,8
192,64,102655,1,0
192,64,102733,1,0
192,64,102812,1,4
