osu file format v14

[General]
AudioFilename: AK x LYNX ft. Veela - Virtual Paradise.mp3
AudioLeadIn: 0
PreviewTime: 41321
Countdown: 0
SampleSet: Soft
StackLeniency: 0.7
Mode: 0
LetterboxInBreaks: 0
WidescreenStoryboard: 0

[Editor]
Bookmarks: 11063,22097,44166,66235,67614,88304,91063
DistanceSpacing: 0.9
BeatDivisor: 2
GridSize: 32
TimelineZoom: 0.8000017

[Metadata]
Title:Virtual Paradise
TitleUnicode:Virtual Paradise
Artist:AK X LYNX ft. Veela
ArtistUnicode:AK X LYNX ft. Veela
Creator:Milan-
Version:Normal
Source:
Tags:appleeaterx drum and bass dnb liquidfunk xkito chillout
BeatmapID:792480
BeatmapSetID:313843

[Difficulty]
HPDrainRate:4
CircleSize:3.5
OverallDifficulty:4
ApproachRate:5
SliderMultiplier:1.1
SliderTickRate:1

[Events]
//Background and Video events
0,0,"bg.jpg",0,0
//Break Periods
//Storyboard Layer 0 (Background)
//Storyboard Layer 1 (Fail)
//Storyboard Layer 2 (Pass)
//Storyboard Layer 3 (Foreground)
//Storyboard Sound Samples

[TimingPoints]
1408,344.827586206897,4,2,1,30,1,0
22097,-125,4,2,1,35,0,0
44166,-100,4,2,1,52,0,0
66235,-100,4,2,1,40,0,0
67614,-100,4,2,1,52,0,0
91063,-100,4,2,1,10,0,0

[Colours]
Combo1 : 180,71,220
Combo2 : 31,214,140
Combo3 : 66,147,236
Combo4 : 233,75,80

[HitObjects]
101,301,21925,5,0,0:0:0:0:
101,301,22097,2,0,L|2:291,2,88,2|2|0,0:0|0:0|0:0,0:0:0:0:
186,347,23132,1,0,0:0:0:0:
251,275,23476,2,0,L|253:180,1,88,0|2,0:0|0:0,0:0:0:0:
260,90,24166,2,0,P|318:60|386:87,1,132,2|0,0:0|0:0,0:0:0:0:
393,125,24856,6,0,L|394:212,1,88,0|0,0:0|0:0,0:0:0:0:
370,255,25373,2,0,L|379:350,1,88,0|0,0:0|0:0,0:0:0:0:
284,367,26063,2,0,L|275:279,1,88,0|0,0:0|0:0,0:0:0:0:
238,190,26752,1,0,0:0:0:0:
238,190,26925,2,0,L|136:191,1,88
58,158,27614,6,0,P|44:115|55:64,1,88,2|2,0:0|0:0,0:0:0:0:
81,35,28132,1,0,0:0:0:0:
81,35,28304,2,0,L|183:36,1,88
257,74,28994,1,0,0:0:0:0:
350,49,29339,1,2,0:0:0:0:
434,94,29683,2,0,L|445:188,1,88,2|0,0:0|0:0,0:0:0:0:
426,276,30373,6,0,P|393:288|334:277,1,88,0|0,0:0|0:0,0:0:0:0:
299,255,30890,2,0,P|256:246|214:259,1,88,0|0,0:0|0:0,0:0:0:0:
134,315,31580,1,0,0:0:0:0:
45,276,31925,1,0,0:0:0:0:
97,194,32270,2,0,L|99:86,1,88,0|0,0:0|0:0,0:0:0:0:
229,42,33132,6,0,L|230:129,1,88,2|0,0:0|0:0,0:0:0:0:
246,176,33649,1,0,0:0:0:0:
246,176,33821,2,0,L|237:284,1,88,0|0,0:0|0:0,0:0:0:0:
227,360,34511,1,0,0:0:0:0:
323,354,34856,2,0,P|368:339|405:308,1,88,2|2,0:0|0:0,0:0:0:0:
450,232,35545,1,0,0:0:0:0:
469,137,35890,5,0,0:0:0:0:
469,137,36063,2,0,P|451:95|406:57,1,88
336,18,36752,1,0,0:0:0:0:
258,74,37097,2,0,L|157:69,1,88
86,20,37787,2,0,P|50:71|33:143,1,132
89,216,38649,6,0,P|125:238|173:231,1,88,2|0,0:0|0:0,0:0:0:0:
206,202,39166,2,0,P|245:184|289:182,1,88,2|0,0:0|0:0,0:0:0:0:
372,232,39856,2,0,P|411:249|455:251,1,88,0|0,0:0|0:0,0:0:0:0:
432,157,40545,2,0,L|459:66,2,88,0|0|0,0:0|0:0|0:0,0:0:0:0:
383,150,41408,6,0,P|341:140|294:149,1,88,2|0,0:0|0:0,0:0:0:0:
253,167,41925,2,0,P|209:174|143:120,1,132,2|0,0:0|0:0,0:0:0:0:
132,76,42614,1,2,0:0:0:0:
35,85,42959,1,0,0:0:0:0:
35,181,43304,2,0,L|55:282,1,88,2|2,0:0|0:0,0:0:0:0:
77,309,43821,1,0,0:0:0:0:
161,258,44166,6,0,P|210:248|272:269,1,110,4|8,0:3|0:0,0:0:0:0:
298,303,44683,1,0,0:0:0:0:
298,303,44856,2,0,L|416:297,1,110,0|10,0:0|0:0,0:0:0:0:
453,209,45545,2,0,L|343:203,1,110,2|8,0:0|0:0,0:0:0:0:
296,185,46063,1,0,0:0:0:0:
296,185,46235,2,0,P|283:126|309:66,2,110,0|10|2,0:0|0:0|0:0,0:0:0:0:
337,275,47270,6,0,L|330:338,1,55,8|0,0:0|0:0,0:0:0:0:
305,372,47614,2,0,P|253:370|196:338,1,110,0|10,0:0|0:0,0:0:0:0:
142,264,48304,1,2,0:0:0:0:
59,319,48649,2,0,P|48:293|43:259,1,55,8|0,0:0|0:0,0:0:0:0:
54,218,48994,2,0,P|43:192|29:165,2,55,0|0|8,0:0|0:0|0:0,0:0:0:0:
142,264,49683,6,0,P|194:269|259:228,1,110,4|8,0:3|0:0,0:0:0:0:
276,205,50201,1,0,0:0:0:0:
276,205,50373,2,0,L|270:89,1,110,0|10,0:0|0:0,0:0:0:0:
353,41,51063,2,0,L|358:150,1,110,2|8,0:0|0:0,0:0:0:0:
374,197,51580,1,0,0:0:0:0:
374,197,51752,2,0,P|397:242|466:268,2,110,0|10|2,0:0|0:0|0:0,0:0:0:0:
279,165,52787,6,0,P|250:160|204:163,1,55,8|0,0:0|0:0,0:0:0:0:
178,178,53132,2,0,P|126:180|73:153,1,110,0|10,0:0|0:0,0:0:0:0:
72,55,53821,2,0,P|120:30|174:31,1,110,2|8,0:0|0:0,0:0:0:0:
212,65,54339,2,0,P|243:72|272:72,1,55
364,77,54856,1,0,0:0:0:0:
401,108,55028,1,0,0:0:0:0:
439,139,55201,6,0,L|444:261,1,110,4|8,0:3|0:0,0:0:0:0:
423,294,55718,2,0,P|372:338|323:338,1,110,0|0,0:0|0:0,0:0:0:0:
285,322,56235,1,8,0:0:0:0:
236,235,56580,2,0,P|198:196|144:188,1,110,0|8,0:0|0:0,0:0:0:0:
100,210,57097,1,0,0:0:0:0:
100,210,57270,2,0,L|74:87,1,110,0|8,0:0|0:0,0:0:0:0:
147,32,57959,6,0,P|241:15|269:26,1,110,4|8,0:3|0:0,0:0:0:0:
289,51,58476,2,0,P|363:69|408:55,1,110,0|0,0:0|0:0,0:0:0:0:
435,32,58994,1,8,0:0:0:0:
476,121,59339,2,0,L|486:236,1,110,0|8,0:0|0:0,0:0:0:0:
483,280,59856,1,0,0:0:0:0:
483,280,60028,2,0,P|446:300|366:293,1,110,0|8,0:0|0:0,0:0:0:0:
300,239,60718,6,0,P|250:216|196:220,1,110,4|8,0:3|0:0,0:0:0:0:
160,254,61235,2,0,L|76:162,1,110,0|0,0:0|0:0,0:0:0:0:
44,145,61752,1,8,0:0:0:0:
113,74,62097,2,0,P|165:58|218:67,1,110,0|8,0:0|0:0,0:0:0:0:
270,88,62614,1,0,0:0:0:0:
270,88,62787,2,0,P|324:97|381:78,1,110,0|8,0:0|0:0,0:0:0:0:
466,40,63476,6,0,L|488:170,1,110,4|8,0:3|0:0,0:0:0:0:
474,197,63994,2,0,L|472:262,1,55
425,339,64511,1,8,0:0:0:0:
339,288,64856,2,0,P|283:278|227:307,1,110,0|8,0:0|0:0,0:0:0:0:
159,362,65545,1,0,0:0:0:0:
60,351,65890,2,0,P|42:328|31:299,1,55
31,254,66235,5,4,0:3:0:0:
48,156,66580,1,2,0:0:0:0:
76,61,66925,1,2,0:0:0:0:
150,125,67270,2,0,P|199:131|223:127,1,55,2|0,0:0|0:0,0:0:0:0:
250,112,67614,6,0,P|315:99|359:114,1,110,4|8,0:3|0:0,0:0:0:0:
386,150,68132,2,0,L|403:258,1,110,0|0,0:0|0:0,0:0:0:0:
411,307,68649,1,8,0:0:0:0:
320,348,68994,6,0,L|223:283,1,110,2|8,0:0|0:0,0:0:0:0:
196,249,69511,1,0,0:0:0:0:
196,249,69683,2,0,P|206:206|253:150,2,110,0|8|2,0:0|0:0|0:0,0:0:0:0:
165,343,70718,1,8,0:0:0:0:
165,343,70890,2,0,L|53:349,1,110,0|0,0:0|0:0,0:0:0:0:
8,367,71408,1,8,0:0:0:0:
22,269,71752,6,0,L|2:203,2,55,4|0|10,0:3|0:0|0:0,0:0:0:0:
112,227,72442,2,0,L|114:171,2,55,2|0|10,0:0|0:0|0:0,0:0:0:0:
176,302,73132,2,0,P|218:299|276:254,1,110,2|8,0:0|0:0,0:0:0:0:
283,211,73649,2,0,P|317:148|357:127,1,110,0|0,0:0|0:0,0:0:0:0:
397,123,74166,1,8,0:0:0:0:
463,196,74511,5,2,0:0:0:0:
448,293,74856,1,8,0:0:0:0:
361,340,75201,2,0,L|305:333,1,55,0|0,0:0|0:0,0:0:0:0:
259,319,75545,1,8,0:0:0:0:
162,340,75890,2,0,P|116:317|102:244,1,110,2|8,0:0|0:0,0:0:0:0:
97,214,76408,1,0,0:0:0:0:
97,214,76580,2,0,L|82:90,1,110,0|0,0:0|0:0,0:0:0:0:
76,55,77097,1,0,0:0:0:0:
76,55,77270,6,0,P|134:62|194:45,1,110,4|10,0:3|0:0,0:0:0:0:
276,21,77959,2,0,P|330:13|383:26,1,110,2|10,0:0|0:0,0:0:0:0:
455,95,78649,2,0,P|470:75|482:48,2,55,2|0|8,0:0|0:0|0:0,0:0:0:0:
419,129,79166,2,0,L|406:242,1,110
401,287,79683,1,8,0:0:0:0:
317,340,80028,6,0,P|231:348|193:327,1,110,4|8,0:3|0:0,0:0:0:0:
175,304,80545,1,0,0:0:0:0:
175,304,80718,2,0,L|168:175,1,110,0|8,0:0|0:0,0:0:0:0:
108,115,81408,2,0,P|120:49|165:16,1,110,4|8,0:3|0:0,0:0:0:0:
198,32,81925,1,0,0:0:0:0:
198,32,82097,2,0,L|314:24,1,110,0|8,0:0|0:0,0:0:0:0:
403,51,82787,6,0,L|468:34,2,55,4|0|8,0:3|0:0|0:0,0:0:0:0:
341,128,83476,2,0,L|336:200,1,55,0|0,0:0|0:0,0:0:0:0:
338,232,83821,1,8,0:0:0:0:
275,308,84166,2,0,P|216:328|139:314,1,110,4|8,0:3|0:0,0:0:0:0:
121,311,84683,1,0,0:0:0:0:
121,311,84856,2,0,L|103:184,1,110,0|8,0:0|0:0,0:0:0:0:
129,105,85545,6,0,P|180:86|234:88,1,110,4|8,0:3|0:0,0:0:0:0:
280,109,86063,2,0,P|334:111|385:92,1,110,0|0,0:0|0:0,0:0:0:0:
426,63,86580,1,8,0:0:0:0:
346,3,86925,1,2,0:0:0:0:
247,14,87270,1,8,0:0:0:0:
183,89,87614,2,0,P|177:118|173:166,1,55,2|0,0:0|0:0,0:0:0:0:
204,182,87959,2,0,P|210:211|214:259,1,55,2|0,0:0|0:0,0:0:0:0:
205,285,88304,5,4,0:3:0:0:
256,192,88476,12,0,91063,0:0:0:0:
