osu file format v14

[General]
AudioFilename: AK x LYNX ft. Veela - Virtual Paradise.mp3
AudioLeadIn: 0
PreviewTime: 41321
Countdown: 0
SampleSet: Soft
StackLeniency: 0.7
Mode: 0
LetterboxInBreaks: 0
WidescreenStoryboard: 0

[Editor]
Bookmarks: 11063,22097,44166,66235,67614,88304,91063
DistanceSpacing: 1.1
BeatDivisor: 2
GridSize: 32
TimelineZoom: 0.8000016

[Metadata]
Title:Virtual Paradise
TitleUnicode:Virtual Paradise
Artist:AK X LYNX ft. Veela
ArtistUnicode:AK X LYNX ft. Veela
Creator:Milan-
Version:Easy
Source:
Tags:appleeaterx drum and bass dnb liquidfunk xkito chillout
BeatmapID:792478
BeatmapSetID:313843

[Difficulty]
HPDrainRate:2
CircleSize:3
OverallDifficulty:2
ApproachRate:3
SliderMultiplier:0.8
SliderTickRate:1

[Events]
//Background and Video events
0,0,"bg.jpg",0,0
//Break Periods
//Storyboard Layer 0 (Background)
//Storyboard Layer 1 (Fail)
//Storyboard Layer 2 (Pass)
//Storyboard Layer 3 (Foreground)
//Storyboard Sound Samples

[TimingPoints]
1408,344.827586206897,4,2,1,30,1,0
22097,-100,4,2,1,35,0,0
44166,-100,4,2,1,52,0,0
66235,-100,4,2,1,40,0,0
67614,-100,4,2,1,52,0,0
91063,-100,4,2,1,10,0,0

[Colours]
Combo1 : 180,71,220
Combo2 : 31,214,140
Combo3 : 66,147,236
Combo4 : 233,75,80

[HitObjects]
151,65,22097,6,0,P|111:60|71:62,2,80,2|2|0,0:0|0:0|0:0,0:0:0:0:
388,180,23821,2,0,L|403:284,1,80,2|2,0:0|0:0,0:0:0:0:
259,366,24856,6,0,P|202:373|120:358,1,120,0|0,0:0|0:0,0:0:0:0:
57,334,25718,1,0,0:0:0:0:
74,247,26063,2,0,L|64:128,1,120
142,87,26925,2,0,L|150:173,1,80
210,232,27614,6,0,P|247:246|286:244,1,80,2|2,0:0|0:0,0:0:0:0:
476,59,28994,1,0,0:0:0:0:
454,144,29339,2,0,L|467:246,1,80,2|2,0:0|0:0,0:0:0:0:
289,204,30373,6,0,L|291:78,1,120
266,0,31235,1,0,0:0:0:0:
206,64,31580,2,0,L|205:143,1,80,0|0,0:0|0:0,0:0:0:0:
142,206,32270,2,0,L|141:285,1,80,0|0,0:0|0:0,0:0:0:0:
241,371,33132,6,0,P|281:364|325:342,1,80,2|0,0:0|0:0,0:0:0:0:
446,117,34511,1,0,0:0:0:0:
367,156,34856,2,0,P|327:149|291:132,1,80,2|2,0:0|0:0,0:0:0:0:
153,22,35890,6,0,L|166:151,1,120,0|0,0:0|0:0,0:0:0:0:
175,228,36752,1,0,0:0:0:0:
93,195,37097,2,0,P|57:202|19:229,1,80,0|0,0:0|0:0,0:0:0:0:
90,282,37787,2,0,P|144:326|206:326,1,120
271,291,38649,6,0,P|329:279|389:287,1,120,2|2,0:0|0:0,0:0:0:0:
465,331,39511,1,0,0:0:0:0:
464,242,39856,2,0,P|462:202|458:162,1,80
377,128,40545,2,0,P|364:69|339:10,1,120
253,18,41408,6,0,P|199:14|119:33,1,120,2|2,0:0|0:0,0:0:0:0:
65,138,42442,2,0,P|123:150|183:146,1,120
265,114,43304,1,2,0:0:0:0:
324,178,43649,1,2,0:0:0:0:
242,282,44166,6,0,P|177:294|80:249,1,160,4|0,0:3|0:0,0:0:0:0:
39,189,45201,1,10,0:0:0:0:
60,103,45545,1,2,0:0:0:0:
139,141,45890,2,0,P|181:139|287:84,1,160,8|10,0:0|0:0,0:0:0:0:
334,13,46925,5,2,0:0:0:0:
376,90,47270,2,0,L|392:179,1,80,8|0,0:0|0:0,0:0:0:0:
424,249,47959,1,10,0:0:0:0:
374,321,48304,2,0,L|248:337,2,120,2|0|8,0:0|0:0|0:0,0:0:0:0:
461,329,49683,5,4,0:3:0:0:
424,249,50028,2,0,P|419:173|443:79,1,160,8|10,0:0|0:0,0:0:0:0:
479,14,51063,1,2,0:0:0:0:
391,9,51408,2,0,L|199:24,1,160,8|10,0:0|0:0,0:0:0:0:
147,46,52442,5,2,0:0:0:0:
117,128,52787,2,0,P|117:171|128:212,1,80,8|0,0:0|0:0,0:0:0:0:
187,269,53476,2,0,L|184:349,2,80,10|2|8,0:0|0:0|0:0,0:0:0:0:
215,185,54511,2,0,P|297:152|305:151,1,80,0|0,0:0|0:0,0:0:0:0:
371,181,55201,6,0,P|440:179|505:101,1,160,4|0,0:3|0:0,0:0:0:0:
497,28,56235,1,8,0:0:0:0:
410,11,56580,1,0,0:0:0:0:
337,60,56925,2,0,P|278:78|163:38,1,160,8|8,0:0|0:0,0:0:0:0:
110,101,57959,6,0,P|99:66|103:21,2,80,4|8|0,0:3|0:0|0:0,0:0:0:0:
165,169,58994,2,0,P|176:204|171:248,1,80,8|0,0:0|0:0,0:0:0:0:
138,327,59683,2,0,P|176:364|292:343,1,160,8|8,0:0|0:0,0:0:0:0:
328,285,60718,6,0,P|349:225|429:152,1,160,4|0,0:3|0:0,0:0:0:0:
498,126,61752,1,8,0:0:0:0:
432,67,62097,1,0,0:0:0:0:
363,11,62442,2,0,L|168:34,1,160,8|8,0:0|0:0,0:0:0:0:
145,95,63476,6,0,P|126:67|118:18,2,80,4|8|0,0:3|0:0|0:0,0:0:0:0:
221,138,64511,1,8,0:0:0:0:
276,206,64856,2,0,L|277:291,1,80,0|8,0:0|0:0,0:0:0:0:
317,364,65545,1,0,0:0:0:0:
378,301,65890,1,0,0:0:0:0:
438,236,66235,6,0,P|447:170|357:94,1,160,4|2,0:3|0:0,0:0:0:0:
304,94,67270,1,2,0:0:0:0:
227,135,67614,2,0,L|103:131,2,120,4|0|8,0:3|0:0|0:0,0:0:0:0:
301,182,68994,6,0,L|317:280,1,80,2|8,0:0|0:0,0:0:0:0:
334,346,69683,2,0,P|375:325|399:242,2,120,0|0|8,0:0|0:0|0:0,0:0:0:0:
162,303,71408,1,8,0:0:0:0:
182,217,71752,6,0,L|173:116,2,80,4|10|2,0:3|0:0|0:0,0:0:0:0:
245,278,72787,1,10,0:0:0:0:
302,211,73132,2,0,P|354:178|428:180,2,120,2|0|8,0:0|0:0|0:0,0:0:0:0:
245,278,74511,6,0,L|244:368,1,80,2|8,0:0|0:0,0:0:0:0:
155,364,75201,2,0,L|154:284,1,80,0|8,0:0|0:0,0:0:0:0:
154,195,75890,2,0,P|125:123|52:96,1,160,2|0,0:0|0:0,0:0:0:0:
64,187,76925,1,0,0:0:0:0:
64,275,77270,6,0,L|55:377,2,80,4|10|2,0:3|0:0|0:0,0:0:0:0:
140,232,78304,1,10,0:0:0:0:
194,300,78649,2,0,P|249:313|316:299,2,120,2|0|8,0:0|0:0|0:0,0:0:0:0:
140,232,80028,6,0,L|140:63,1,160,4|0,0:3|0:0,0:0:0:0:
193,1,81063,1,8,0:0:0:0:
225,82,81408,2,0,P|288:114|367:72,1,160,4|0,0:3|0:0,0:0:0:0:
425,15,82442,1,8,0:0:0:0:
479,86,82787,6,0,L|481:249,1,160,4|0,0:3|0:0,0:0:0:0:
481,334,83821,1,8,0:0:0:0:
403,294,84166,2,0,P|309:268|229:297,1,160,4|0,0:3|0:0,0:0:0:0:
197,353,85201,1,8,0:0:0:0:
119,311,85545,6,0,L|-11:329,2,120,4|0|8,0:3|0:0|0:0,0:0:0:0:
193,264,86925,2,0,L|208:166,1,80,2|8,0:0|0:0,0:0:0:0:
253,111,87614,2,0,P|279:142|293:198,1,80,2|2,0:0|0:0,0:0:0:0:
299,266,88304,5,4,0:3:0:0:
256,192,88476,12,0,91063,0:0:0:0:
