osu file format v14

[General]
AudioFilename: AK x LYNX ft. Veela - Virtual Paradise.mp3
AudioLeadIn: 0
PreviewTime: 41321
Countdown: 0
SampleSet: Normal
StackLeniency: 0.7
Mode: 1
LetterboxInBreaks: 0
WidescreenStoryboard: 0

[Editor]
Bookmarks: 50718,70201,79856
DistanceSpacing: 1
BeatDivisor: 4
GridSize: 32
TimelineZoom: 0.8999999

[Metadata]
Title:Virtual Paradise
TitleUnicode:Virtual Paradise
Artist:AK X LYNX ft. Veela
ArtistUnicode:AK X LYNX ft. Veela
Creator:-Sh1n1-
Version:Futsuu
Source:
Tags:drum and bass dnb liquidfunk xkito chillout tasuke912 Nardoxyribonucleic SKSalt Shini
BeatmapID:821659
BeatmapSetID:375125

[Difficulty]
HPDrainRate:7
CircleSize:2
OverallDifficulty:4
ApproachRate:5
SliderMultiplier:1.4
SliderTickRate:1

[Events]
//Background and Video events
0,0,"Bgparadise.jpg",0,-100
//Break Periods
//Storyboard Layer 0 (Background)
//Storyboard Layer 1 (Fail)
//Storyboard Layer 2 (Pass)
//Storyboard Layer 3 (Foreground)
//Storyboard Sound Samples

[TimingPoints]
1408,344.827586206897,4,1,0,50,1,0
44166,-100,4,1,0,70,0,0
66235,-100,4,1,0,40,0,0
67614,-100,4,1,0,70,0,0

[HitObjects]
256,192,22097,5,0,0:0:0:0:
256,192,22442,1,8,0:0:0:0:
256,192,23821,1,8,0:0:0:0:
256,192,24166,1,8,0:0:0:0:
256,192,24856,1,0,0:0:0:0:
256,192,25373,1,8,0:0:0:0:
256,192,26063,1,8,0:0:0:0:
256,192,26925,1,0,0:0:0:0:
256,192,27614,1,8,0:0:0:0:
256,192,27959,1,0,0:0:0:0:
256,192,29339,1,8,0:0:0:0:
256,192,29683,1,8,0:0:0:0:
256,192,30373,1,0,0:0:0:0:
256,192,30890,1,8,0:0:0:0:
256,192,31580,1,0,0:0:0:0:
256,192,32270,1,0,0:0:0:0:
256,192,33132,1,8,0:0:0:0:
256,192,33476,1,0,0:0:0:0:
256,192,34856,1,8,0:0:0:0:
256,192,35201,1,8,0:0:0:0:
256,192,35890,1,0,0:0:0:0:
256,192,36408,1,8,0:0:0:0:
256,192,37097,1,8,0:0:0:0:
256,192,37787,1,0,0:0:0:0:
256,192,38649,1,8,0:0:0:0:
256,192,39166,1,0,0:0:0:0:
256,192,39856,1,8,0:0:0:0:
256,192,40545,1,0,0:0:0:0:
256,192,41408,1,0,0:0:0:0:
256,192,41925,1,8,0:0:0:0:
256,192,42614,1,8,0:0:0:0:
256,192,43304,1,0,0:0:0:0:
256,192,44166,1,4,0:0:0:0:
256,192,44511,1,8,0:0:0:0:
256,192,44856,1,0,0:0:0:0:
256,192,45201,1,8,0:0:0:0:
256,192,45373,1,8,0:0:0:0:
256,192,45890,1,8,0:0:0:0:
256,192,46235,1,0,0:0:0:0:
256,192,46580,1,8,0:0:0:0:
256,192,46752,1,0,0:0:0:0:
256,192,47270,1,8,0:0:0:0:
256,192,47614,1,0,0:0:0:0:
256,192,47959,1,8,0:0:0:0:
256,192,48132,1,8,0:0:0:0:
256,192,48649,1,8,0:0:0:0:
256,192,48994,1,8,0:0:0:0:
256,192,49511,1,0,0:0:0:0:
256,192,50028,1,8,0:0:0:0:
256,192,50373,1,0,0:0:0:0:
256,192,50718,1,8,0:0:0:0:
256,192,50890,1,8,0:0:0:0:
256,192,51408,1,8,0:0:0:0:
256,192,51752,1,0,0:0:0:0:
256,192,52097,1,8,0:0:0:0:
256,192,52270,1,0,0:0:0:0:
256,192,52787,1,8,0:0:0:0:
256,192,53132,1,0,0:0:0:0:
256,192,53476,1,8,0:0:0:0:
256,192,53649,1,8,0:0:0:0:
256,192,54166,1,8,0:0:0:0:
256,192,54511,1,8,0:0:0:0:
256,192,55201,1,0,0:0:0:0:
256,192,55545,1,8,0:0:0:0:
256,192,55890,1,0,0:0:0:0:
256,192,56235,1,8,0:0:0:0:
256,192,56408,1,0,0:0:0:0:
256,192,56580,1,8,0:0:0:0:
256,192,56925,1,8,0:0:0:0:
256,192,57270,1,0,0:0:0:0:
256,192,57959,1,8,0:0:0:0:
256,192,58304,1,8,0:0:0:0:
256,192,58649,1,0,0:0:0:0:
256,192,58994,1,0,0:0:0:0:
256,192,59166,1,0,0:0:0:0:
256,192,59339,1,8,0:0:0:0:
256,192,59683,1,8,0:0:0:0:
256,192,60028,1,0,0:0:0:0:
256,192,60718,1,8,0:0:0:0:
256,192,61063,1,8,0:0:0:0:
256,192,61408,1,0,0:0:0:0:
256,192,61752,1,8,0:0:0:0:
256,192,61925,1,0,0:0:0:0:
256,192,62097,1,8,0:0:0:0:
256,192,62442,1,8,0:0:0:0:
256,192,62787,1,0,0:0:0:0:
256,192,63476,1,8,0:0:0:0:
256,192,63821,1,8,0:0:0:0:
256,192,64166,1,0,0:0:0:0:
256,192,64511,1,0,0:0:0:0:
256,192,64683,1,0,0:0:0:0:
256,192,64856,1,8,0:0:0:0:
256,192,65201,1,8,0:0:0:0:
256,192,65545,1,0,0:0:0:0:
256,192,65890,1,0,0:0:0:0:
256,192,66235,1,8,0:0:0:0:
256,192,66925,1,0,0:0:0:0:
256,192,67614,1,0,0:0:0:0:
256,192,67959,1,8,0:0:0:0:
256,192,68304,1,0,0:0:0:0:
256,192,68649,1,8,0:0:0:0:
256,192,68821,1,8,0:0:0:0:
256,192,69339,1,8,0:0:0:0:
256,192,69683,1,0,0:0:0:0:
256,192,70028,1,8,0:0:0:0:
256,192,70201,1,0,0:0:0:0:
256,192,70545,1,0,0:0:0:0:
256,192,71063,1,8,0:0:0:0:
256,192,71408,1,8,0:0:0:0:
256,192,71580,1,0,0:0:0:0:
256,192,71752,1,8,0:0:0:0:
256,192,72097,1,8,0:0:0:0:
256,192,72442,1,0,0:0:0:0:
256,192,73132,1,0,0:0:0:0:
256,192,73476,1,8,0:0:0:0:
256,192,73821,1,0,0:0:0:0:
256,192,74166,1,8,0:0:0:0:
256,192,74339,1,8,0:0:0:0:
256,192,74856,1,8,0:0:0:0:
256,192,75201,1,0,0:0:0:0:
256,192,75545,1,8,0:0:0:0:
256,192,75890,1,0,0:0:0:0:
256,192,76063,1,0,0:0:0:0:
256,192,76235,1,8,0:0:0:0:
256,192,76580,1,0,0:0:0:0:
256,192,76925,1,0,0:0:0:0:
256,192,77270,1,8,0:0:0:0:
256,192,77614,1,8,0:0:0:0:
256,192,77959,1,0,0:0:0:0:
256,192,78649,1,0,0:0:0:0:
256,192,78994,1,8,0:0:0:0:
256,192,79339,1,0,0:0:0:0:
256,192,79683,1,8,0:0:0:0:
256,192,79856,1,0,0:0:0:0:
256,192,80373,1,8,0:0:0:0:
256,192,80718,1,8,0:0:0:0:
256,192,81063,1,8,0:0:0:0:
256,192,81235,1,0,0:0:0:0:
256,192,81752,1,0,0:0:0:0:
256,192,82097,1,8,0:0:0:0:
256,192,82442,1,0,0:0:0:0:
256,192,82614,1,8,0:0:0:0:
256,192,83132,1,8,0:0:0:0:
256,192,83476,1,8,0:0:0:0:
256,192,83821,1,0,0:0:0:0:
256,192,83994,1,8,0:0:0:0:
256,192,84511,1,0,0:0:0:0:
256,192,84856,1,8,0:0:0:0:
256,192,85201,1,0,0:0:0:0:
256,192,85545,1,8,0:0:0:0:
256,192,85718,1,0,0:0:0:0:
256,192,85890,1,0,0:0:0:0:
256,192,86235,1,8,0:0:0:0:
256,192,86925,1,0,0:0:0:0:
256,192,87270,1,0,0:0:0:0:
256,192,87614,1,8,0:0:0:0:
256,192,87959,1,8,0:0:0:0:
256,192,88304,1,4,0:0:0:0:
