osu file format v14

[General]
AudioFilename: audio.mp3
AudioLeadIn: 0
PreviewTime: -1
Countdown: 0
SampleSet: Normal
StackLeniency: 0.7
Mode: 0
LetterboxInBreaks: 0
WidescreenStoryboard: 0

[Editor]
DistanceSpacing: 1
BeatDivisor: 4
GridSize: 4
TimelineZoom: 1

[Metadata]
Title:Spit it back out
TitleUnicode:Spit it back out
Artist:AIR SWELL
ArtistUnicode:AIR SWELL
Creator:Tyl
Version:Anguish
Source:
Tags:
BeatmapID:915735
BeatmapSetID:423810

[Difficulty]
HPDrainRate:6
CircleSize:4
OverallDifficulty:9
ApproachRate:9.6
SliderMultiplier:1.4
SliderTickRate:1

[Events]
//Background and Video events
0,0,"gbiiJXP.jpg",0,0
//Break Periods
2,134083,138041
//Storyboard Layer 0 (Background)
//Storyboard Layer 1 (Fail)
//Storyboard Layer 2 (Pass)
//Storyboard Layer 3 (Foreground)
//Storyboard Sound Samples

[TimingPoints]
550.225469038888,333.333333333333,4,1,0,100,1,0
11216,-74.0740740740741,4,1,0,100,0,0
15383,-66.6666666666667,4,1,0,100,0,0
16550,-74.0740740740741,4,1,0,100,0,0
20716,-66.6666666666667,4,1,0,100,0,0
21883,-74.0740740740741,4,1,0,100,0,0
26050,-66.6666666666667,4,1,0,100,0,0
29883,-76.923076923077,4,1,0,100,0,0
45883,-74.0740740740741,4,1,0,100,0,0
51216,-66.6666666666667,4,1,0,100,0,1
67216,-76.923076923077,4,1,0,100,0,1
69883,-66.6666666666667,4,1,0,100,0,0
72550,-76.9230769230769,4,1,0,100,0,0
93883,-66.6666666666667,4,1,0,100,0,1
104216,-62.5,4,1,0,100,0,1
104550,-66.6666666666667,4,1,0,100,0,1
109883,-76.9230769230769,4,1,0,100,0,1
112383,-76.9230769230769,4,1,0,100,0,0
113216,-66.6666666666667,4,1,0,100,0,0
138883,-100,4,1,0,100,0,0
139133,-100,4,1,0,5,0,0
139216,-100,4,1,0,100,0,0
140300,-100,4,1,0,5,0,0
140383,-100,4,1,0,100,0,0
141633,-100,4,1,0,5,0,0
141716,-100,4,1,0,100,0,0
144966,-100,4,1,0,5,0,0
145050,-100,4,1,0,100,0,0
146300,-100,4,1,0,5,0,0
146383,-100,4,1,0,100,0,0
147883,-76.9230769230769,4,1,0,100,0,0
148550,-66.6666666666667,4,1,0,100,0,0
155216,-66.6666666666667,4,1,0,100,0,1
171216,-76.923076923077,4,1,0,100,0,0
174216,-66.6666666666667,4,1,0,100,0,0
176550,-76.923076923077,4,1,0,100,0,0
177216,-66.6666666666667,4,1,0,100,0,0
177883,-76.923076923077,4,1,0,100,0,0
179216,-74.0740740740741,4,1,0,100,0,0
183383,-66.6666666666667,4,1,0,100,0,0
184550,-74.0740740740741,4,1,0,100,0,0
188716,-66.6666666666667,4,1,0,100,0,0
189883,-74.0740740740741,4,1,0,100,0,0
197383,-66.6666666666667,4,1,0,100,0,0

[HitObjects]
144,132,552,5,0,0:0:0:0:
144,132,716,2,0,L|104:156,3,35
228,104,1050,2,0,P|348:128|368:152,1,140
368,224,1550,1,0,0:0:0:0:
368,224,1716,2,0,L|380:272,3,35
276,216,2050,2,0,B|240:248|192:236|192:236|200:256|128:256,1,140
224,124,2550,1,0,0:0:0:0:
216,344,2716,2,0,P|336:336|376:312,1,140
404,96,3216,5,0,0:0:0:0:
404,96,3383,2,0,L|368:48,3,35
340,180,3716,2,0,P|256:196|200:184,1,140
168,60,4216,1,0,0:0:0:0:
168,60,4383,2,0,L|148:100,3,35
108,184,4716,2,0,B|156:216|148:268|148:268|184:264|212:296,1,140
40,272,5216,1,0,0:0:0:0:
296,152,5383,2,0,B|324:152|352:128|352:128|376:168|452:156,1,140
344,272,5883,5,0,0:0:0:0:
172,83,6050,1,0,0:0:0:0:
166,108,6133,1,0,0:0:0:0:
160,134,6216,1,0,0:0:0:0:
154,159,6299,1,0,0:0:0:0:
148,187,6383,2,0,P|68:163|24:107,1,140
180,348,6883,5,0,0:0:0:0:
268,245,7050,1,0,0:0:0:0:
287,226,7133,1,0,0:0:0:0:
304,206,7216,1,0,0:0:0:0:
322,187,7299,1,0,0:0:0:0:
339,168,7383,6,0,B|330:120|351:90|351:90|323:64|321:11,1,140
268,245,7883,1,0,0:0:0:0:
180,56,8050,1,0,0:0:0:0:
412,144,8216,1,0,0:0:0:0:
144,136,8383,1,0,0:0:0:0:
268,256,8550,6,0,B|308:276|308:276|364:280,1,70
448,144,8883,1,0,0:0:0:0:
448,144,9050,1,0,0:0:0:0:
212,108,9216,2,0,B|176:132|176:132|152:172,1,70
224,288,9550,1,0,0:0:0:0:
224,288,9716,1,0,0:0:0:0:
304,176,9883,5,0,0:0:0:0:
128,224,10050,1,0,0:0:0:0:
312,304,10216,1,0,0:0:0:0:
216,124,10383,1,0,0:0:0:0:
156,328,10550,1,0,0:0:0:0:
384,188,10716,1,0,0:0:0:0:
64,176,10883,1,0,0:0:0:0:
376,288,11050,1,0,0:0:0:0:
216,80,11216,6,0,P|170:90|135:121,1,94.5000003604889
80,280,11550,2,0,L|64:336,2,47.2500001802444
440,128,11883,6,0,P|400:104|336:120,1,94.5000003604889
200,168,12216,1,0,0:0:0:0:
179,207,12299,1,0,0:0:0:0:
186,252,12382,1,0,0:0:0:0:
448,336,12550,6,0,P|453:289|438:245,1,94.5000003604889
344,120,12883,1,0,0:0:0:0:
344,120,12966,1,0,0:0:0:0:
344,120,13050,1,0,0:0:0:0:
192,328,13216,1,0,0:0:0:0:
184,72,13383,1,0,0:0:0:0:
92,236,13550,2,0,L|60:292,2,47.2500001802444
400,60,13883,5,0,0:0:0:0:
330,225,14050,1,0,0:0:0:0:
295,254,14133,1,0,0:0:0:0:
251,242,14216,1,0,0:0:0:0:
227,201,14300,1,0,0:0:0:0:
221,155,14383,1,0,0:0:0:0:
213,108,14466,1,0,0:0:0:0:
184,72,14550,1,0,0:0:0:0:
40,280,14716,5,0,0:0:0:0:
81,315,14799,1,0,0:0:0:0:
131,339,14882,1,0,0:0:0:0:
184,351,14966,1,0,0:0:0:0:
239,349,15049,1,0,0:0:0:0:
292,333,15132,1,0,0:0:0:0:
339,305,15216,5,0,0:0:0:0:
444,104,15383,2,0,L|300:80,1,105.000004005432
108,208,15716,2,0,L|252:232,1,105.000004005432
444,104,16050,2,0,L|300:80,1,105.000004005432
108,208,16383,1,0,0:0:0:0:
388,296,16550,6,0,B|407:258|407:258|403:206,1,94.5000003604889
324,88,16883,1,0,0:0:0:0:
280,73,16966,1,0,0:0:0:0:
236,88,17049,1,0,0:0:0:0:
88,296,17216,6,0,P|176:308|208:288,1,94.5000003604889
408,200,17550,2,0,L|488:160,2,47.2500001802444
132,72,17883,6,0,P|116:128|124:184,1,94.5000003604889
216,344,18216,1,0,0:0:0:0:
216,344,18300,1,0,0:0:0:0:
216,344,18383,1,0,0:0:0:0:
324,160,18550,1,0,0:0:0:0:
80,168,18716,1,0,0:0:0:0:
340,280,18883,2,0,L|408:312,2,47.2500001802444
368,60,19216,5,0,0:0:0:0:
216,176,19383,1,0,0:0:0:0:
233,219,19466,1,0,0:0:0:0:
267,249,19549,1,0,0:0:0:0:
313,260,19632,1,0,0:0:0:0:
360,269,19716,1,0,0:0:0:0:
394,299,19799,1,0,0:0:0:0:
396,345,19882,1,0,0:0:0:0:
316,84,20050,5,0,0:0:0:0:
281,50,20133,1,0,0:0:0:0:
237,33,20216,1,0,0:0:0:0:
191,34,20299,1,0,0:0:0:0:
148,52,20383,1,0,0:0:0:0:
116,86,20466,1,0,0:0:0:0:
99,130,20549,5,0,0:0:0:0:
40,316,20716,2,0,L|180:304,1,105.000004005432
400,140,21050,2,0,L|260:152,1,105.000004005432
40,316,21383,2,0,L|180:304,1,105.000004005432
400,140,21716,1,0,0:0:0:0:
179,40,21883,6,0,P|135:76|104:144,1,94.5000003604889
120,280,22216,1,0,0:0:0:0:
132,324,22299,1,0,0:0:0:0:
171,348,22382,1,0,0:0:0:0:
440,256,22550,6,0,B|414:219|414:219|340:207,1,94.5000003604889
152,136,22883,2,0,L|100:88,2,47.2500001802444
300,312,23216,5,0,0:0:0:0:
368,152,23383,1,0,0:0:0:0:
228,232,23550,5,0,0:0:0:0:
400,264,23716,1,0,0:0:0:0:
220,64,23883,5,0,0:0:0:0:
136,232,24050,1,0,0:0:0:0:
420,88,24216,2,0,P|448:140|444:200,1,94.5000003604889
256,276,24550,5,0,0:0:0:0:
340,48,24716,1,0,0:0:0:0:
385,34,24799,1,0,0:0:0:0:
421,59,24882,1,0,0:0:0:0:
435,104,24965,1,0,0:0:0:0:
432,150,25049,1,0,0:0:0:0:
423,197,25132,1,0,0:0:0:0:
423,244,25215,1,0,0:0:0:0:
208,336,25383,5,0,0:0:0:0:
153,347,25466,1,0,0:0:0:0:
101,333,25549,1,0,0:0:0:0:
60,296,25632,1,0,0:0:0:0:
41,245,25716,1,0,0:0:0:0:
47,191,25799,1,0,0:0:0:0:
77,145,25882,1,0,0:0:0:0:
392,72,26050,6,0,L|380:188,1,105.000004005432
120,312,26383,2,0,L|132:196,1,105.000004005432
392,72,26716,1,0,0:0:0:0:
388,106,26799,1,0,0:0:0:0:
384,141,26882,1,0,0:0:0:0:
380,176,26965,1,0,0:0:0:0:
376,211,27049,1,0,0:0:0:0:
372,245,27132,1,0,0:0:0:0:
369,280,27215,1,0,0:0:0:0:
140,64,27383,5,0,0:0:0:0:
288,196,27550,1,0,0:0:0:0:
140,64,27716,1,0,0:0:0:0:
288,196,27883,1,0,0:0:0:0:
116,212,28050,5,0,0:0:0:0:
296,116,28216,1,0,0:0:0:0:
240,280,28383,5,0,0:0:0:0:
200,88,28550,1,0,0:0:0:0:
372,208,28716,5,0,0:0:0:0:
132,144,28883,1,0,0:0:0:0:
320,308,29050,1,0,0:0:0:0:
360,40,29216,5,0,0:0:0:0:
108,300,29383,1,0,0:0:0:0:
120,300,29716,1,0,0:0:0:0:
240,248,29883,6,0,P|308:248|368:224,1,90.9999958343508
272,168,30216,1,0,0:0:0:0:
400,160,30383,1,0,0:0:0:0:
316,72,30550,2,0,P|204:72|188:76,1,90.9999958343508
264,180,30883,2,0,B|280:212|280:212|308:236|308:236|332:292,1,90.9999958343508
176,336,31216,5,0,0:0:0:0:
88,224,31383,2,0,P|88:128|100:104,2,90.9999958343508
208,268,31883,1,0,0:0:0:0:
281,253,32050,1,0,0:0:0:0:
336,202,32216,1,0,0:0:0:0:
356,130,32383,1,0,0:0:0:0:
192,76,32550,6,0,P|112:80|76:96,1,90.9999958343508
44,208,32883,1,0,0:0:0:0:
248,156,33050,2,0,P|292:88|296:44,1,90.9999958343508
180,44,33383,1,0,0:0:0:0:
336,202,33550,1,0,0:0:0:0:
136,192,33716,6,0,P|144:236|180:268,1,90.9999958343508
296,112,34050,2,0,B|335:79|335:79|407:51,1,90.9999958343508
452,280,34383,1,0,0:0:0:0:
352,184,34550,1,0,0:0:0:0:
336,276,34717,1,0,0:0:0:0:
440,188,34884,1,0,0:0:0:0:
272,188,35050,5,0,0:0:0:0:
388,48,35216,1,0,0:0:0:0:
200,124,35383,2,0,P|180:176|176:210,1,90.9999958343508
352,200,35716,1,0,0:0:0:0:
208,44,35883,2,0,P|168:52|128:116,1,90.9999958343508
191,218,36216,2,0,P|215:258|295:286,1,90.9999958343508
384,136,36550,5,0,0:0:0:0:
460,320,36716,2,0,P|392:336|340:320,1,90.9999958343508
256,260,37050,1,0,0:0:0:0:
320,96,37216,5,0,0:0:0:0:
176,136,37383,1,0,0:0:0:0:
308,184,37550,1,0,0:0:0:0:
228,44,37716,1,0,0:0:0:0:
152,276,37883,5,0,0:0:0:0:
144,144,38050,2,0,P|92:100|44:92,1,90.9999958343508
76,300,38383,2,0,P|140:356|176:356,1,90.9999958343508
300,236,38716,1,0,0:0:0:0:
184,224,38883,1,0,0:0:0:0:
276,332,39050,5,0,0:0:0:0:
248,160,39216,1,0,0:0:0:0:
204,304,39383,1,0,0:0:0:0:
356,280,39550,1,0,0:0:0:0:
144,144,39716,5,0,0:0:0:0:
276,332,39883,1,0,0:0:0:0:
392,112,40050,1,0,0:0:0:0:
104,237,40216,1,0,0:0:0:0:
464,208,40550,5,0,0:0:0:0:
464,208,40716,2,0,B|464:256|464:256|432:312,1,90.9999958343508
320,224,41050,1,0,0:0:0:0:
372,80,41216,1,0,0:0:0:0:
244,168,41383,1,0,0:0:0:0:
400,164,41550,1,0,0:0:0:0:
132,96,41716,6,0,P|112:148|156:260,1,181.999991668702
320,120,42216,1,0,0:0:0:0:
464,208,42383,2,0,B|432:268|352:256|352:256|332:288|300:296,1,181.999991668702
384,168,42883,1,0,0:0:0:0:
104,272,43050,1,0,0:0:0:0:
272,88,43216,1,0,0:0:0:0:
285,75,43550,1,0,0:0:0:0:
299,63,43883,1,0,0:0:0:0:
312,51,44216,1,0,0:0:0:0:
326,39,44550,5,0,0:0:0:0:
344,268,44716,2,0,L|348:328,2,45.4999979171754
224,228,45050,5,0,0:0:0:0:
440,96,45216,1,0,0:0:0:0:
196,64,45383,1,0,0:0:0:0:
151,69,45466,1,0,0:0:0:0:
110,88,45549,1,0,0:0:0:0:
77,120,45633,1,0,0:0:0:0:
57,160,45716,1,0,0:0:0:0:
50,205,45799,1,0,0:0:0:0:
59,249,45883,6,0,P|96:320|144:344,1,94.5000003604889
168,184,46216,1,0,0:0:0:0:
280,328,46383,2,0,P|348:304|376:264,1,94.5000003604889
476,112,46716,2,0,P|404:88|372:96,1,94.5000003604889
236,136,47050,1,0,0:0:0:0:
408,208,47216,5,0,0:0:0:0:
256,268,47383,1,0,0:0:0:0:
328,100,47550,1,0,0:0:0:0:
372,304,47716,2,0,P|340:344|292:360,1,94.5000003604889
204,200,48050,2,0,B|156:200|156:200|88:232,1,94.5000003604889
40,344,48383,1,0,0:0:0:0:
196,308,48550,5,0,0:0:0:0:
56,144,48716,1,0,0:0:0:0:
276,132,48883,1,0,0:0:0:0:
108,256,49050,1,0,0:0:0:0:
212,56,49216,1,0,0:0:0:0:
272,288,49383,1,0,0:0:0:0:
356,172,49550,1,0,0:0:0:0:
72,336,49716,5,0,0:0:0:0:
72,336,49800,1,0,0:0:0:0:
72,336,49883,1,0,0:0:0:0:
456,40,50133,2,0,L|459:181,1,141.750000540733
459,181,50550,1,0,0:0:0:0:
52,181,51216,6,0,L|147:175,1,94.5000003604889
252,332,51550,1,0,0:0:0:0:
200,328,51633,1,0,0:0:0:0:
167,289,51716,1,0,0:0:0:0:
392,112,51883,1,0,0:0:0:0:
376,296,52050,1,0,0:0:0:0:
160,72,52216,1,0,0:0:0:0:
160,72,52300,1,0,0:0:0:0:
160,72,52383,1,0,0:0:0:0:
256,212,52550,6,0,B|288:204|308:192|308:192|392:196,1,105.000004005432
357,194,52800,1,0,0:0:0:0:
357,194,52883,1,0,0:0:0:0:
212,96,53050,1,0,0:0:0:0:
264,336,53216,1,0,0:0:0:0:
96,244,53383,5,0,0:0:0:0:
300,80,53550,1,0,0:0:0:0:
350,67,53633,1,0,0:0:0:0:
400,80,53716,1,0,0:0:0:0:
437,116,53800,1,0,0:0:0:0:
452,166,53883,1,0,0:0:0:0:
168,308,54050,5,0,0:0:0:0:
320,196,54216,2,0,L|376:200,2,52.5000020027161
172,100,54550,2,0,B|116:96|116:96|69:111,1,105.000004005432
308,304,54883,2,0,P|358:292|401:262,1,105.000004005432
100,248,55216,5,0,0:0:0:0:
264,140,55383,1,0,0:0:0:0:
132,352,55550,1,0,0:0:0:0:
376,144,55716,1,0,0:0:0:0:
248,348,55883,1,0,0:0:0:0:
112,152,56050,1,0,0:0:0:0:
368,244,56216,1,0,0:0:0:0:
160,272,56383,1,0,0:0:0:0:
296,80,56550,6,0,P|340:60|436:68,1,105.000004005432
368,244,56883,1,0,0:0:0:0:
368,244,56966,1,0,0:0:0:0:
368,244,57050,1,0,0:0:0:0:
208,60,57216,1,0,0:0:0:0:
56,192,57383,1,0,0:0:0:0:
45,241,57466,1,0,0:0:0:0:
58,292,57549,1,0,0:0:0:0:
92,332,57633,1,0,0:0:0:0:
141,351,57716,1,0,0:0:0:0:
296,144,57883,6,0,P|360:128|400:136,1,105.000004005432
397,135,58133,1,0,0:0:0:0:
397,135,58216,1,0,0:0:0:0:
444,292,58383,1,0,0:0:0:0:
108,192,58550,6,0,B|126:165|131:148|131:148|165:136|201:109,1,105.000004005432
180,122,58800,1,0,0:0:0:0:
180,122,58883,1,0,0:0:0:0:
192,304,59050,1,0,0:0:0:0:
468,208,59216,5,0,0:0:0:0:
208,80,59383,1,0,0:0:0:0:
163,114,59466,1,0,0:0:0:0:
182,171,59549,1,0,0:0:0:0:
220,219,59633,1,0,0:0:0:0:
251,272,59716,1,0,0:0:0:0:
244,330,59799,1,0,0:0:0:0:
188,348,59883,1,0,0:0:0:0:
20,140,60050,5,0,0:0:0:0:
64,99,60133,1,0,0:0:0:0:
123,90,60216,1,0,0:0:0:0:
178,117,60300,1,0,0:0:0:0:
220,162,60383,1,0,0:0:0:0:
265,203,60466,1,0,0:0:0:0:
324,208,60550,1,0,0:0:0:0:
420,80,60716,5,0,0:0:0:0:
152,264,60883,1,0,0:0:0:0:
304,56,61050,1,0,0:0:0:0:
348,280,61216,5,0,0:0:0:0:
148,96,61383,1,0,0:0:0:0:
95,90,61466,1,0,0:0:0:0:
48,110,61549,1,0,0:0:0:0:
14,150,61633,1,0,0:0:0:0:
3,202,61716,1,0,0:0:0:0:
18,250,61799,1,0,0:0:0:0:
57,287,61883,6,0,P|126:298|159:262,1,105.000004005432
224,136,62216,1,0,0:0:0:0:
234,85,62299,1,0,0:0:0:0:
211,39,62382,1,0,0:0:0:0:
108,316,62550,2,0,B|165:315|165:315|242:277,1,105.000004005432
230,279,62800,1,0,0:0:0:0:
252,265,62883,1,0,0:0:0:0:
274,250,62967,1,0,0:0:0:0:
296,236,63050,1,0,0:0:0:0:
136,100,63216,5,0,0:0:0:0:
384,152,63383,2,0,L|448:168,2,52.5000020027161
112,208,63716,1,0,0:0:0:0:
312,76,63883,1,0,0:0:0:0:
208,300,64050,1,0,0:0:0:0:
208,300,64133,1,0,0:0:0:0:
208,300,64216,1,0,0:0:0:0:
436,240,64383,1,0,0:0:0:0:
180,128,64550,6,0,P|140:96|128:44,1,105.000004005432
324,180,64883,1,0,0:0:0:0:
337,228,64966,1,0,0:0:0:0:
306,268,65049,1,0,0:0:0:0:
180,128,65216,5,0,0:0:0:0:
440,128,65383,1,0,0:0:0:0:
223,43,65550,2,0,L|172:51,2,52.5000020027161
264,304,65883,5,0,0:0:0:0:
304,148,66050,1,0,0:0:0:0:
172,208,66216,1,0,0:0:0:0:
404,312,66383,1,0,0:0:0:0:
328,60,66550,1,0,0:0:0:0:
476,216,66716,1,0,0:0:0:0:
200,160,66883,1,0,0:0:0:0:
468,48,67050,1,0,0:0:0:0:
264,316,67216,6,0,L|97:322,2,136.499993751526
404,348,67883,1,0,0:0:0:0:
260,112,68050,1,0,0:0:0:0:
196,244,68216,1,0,0:0:0:0:
404,156,68383,1,0,0:0:0:0:
80,184,68550,6,0,L|64:346,2,136.499993751526
308,76,69216,2,0,L|483:92,2,136.499993751526
308,76,69883,1,0,0:0:0:0:
92,264,71216,6,0,B|144:300|204:272|204:272|216:292|216:292|236:288|236:288|248:312|248:312|292:304,1,210.000008010865
324,159,71716,2,0,B|312:120|229:124|244:176|144:244|124:188,1,210.000008010865
64,72,72216,2,0,P|136:120|144:152,1,105.000004005432
276,220,72550,6,0,B|312:236|320:276|320:276|396:236|464:268,1,181.999991668702
248,292,73050,1,0,0:0:0:0:
248,292,73216,2,0,P|164:292|124:264,1,90.9999958343508
264,136,73550,2,0,B|288:148|312:148|312:148|364:196,1,90.9999958343508
72,300,73883,6,0,B|60:264|72:232|72:232|56:176|116:152|84:104,1,181.999991668702
204,216,74383,1,0,0:0:0:0:
204,216,74550,2,0,P|264:224|320:208,1,90.9999958343508
376,160,74883,1,0,0:0:0:0:
374,261,75050,1,0,0:0:0:0:
192,88,75216,6,0,P|136:84|84:128,1,90.9999958343508
64,220,75550,1,0,0:0:0:0:
64,220,75716,2,0,L|60:344,2,90.9999958343508
192,88,76216,1,0,0:0:0:0:
192,88,76383,6,0,P|248:54|290:56,1,90.9999958343508
275,172,76716,2,0,P|304:230|299:272,1,90.9999958343508
186,252,77050,2,0,P|123:274|82:263,2,90.9999958343508
275,180,77550,1,0,0:0:0:0:
381,221,77716,1,0,0:0:0:0:
447,321,77883,5,0,0:0:0:0:
447,321,78050,2,0,B|429:331|414:315|414:315|360:332|356:310|356:310|330:326|290:335|248:325,1,181.999991668702
289,211,78550,2,0,B|305:169|305:169|334:133,1,90.9999958343508
448,230,78883,1,0,0:0:0:0:
384,56,79050,1,0,0:0:0:0:
350,314,79216,5,0,0:0:0:0:
350,314,79383,2,0,P|272:326|225:312,1,90.9999958343508
151,235,79716,1,0,0:0:0:0:
289,211,79883,5,0,0:0:0:0:
167,141,80050,1,0,0:0:0:0:
189,329,80216,1,0,0:0:0:0:
55,255,80383,1,0,0:0:0:0:
251,273,80550,5,0,0:0:0:0:
248,140,80716,2,0,B|249:79|304:53,1,90.9999958343508
445,226,81050,2,0,L|344:235,1,90.9999958343508
165,256,81383,1,0,0:0:0:0:
165,256,81550,1,0,0:0:0:0:
388,60,81716,6,0,P|397:116|383:169,1,90.9999958343508
253,362,82050,2,0,P|244:306|258:253,1,90.9999958343508
348,137,82383,1,0,0:0:0:0:
369,289,82550,1,0,0:0:0:0:
220,95,82716,1,0,0:0:0:0:
269,212,82883,1,0,0:0:0:0:
73,169,83050,1,0,0:0:0:0:
302,57,83216,5,0,0:0:0:0:
302,57,83383,2,0,B|338:45|338:45|359:52|390:50,1,90.9999958343508
452,246,83716,2,0,L|441:346,2,90.9999958343508
472,80,84216,1,0,0:0:0:0:
305,273,84383,6,0,B|273:268|240:281|240:281|236:254|236:254|196:251|175:224|175:224|161:245|124:252,1,181.999991668702
55,332,84883,1,0,0:0:0:0:
234,181,85050,2,0,L|359:171,1,90.9999958343508
434,328,85383,5,0,0:0:0:0:
285,44,85550,1,0,0:0:0:0:
241,320,85716,1,0,0:0:0:0:
141,153,85883,1,0,0:0:0:0:
133,131,86216,1,0,0:0:0:0:
126,109,86550,1,0,0:0:0:0:
39,201,86716,5,0,0:0:0:0:
249,72,86883,1,0,0:0:0:0:
178,262,87050,1,0,0:0:0:0:
376,116,87216,1,0,0:0:0:0:
392,100,87550,1,0,0:0:0:0:
409,86,87883,1,0,0:0:0:0:
464,264,88050,5,0,0:0:0:0:
452,314,88133,1,0,0:0:0:0:
408,337,88216,1,0,0:0:0:0:
356,334,88299,1,0,0:0:0:0:
305,324,88383,1,0,0:0:0:0:
253,319,88466,1,0,0:0:0:0:
202,322,88549,5,0,0:0:0:0:
260,164,88716,1,0,0:0:0:0:
96,240,88883,1,0,0:0:0:0:
102,79,89050,2,0,P|164:53|223:58,1,90.9999958343508
359,203,89383,2,0,B|340:228|340:228|248:229,1,90.9999958343508
158,257,89716,1,0,0:0:0:0:
317,55,89883,6,0,P|419:37|442:42,1,90.9999958343508
472,140,90216,1,0,0:0:0:0:
148,168,90383,2,0,P|89:198|65:243,1,90.9999958343508
148,340,90716,1,0,0:0:0:0:
52,123,90883,1,0,0:0:0:0:
235,236,91050,1,0,0:0:0:0:
235,236,91133,1,0,0:0:0:0:
235,236,91216,5,0,0:0:0:0:
85,244,91383,1,0,0:0:0:0:
242,328,91550,1,0,0:0:0:0:
227,112,91716,1,0,0:0:0:0:
421,212,91883,1,0,0:0:0:0:
230,233,92050,1,0,0:0:0:0:
330,39,92216,1,0,0:0:0:0:
371,344,92383,1,0,0:0:0:0:
371,344,92466,1,0,0:0:0:0:
371,344,92550,5,0,0:0:0:0:
35,31,92800,2,0,L|40:180,1,136.499993751526
39,167,93216,1,0,0:0:0:0:
448,292,93883,6,0,L|304:296,1,105.000004005432
196,132,94216,1,0,0:0:0:0:
236,99,94299,1,0,0:0:0:0:
287,90,94382,1,0,0:0:0:0:
384,208,94550,1,0,0:0:0:0:
120,40,94716,1,0,0:0:0:0:
200,332,94883,1,0,0:0:0:0:
200,332,94966,1,0,0:0:0:0:
200,332,95050,1,0,0:0:0:0:
436,124,95216,6,0,P|376:64|312:48,1,105.000004005432
104,172,95550,1,0,0:0:0:0:
100,222,95633,1,0,0:0:0:0:
134,261,95716,1,0,0:0:0:0:
288,324,95883,1,0,0:0:0:0:
232,88,96050,1,0,0:0:0:0:
56,328,96216,1,0,0:0:0:0:
56,328,96300,1,0,0:0:0:0:
56,328,96383,1,0,0:0:0:0:
312,76,96550,6,0,L|440:88,1,105.000004005432
273,178,96883,2,0,L|205:170,2,52.5000020027161
400,228,97216,1,0,0:0:0:0:
232,88,97383,1,0,0:0:0:0:
288,312,97550,1,0,0:0:0:0:
288,312,97633,1,0,0:0:0:0:
288,312,97716,1,0,0:0:0:0:
76,152,97883,5,0,0:0:0:0:
280,76,98050,1,0,0:0:0:0:
156,212,98216,5,0,0:0:0:0:
400,180,98383,1,0,0:0:0:0:
152,80,98550,5,0,0:0:0:0:
296,280,98716,1,0,0:0:0:0:
56,224,98883,5,0,0:0:0:0:
336,140,99050,1,0,0:0:0:0:
208,316,99216,6,0,L|88:320,1,105.000004005432
160,216,99550,1,0,0:0:0:0:
160,216,99633,1,0,0:0:0:0:
160,216,99716,1,0,0:0:0:0:
356,320,99883,2,0,P|404:248|392:192,1,105.000004005432
402,189,100133,1,0,0:0:0:0:
386,148,100216,1,0,0:0:0:0:
359,114,100299,1,0,0:0:0:0:
323,90,100383,1,0,0:0:0:0:
281,78,100466,1,0,0:0:0:0:
237,79,100550,6,0,P|152:88|108:76,1,105.000004005432
84,93,100800,1,0,0:0:0:0:
63,139,100883,1,0,0:0:0:0:
152,324,101050,1,0,0:0:0:0:
284,172,101216,1,0,0:0:0:0:
48,240,101383,1,0,0:0:0:0:
288,284,101550,2,0,L|360:292,2,52.5000020027161
168,164,101883,5,0,0:0:0:0:
340,56,102050,1,0,0:0:0:0:
399,82,102133,1,0,0:0:0:0:
405,148,102216,1,0,0:0:0:0:
357,199,102299,1,0,0:0:0:0:
305,245,102383,1,0,0:0:0:0:
294,310,102466,1,0,0:0:0:0:
350,347,102549,1,0,0:0:0:0:
480,228,102716,5,0,0:0:0:0:
463,166,102799,1,0,0:0:0:0:
401,152,102882,1,0,0:0:0:0:
336,164,102965,1,0,0:0:0:0:
273,181,103049,1,0,0:0:0:0:
209,195,103132,1,0,0:0:0:0:
144,199,103215,5,0,0:0:0:0:
83,177,103299,1,0,0:0:0:0:
61,117,103382,1,0,0:0:0:0:
244,32,103550,1,0,0:0:0:0:
274,73,103633,1,0,0:0:0:0:
285,124,103716,1,0,0:0:0:0:
148,320,103883,5,0,0:0:0:0:
107,286,103966,1,0,0:0:0:0:
85,239,104049,1,0,0:0:0:0:
86,187,104132,1,0,0:0:0:0:
108,140,104216,2,0,P|120:112|168:64,1,56
244,32,104383,2,0,P|232:116|224:124,1,56
188,188,104550,6,0,P|272:220|328:204,1,105.000004005432
360,88,104883,2,0,L|380:36,2,52.5000020027161
220,320,105216,1,0,0:0:0:0:
417,249,105383,1,0,0:0:0:0:
455,229,105466,1,0,0:0:0:0:
472,190,105549,1,0,0:0:0:0:
465,146,105632,1,0,0:0:0:0:
441,110,105716,1,0,0:0:0:0:
404,89,105799,1,0,0:0:0:0:
360,88,105883,6,0,P|274:105|247:131,1,105.000004005432
223,149,106133,1,0,0:0:0:0:
172,153,106216,1,0,0:0:0:0:
88,40,106383,1,0,0:0:0:0:
380,172,106550,1,0,0:0:0:0:
184,268,106716,1,0,0:0:0:0:
136,287,106799,1,0,0:0:0:0:
85,278,106882,1,0,0:0:0:0:
47,243,106965,1,0,0:0:0:0:
33,193,107049,1,0,0:0:0:0:
288,48,107216,6,0,B|284:80|284:80|288:120|288:120|252:168,1,105.000004005432
448,344,107550,2,0,P|360:332|336:308,1,105.000004005432
360,88,107883,1,0,0:0:0:0:
128,168,108050,1,0,0:0:0:0:
312,224,108216,1,0,0:0:0:0:
312,224,108300,1,0,0:0:0:0:
312,224,108383,1,0,0:0:0:0:
220,44,108550,5,0,0:0:0:0:
204,304,108716,1,0,0:0:0:0:
388,160,108883,5,0,0:0:0:0:
108,76,109050,1,0,0:0:0:0:
116,264,109216,5,0,0:0:0:0:
304,36,109383,1,0,0:0:0:0:
296,320,109550,1,0,0:0:0:0:
172,60,109716,1,0,0:0:0:0:
448,216,109883,6,0,L|432:356,2,136.499993751526
224,148,110550,2,0,P|172:156|108:148,1,90.9999958343508
204,40,110883,2,0,P|284:48|308:68,1,90.9999958343508
448,216,111216,6,0,L|432:356,2,136.499993751526
468,24,111883,1,0,0:0:0:0:
248,252,112050,1,0,0:0:0:0:
235,270,112133,1,0,0:0:0:0:
221,288,112217,1,0,0:0:0:0:
207,307,112300,1,0,0:0:0:0:
192,328,112384,2,0,B|164:360|164:360|132:272|36:280,1,181.999991668702
60,64,112883,6,0,P|148:84|180:108,1,90.9999958343508
228,188,113216,2,0,B|204:156|188:148|188:148|208:132|244:76,1,105.000004005432
324,40,113550,1,0,0:0:0:0:
94,105,113716,2,0,B|62:129|79:216|155:216|155:216|156:249|207:286,1,210.000008010865
304,128,114216,1,0,0:0:0:0:
152,144,114383,1,0,0:0:0:0:
312,272,114550,6,0,P|412:260|436:236,1,105.000004005432
352,64,114883,1,0,0:0:0:0:
192,248,115050,2,0,B|136:240|136:240|72:252,1,105.000004005432
32,352,115383,1,0,0:0:0:0:
179,56,115550,2,0,B|217:90|217:90|240:140,1,105.000004005432
312,272,115883,6,0,P|412:260|436:236,1,105.000004005432
352,64,116216,1,0,0:0:0:0:
192,248,116383,2,0,B|136:240|136:240|72:252,1,105.000004005432
32,352,116716,5,0,0:0:0:0:
179,56,116883,2,0,B|217:90|217:90|240:140,1,105.000004005432
312,272,117216,1,0,0:0:0:0:
88,140,117383,1,0,0:0:0:0:
352,64,117550,1,0,0:0:0:0:
124,292,117716,2,0,B|168:348|248:324|248:324|296:368|360:340,1,210.000008010865
244,160,118216,6,0,P|200:236|216:288,1,105.000004005432
401,149,118550,2,0,P|390:98|302:58,1,105.000004005432
364,292,118883,1,0,0:0:0:0:
62,221,119050,2,0,P|57:120|136:56,1,210.000008010865
316,88,119550,5,0,0:0:0:0:
148,168,119716,1,0,0:0:0:0:
280,228,119883,2,0,P|371:211|419:223,1,105.000004005432
472,328,120216,1,0,0:0:0:0:
456,64,120383,2,0,B|368:12|328:128|224:96,1,210.000008010865
152,40,120883,5,0,0:0:0:0:
407,157,121050,1,0,0:0:0:0:
280,228,121216,2,0,P|214:217|151:231,1,105.000004005432
97,343,121550,1,0,0:0:0:0:
132,116,121716,1,0,0:0:0:0:
224,328,121883,6,0,P|328:308|356:280,1,105.000004005432
456,64,122216,2,0,B|404:60|404:60|324:76,1,105.000004005432
352,70,122466,1,0,0:0:0:0:
352,70,122550,1,0,0:0:0:0:
440,308,122716,1,0,0:0:0:0:
40,52,123050,6,0,B|76:40|76:40|144:64|144:64|204:40|204:40|248:52,1,210.000008010865
296,216,123550,2,0,B|244:188|244:188|212:144,1,105.000004005432
88,128,123883,1,0,0:0:0:0:
184,288,124050,1,0,0:0:0:0:
240,116,124216,1,0,0:0:0:0:
76,244,124383,6,0,P|48:296|60:352,1,105.000004005432
296,216,124716,2,0,L|304:104,1,105.000004005432
412,36,125050,1,0,0:0:0:0:
152,48,125216,2,0,B|144:104|144:104|160:140|160:180,1,105.000004005432
392,268,125550,5,0,0:0:0:0:
392,268,125716,2,0,B|392:304|408:332|408:332|352:336|300:308|260:344,1,210.000008010865
336,104,126216,2,0,P|400:92|452:112,1,105.000004005432
460,216,126550,1,0,0:0:0:0:
224,180,126716,2,0,P|196:144|196:72,1,105.000004005432
64,304,127050,6,0,L|32:356,2,52.5000020027161
168,116,127383,2,0,B|200:76|200:76|272:76,1,105.000004005432
360,340,127716,1,0,0:0:0:0:
360,340,127800,1,0,0:0:0:0:
360,340,127883,1,0,0:0:0:0:
212,200,128050,1,0,0:0:0:0:
472,252,128216,1,0,0:0:0:0:
284,76,128383,6,0,L|64:84,1,210.000008010865
264,152,128883,2,0,L|416:148,1,105.000004005432
316,288,129216,1,0,0:0:0:0:
152,60,129383,1,0,0:0:0:0:
80,216,129550,1,0,0:0:0:0:
407,134,129716,6,0,L|388:344,1,210.000008010865
320,160,130216,2,0,P|326:103|388:40,1,105.000004005432
464,216,130550,1,0,0:0:0:0:
208,84,130716,1,0,0:0:0:0:
356,248,130883,1,0,0:0:0:0:
132,240,131050,6,0,B|92:224|52:244|52:244|76:184|68:88,1,210.000008010865
208,84,131550,1,0,0:0:0:0:
196,332,131716,1,0,0:0:0:0:
196,332,131800,1,0,0:0:0:0:
196,332,131883,1,0,0:0:0:0:
300,192,132050,2,0,P|324:120|232:44,1,210.000008010865
180,48,132466,1,0,0:0:0:0:
145,85,132549,1,0,0:0:0:0:
88,268,132716,5,0,0:0:0:0:
232,128,132883,1,0,0:0:0:0:
192,328,133050,1,0,0:0:0:0:
408,204,133216,1,0,0:0:0:0:
208,44,133383,1,0,0:0:0:0:
155,41,133466,1,0,0:0:0:0:
105,56,133549,1,0,0:0:0:0:
64,87,133633,1,0,0:0:0:0:
35,131,133716,1,0,0:0:0:0:
24,182,133799,1,0,0:0:0:0:
31,234,133883,5,0,0:0:0:0:
432,72,138550,5,0,0:0:0:0:
432,98,138633,1,0,0:0:0:0:
432,124,138716,1,0,0:0:0:0:
432,150,138800,1,0,0:0:0:0:
432,177,138883,2,0,L|432:296,1,105
400,296,139216,5,0,0:0:0:0:
164,252,139383,1,0,0:0:0:0:
472,104,139716,5,0,0:0:0:0:
280,120,139883,1,0,0:0:0:0:
392,204,140050,2,0,L|256:212,1,105
276,244,140383,5,0,0:0:0:0:
168,44,140550,1,0,0:0:0:0:
192,304,140716,1,0,0:0:0:0:
264,56,141050,5,0,0:0:0:0:
296,312,141216,1,0,0:0:0:0:
204,180,141383,2,0,L|216:312,1,105
200,316,141716,5,0,0:0:0:0:
40,192,141883,1,0,0:0:0:0:
368,120,142050,1,0,0:0:0:0:
304,280,142216,5,0,0:0:0:0:
316,44,142383,1,0,0:0:0:0:
240,196,142550,2,0,L|243:126,2,70
400,40,143050,5,0,0:0:0:0:
452,248,143216,1,0,0:0:0:0:
240,176,143383,1,0,0:0:0:0:
484,120,143550,1,0,0:0:0:0:
320,320,143716,5,0,0:0:0:0:
260,64,143883,1,0,0:0:0:0:
112,240,144050,1,0,0:0:0:0:
124,284,144133,1,0,0:0:0:0:
152,321,144216,1,0,0:0:0:0:
192,345,144300,1,0,0:0:0:0:
237,352,144383,1,0,0:0:0:0:
283,342,144466,1,0,0:0:0:0:
321,315,144550,5,0,0:0:0:0:
440,212,144716,2,0,L|448:80,1,105
476,92,145049,5,0,0:0:0:0:
180,28,145216,1,0,0:0:0:0:
376,144,145383,1,0,0:0:0:0:
160,236,145550,5,0,0:0:0:0:
352,44,145716,1,0,0:0:0:0:
68,104,145883,5,0,0:0:0:0:
168,160,146050,2,0,L|296:164,1,105
291,193,146383,1,0,0:0:0:0:
456,40,146550,1,0,0:0:0:0:
328,284,146716,1,0,0:0:0:0:
204,36,146883,5,0,0:0:0:0:
84,284,147050,1,0,0:0:0:0:
60,164,147216,2,0,L|84:92,2,70
104,344,147716,1,0,0:0:0:0:
168,132,147883,2,0,L|244:52,2,90.9999958343508
20,312,148383,1,0,0:0:0:0:
284,180,148550,2,0,L|432:168,2,105.000004005432
32,220,149050,5,0,0:0:0:0:
348,288,149216,1,0,0:0:0:0:
248,72,149383,1,0,0:0:0:0:
201,49,149466,1,0,0:0:0:0:
149,50,149549,1,0,0:0:0:0:
103,74,149633,1,0,0:0:0:0:
74,117,149716,1,0,0:0:0:0:
67,169,149799,1,0,0:0:0:0:
84,218,149883,5,0,0:0:0:0:
114,260,149967,1,0,0:0:0:0:
157,290,150050,1,0,0:0:0:0:
207,305,150134,1,0,0:0:0:0:
259,304,150217,1,0,0:0:0:0:
308,285,150300,1,0,0:0:0:0:
348,252,150384,1,0,0:0:0:0:
376,208,150467,1,0,0:0:0:0:
388,157,150550,6,0,P|396:100|392:84,1,52.5000020027161
296,20,150716,2,0,P|300:76|310:90,1,52.5000020027161
248,196,150883,2,0,P|244:160|224:136,1,52.5000020027161
144,48,151050,2,0,P|132:104|136:128,1,52.5000020027161
132,200,151216,5,0,0:0:0:0:
150,255,151299,1,0,0:0:0:0:
201,284,151382,1,0,0:0:0:0:
259,274,151466,1,0,0:0:0:0:
301,233,151549,1,0,0:0:0:0:
324,177,151632,1,0,0:0:0:0:
342,120,151716,1,0,0:0:0:0:
377,72,151799,1,0,0:0:0:0:
426,38,151883,6,0,L|498:38,1,52.5000020027161
493,116,152050,2,0,L|417:117,1,52.5000020027161
412,190,152216,2,0,L|504:191,1,52.5000020027161
490,266,152383,2,0,L|420:266,1,52.5000020027161
320,309,152550,5,0,0:0:0:0:
271,290,152633,1,0,0:0:0:0:
232,255,152716,1,0,0:0:0:0:
209,208,152800,1,0,0:0:0:0:
205,156,152883,1,0,0:0:0:0:
220,107,152966,1,0,0:0:0:0:
253,66,153050,1,0,0:0:0:0:
299,40,153133,1,0,0:0:0:0:
368,34,153217,5,0,0:0:0:0:
427,69,153300,1,0,0:0:0:0:
451,133,153384,1,0,0:0:0:0:
431,199,153467,1,0,0:0:0:0:
373,235,153550,1,0,0:0:0:0:
304,237,153634,1,0,0:0:0:0:
236,220,153717,1,0,0:0:0:0:
169,201,153800,1,0,0:0:0:0:
100,203,153884,5,0,0:0:0:0:
342,123,154133,2,0,L|356:326,1,157.500006008148
352,280,154550,1,0,0:0:0:0:
268,192,155216,6,0,L|260:60,1,105.000004005432
172,232,155550,1,0,0:0:0:0:
168,284,155633,1,0,0:0:0:0:
165,336,155716,1,0,0:0:0:0:
124,64,155883,1,0,0:0:0:0:
272,296,156050,1,0,0:0:0:0:
364,120,156216,1,0,0:0:0:0:
364,120,156300,1,0,0:0:0:0:
364,120,156383,1,0,0:0:0:0:
448,332,156550,6,0,B|392:324|392:324|312:344,1,105.000004005432
296,354,156800,1,0,0:0:0:0:
244,353,156883,1,0,0:0:0:0:
44,256,157050,1,0,0:0:0:0:
144,356,157216,5,0,0:0:0:0:
112,120,157383,1,0,0:0:0:0:
264,232,157550,1,0,0:0:0:0:
309,255,157633,1,0,0:0:0:0:
359,244,157716,1,0,0:0:0:0:
392,48,157883,5,0,0:0:0:0:
180,168,158050,1,0,0:0:0:0:
171,228,158133,1,0,0:0:0:0:
189,286,158216,1,0,0:0:0:0:
230,330,158300,1,0,0:0:0:0:
287,353,158383,1,0,0:0:0:0:
348,349,158466,1,0,0:0:0:0:
401,319,158550,1,0,0:0:0:0:
264,76,158716,5,0,0:0:0:0:
206,62,158799,1,0,0:0:0:0:
148,70,158882,1,0,0:0:0:0:
98,100,158966,1,0,0:0:0:0:
62,147,159049,1,0,0:0:0:0:
47,204,159132,1,0,0:0:0:0:
54,262,159216,5,0,0:0:0:0:
83,313,159299,1,0,0:0:0:0:
128,350,159382,1,0,0:0:0:0:
316,196,159550,1,0,0:0:0:0:
331,146,159633,1,0,0:0:0:0:
311,99,159716,1,0,0:0:0:0:
124,208,159884,5,0,0:0:0:0:
148,267,159967,1,0,0:0:0:0:
199,307,160050,1,0,0:0:0:0:
264,317,160134,1,0,0:0:0:0:
324,294,160216,2,0,P|368:256|371:239,1,52.5000020027161
316,196,160383,2,0,P|352:136|380:128,1,52.5000020027161
384,80,160550,6,0,P|428:144|408:200,1,105.000004005432
356,312,160883,2,0,L|328:360,2,52.5000020027161
424,164,161216,1,0,0:0:0:0:
236,208,161383,1,0,0:0:0:0:
344,52,161550,1,0,0:0:0:0:
344,52,161633,1,0,0:0:0:0:
344,52,161716,1,0,0:0:0:0:
64,152,161883,6,0,B|72:212|72:212|144:268,1,105.000004005432
128,253,162133,1,0,0:0:0:0:
150,268,162216,1,0,0:0:0:0:
284,340,162383,1,0,0:0:0:0:
188,104,162550,1,0,0:0:0:0:
80,332,162716,1,0,0:0:0:0:
80,332,162800,1,0,0:0:0:0:
80,332,162883,1,0,0:0:0:0:
388,272,163050,1,0,0:0:0:0:
124,128,163216,5,0,0:0:0:0:
272,56,163383,1,0,0:0:0:0:
323,46,163466,1,0,0:0:0:0:
373,58,163549,1,0,0:0:0:0:
415,90,163633,1,0,0:0:0:0:
439,135,163716,1,0,0:0:0:0:
443,187,163799,1,0,0:0:0:0:
425,236,163883,1,0,0:0:0:0:
224,336,164050,5,0,0:0:0:0:
166,355,164133,1,0,0:0:0:0:
106,349,164216,1,0,0:0:0:0:
75,311,164300,1,0,0:0:0:0:
96,253,164383,1,0,0:0:0:0:
101,193,164466,1,0,0:0:0:0:
93,132,164550,1,0,0:0:0:0:
336,144,164716,5,0,0:0:0:0:
72,72,164883,1,0,0:0:0:0:
368,240,165050,5,0,0:0:0:0:
100,196,165216,1,0,0:0:0:0:
448,52,165383,5,0,0:0:0:0:
448,87,165466,1,0,0:0:0:0:
448,122,165549,1,0,0:0:0:0:
448,157,165633,1,0,0:0:0:0:
448,192,165716,1,0,0:0:0:0:
448,227,165799,1,0,0:0:0:0:
448,262,165883,6,0,L|448:368,1,105.000004005432
312,160,166216,1,0,0:0:0:0:
312,107,166299,1,0,0:0:0:0:
312,55,166382,1,0,0:0:0:0:
120,124,166550,1,0,0:0:0:0:
352,280,166716,1,0,0:0:0:0:
140,264,166883,2,0,P|60:260|28:272,1,105.000004005432
396,192,167216,6,0,B|396:144|396:144|372:80,1,105.000004005432
363,67,167466,1,0,0:0:0:0:
350,44,167549,1,0,0:0:0:0:
196,216,167716,1,0,0:0:0:0:
216,56,167883,1,0,0:0:0:0:
32,224,168050,1,0,0:0:0:0:
288,144,168216,1,0,0:0:0:0:
156,312,168383,1,0,0:0:0:0:
96,40,168550,5,0,0:0:0:0:
284,248,168716,2,0,L|332:300,2,52.5000020027161
276,56,169050,1,0,0:0:0:0:
104,148,169216,1,0,0:0:0:0:
392,168,169383,1,0,0:0:0:0:
392,168,169466,1,0,0:0:0:0:
392,168,169550,1,0,0:0:0:0:
152,244,169716,1,0,0:0:0:0:
400,48,169883,5,0,0:0:0:0:
432,316,170050,1,0,0:0:0:0:
192,28,170216,5,0,0:0:0:0:
307,289,170383,1,0,0:0:0:0:
8,44,170550,5,0,0:0:0:0:
256,244,170716,1,0,0:0:0:0:
268,255,170799,1,0,0:0:0:0:
281,266,170882,1,0,0:0:0:0:
294,278,170966,1,0,0:0:0:0:
307,289,171049,1,0,0:0:0:0:
320,301,171132,1,0,0:0:0:0:
336,314,171216,6,0,B|396:364|396:364|421:273,2,136.499993751526
136,144,171883,1,0,0:0:0:0:
176,304,172050,1,0,0:0:0:0:
312,148,172216,1,0,0:0:0:0:
48,272,172383,1,0,0:0:0:0:
340,84,172550,6,0,B|356:32|356:32|256:32,2,136.499993751526
95,333,173216,2,0,L|241:340,2,136.499993751526
152,148,173883,5,0,0:0:0:0:
47,145,174050,1,0,0:0:0:0:
148,244,174216,2,0,L|212:248,2,52.5000020027161
432,328,174550,5,0,0:0:0:0:
327,325,174716,1,0,0:0:0:0:
420,216,174883,2,0,L|480:216,2,52.5000020027161
168,44,175216,5,0,0:0:0:0:
232,216,175383,1,0,0:0:0:0:
238,190,175466,1,0,0:0:0:0:
244,165,175549,1,0,0:0:0:0:
356,48,175716,1,0,0:0:0:0:
350,73,175799,1,0,0:0:0:0:
344,99,175882,5,0,0:0:0:0:
388,344,176050,1,0,0:0:0:0:
394,318,176133,1,0,0:0:0:0:
401,293,176216,1,0,0:0:0:0:
407,267,176300,1,0,0:0:0:0:
414,242,176383,1,0,0:0:0:0:
420,216,176466,1,0,0:0:0:0:
428,192,176550,6,0,L|465:42,2,136.499993751526
408,280,177216,2,0,B|376:300|388:348|388:348|288:320|320:248|304:208|304:208|264:236|216:212,1,315.000012016297
240,104,177883,6,0,L|68:106,2,136.499993751526
240,104,178550,1,0,0:0:0:0:
112,316,179216,6,0,P|188:324|244:316,1,94.5000003604889
352,176,179550,1,0,0:0:0:0:
362,130,179633,1,0,0:0:0:0:
349,85,179716,1,0,0:0:0:0:
176,180,179883,2,0,P|200:236|232:256,1,94.5000003604889
380,308,180216,2,0,L|436:328,2,47.2500001802444
108,60,180550,6,0,B|160:52|160:52|224:72,1,94.5000003604889
288,216,180883,1,0,0:0:0:0:
288,216,180966,1,0,0:0:0:0:
288,216,181050,1,0,0:0:0:0:
100,160,181216,1,0,0:0:0:0:
280,56,181383,1,0,0:0:0:0:
140,292,181550,2,0,L|112:340,2,47.2500001802444
408,320,181883,5,0,0:0:0:0:
364,128,182050,1,0,0:0:0:0:
340,87,182133,1,0,0:0:0:0:
303,59,182216,1,0,0:0:0:0:
257,48,182300,1,0,0:0:0:0:
211,56,182383,1,0,0:0:0:0:
172,82,182466,1,0,0:0:0:0:
146,121,182550,1,0,0:0:0:0:
272,272,182716,5,0,0:0:0:0:
317,262,182799,1,0,0:0:0:0:
348,227,182882,1,0,0:0:0:0:
357,181,182966,1,0,0:0:0:0:
365,135,183049,1,0,0:0:0:0:
388,95,183132,1,0,0:0:0:0:
433,84,183216,1,0,0:0:0:0:
456,340,183383,6,0,L|304:336,1,105.000004005432
140,144,183716,2,0,L|256:148,1,105.000004005432
456,340,184050,2,0,L|336:336,1,105.000004005432
140,144,184383,1,0,0:0:0:0:
401,167,184550,6,0,P|433:116|425:64,1,94.5000003604889
216,216,184883,1,0,0:0:0:0:
219,262,184966,1,0,0:0:0:0:
251,296,185049,1,0,0:0:0:0:
292,80,185216,2,0,P|220:48|176:60,1,94.5000003604889
68,76,185550,2,0,L|16:88,2,47.2500001802444
312,216,185883,6,0,B|364:224|364:224|432:212,1,94.5000003604889
472,320,186216,1,0,0:0:0:0:
472,320,186300,1,0,0:0:0:0:
472,320,186383,1,0,0:0:0:0:
376,72,186550,1,0,0:0:0:0:
344,312,186716,1,0,0:0:0:0:
188,128,186883,2,0,L|144:80,2,47.2500001802444
352,156,187216,5,0,0:0:0:0:
196,272,187383,1,0,0:0:0:0:
152,288,187466,1,0,0:0:0:0:
105,284,187549,1,0,0:0:0:0:
65,259,187633,1,0,0:0:0:0:
41,219,187716,1,0,0:0:0:0:
36,173,187799,1,0,0:0:0:0:
53,129,187883,1,0,0:0:0:0:
288,24,188050,5,0,0:0:0:0:
303,67,188133,1,0,0:0:0:0:
296,114,188216,1,0,0:0:0:0:
281,159,188300,1,0,0:0:0:0:
266,204,188383,1,0,0:0:0:0:
261,251,188466,1,0,0:0:0:0:
271,296,188550,1,0,0:0:0:0:
469,209,188716,6,0,L|360:224,1,105.000004005432
116,100,189050,2,0,L|236:84,1,105.000004005432
469,209,189383,2,0,L|352:224,1,105.000004005432
116,100,189716,1,0,0:0:0:0:
398,136,189883,6,0,P|382:200|358:228,1,94.5000003604889
136,284,190216,1,0,0:0:0:0:
91,270,190299,1,0,0:0:0:0:
63,232,190382,1,0,0:0:0:0:
208,152,190550,2,0,L|312:144,1,94.5000003604889
432,140,190883,2,0,L|496:136,2,47.2500001802444
328,328,191216,6,0,P|264:260|256:224,1,94.5000003604889
252,48,191550,1,0,0:0:0:0:
252,48,191633,1,0,0:0:0:0:
252,48,191716,1,0,0:0:0:0:
408,224,191883,1,0,0:0:0:0:
124,88,192050,1,0,0:0:0:0:
204,292,192216,2,0,L|232:356,2,47.2500001802444
336,112,192550,5,0,0:0:0:0:
440,264,192716,1,0,0:0:0:0:
451,307,192799,1,0,0:0:0:0:
415,335,192882,1,0,0:0:0:0:
368,333,192966,1,0,0:0:0:0:
323,320,193049,1,0,0:0:0:0:
277,308,193132,1,0,0:0:0:0:
230,306,193216,1,0,0:0:0:0:
124,88,193383,5,0,0:0:0:0:
162,61,193466,1,0,0:0:0:0:
208,48,193549,1,0,0:0:0:0:
256,51,193633,1,0,0:0:0:0:
299,69,193716,1,0,0:0:0:0:
334,100,193799,1,0,0:0:0:0:
358,139,193883,5,0,0:0:0:0:
384,268,194050,2,0,L|424:336,2,47.2500001802444
232,176,194383,2,0,L|264:120,2,47.2500001802444
44,328,194716,5,0,0:0:0:0:
91,329,194799,1,0,0:0:0:0:
138,330,194882,1,0,0:0:0:0:
185,331,194966,1,0,0:0:0:0:
232,333,195049,1,0,0:0:0:0:
280,334,195132,1,0,0:0:0:0:
327,335,195216,1,0,0:0:0:0:
152,152,195383,5,0,0:0:0:0:
360,56,195550,1,0,0:0:0:0:
152,152,195716,5,0,0:0:0:0:
360,56,195883,1,0,0:0:0:0:
236,228,196050,5,0,0:0:0:0:
268,32,196216,1,0,0:0:0:0:
332,220,196383,5,0,0:0:0:0:
168,48,196550,1,0,0:0:0:0:
432,132,196716,5,0,0:0:0:0:
100,244,196883,1,0,0:0:0:0:
440,288,197050,1,0,0:0:0:0:
268,32,197216,5,0,0:0:0:0:
164,320,197383,2,0,B|192:324|204:340|204:340|248:332|268:288|268:288|292:320|388:312,1,210.000008010865
