osu file format v4

[General]
AudioFilename: AI - Believe.mp3
AudioLeadIn: 0
AudioHash: 35be3a3b6df9abd67dbe944fc2384a3a
PreviewTime: -1
Countdown: 1
SampleSet: Soft
EditorBookmarks: 54225,234880

[Metadata]
Title:Believe
Artist:AI
Creator:kosmosuzuki
Version:Normal

[Difficulty]
HPDrainRate:5
CircleSize:5
OverallDifficulty:5
SliderMultiplier: 2.6
SliderTickRate: 1

[Events]
//Background and Video events
//Break Periods
2,41884,56276
2,90884,104927
2,167519,193754
2,197012,204785
//Storyboard Layer 0 (Background)
//Storyboard Layer 1 (Failing)
//Storyboard Layer 2 (Passing)
//Storyboard Layer 3 (Foreground)
//Storyboard Sound Samples
//Background Colour Transformations
3,100,163,162,255

[TimingPoints]
0,928.909090909089,4,2,0,78
234532,928.909090909089,4,2,0,78

[HitObjects]
56,56,14049,1,0
136,48,14978,1,0
208,56,15907,1,0
264,56,16836,1,0
304,112,17765,5,0
248,120,18694,1,0
200,120,19623,1,0
160,128,20435,5,0
128,216,21364,5,0
192,216,21945,1,0
192,216,22061,1,0
240,216,22874,1,0
240,216,22990,1,0
120,136,25080,5,0
240,136,26009,1,0
352,136,27054,1,0
448,128,27867,1,0
440,256,28796,5,0
368,256,29725,1,0
304,256,30653,1,0
240,248,31582,1,0
176,256,32395,1,0
120,256,33440,1,0
48,256,34253,1,0
40,88,35530,5,0
112,96,35879,1,0
176,88,36227,1,0
232,88,37156,1,0
232,88,37620,1,0
280,88,38085,1,0
352,88,39014,5,0
352,88,39362,1,0
352,88,39594,1,0
352,88,39943,1,0
448,88,40988,5,0
448,88,41220,1,0
448,88,41452,1,0
448,88,41684,1,0
80,120,57476,6,0,L|80:120|280:112|376:120|448:128|472:136,6,393.75
424,264,73151,2,0,L|424:264|120:264,4,300
264,184,83137,1,0
264,184,83369,1,0
144,184,84298,5,0
264,192,85111,1,0
424,192,85924,1,0
104,232,86969,5,0
144,224,87317,1,0
144,224,87665,1,0
176,200,87898,1,0
288,160,88943,5,0
288,160,89175,1,0
288,160,89407,1,0
352,152,90684,5,0
136,184,106127,5,0
136,184,106360,1,0
296,184,106824,1,0
296,184,107056,1,0
392,184,107521,1,0
448,184,107985,1,0
40,184,109379,5,0
120,184,109611,1,0
120,184,109843,1,0
208,192,110307,1,0
208,192,110540,1,0
280,192,111120,5,0
280,192,111469,1,0
88,184,112978,5,0
216,184,113791,1,0
336,184,114720,1,0
464,184,115649,1,0
56,184,116578,5,0
184,184,116926,1,0
264,184,117506,1,0
352,184,118552,1,0
352,184,118784,1,0
408,184,119364,1,0
48,48,121222,5,0
184,128,122035,1,0
304,208,122964,1,0
424,280,123893,1,0
448,48,124822,5,0
336,104,125751,1,0
232,176,126679,1,0
104,264,127608,1,0
72,160,128537,2,0,L|72:160|360:160,2,281.25
88,80,132253,1,0
88,80,132485,1,0
88,80,132833,1,0
168,80,133182,1,0
168,80,133414,1,0
168,80,133762,1,0
232,80,133995,1,0
64,104,134924,5,0
136,104,135388,1,0
200,104,135852,1,0
256,104,136317,1,0
296,104,136781,1,0
344,104,137362,1,0
400,104,137826,1,0
456,104,138175,1,0
456,152,138639,1,0
32,72,139568,5,0
96,72,140033,1,0
96,128,140497,1,0
40,128,140961,1,0
32,192,141426,1,0
96,192,141890,1,0
96,248,142355,1,0
480,40,143284,5,0
416,96,143748,1,0
416,96,143980,1,0
336,152,144677,5,0
336,152,144909,1,0
280,192,145374,5,0
216,224,145722,1,0
152,272,146303,1,0
32,56,146999,5,0
472,56,147812,1,0
256,192,148857,1,0
32,64,150715,5,0
192,64,151179,1,0
192,64,151412,1,0
256,176,151876,5,0
256,176,152108,1,0
472,48,152573,5,0
288,64,153037,1,0
288,64,153269,1,0
264,184,153618,5,0
264,184,153850,1,0
264,184,154082,1,0
248,240,154315,2,0,L|248:240|248:288,12,37.5
112,120,158146,1,0
184,120,158727,1,0
256,120,159191,1,0
336,120,159656,1,0
256,192,160585,5,0
256,192,160817,1,0
64,80,161514,5,0
64,80,161746,1,0
176,80,162210,1,0
176,80,162442,1,0
264,80,162791,1,0
336,80,163371,1,0
408,80,163836,1,0
216,168,164533,6,0,L|216:168|272:168,4,37.5
264,160,166623,1,0
264,160,167087,1,0
264,160,167319,1,0
256,192,194954,12,0,196812
256,192,205985,12,0,211907
264,56,213532,5,0
248,312,214113,1,0
128,184,215042,6,0,C|128:184|360:176|392:200,1,262.5
264,112,218641,5,0
264,112,218758,1,0
264,200,219454,1,0
264,200,219686,1,0
56,192,220383,5,0
152,192,220848,1,0
256,192,221196,1,0
256,192,221544,1,0
368,176,222473,6,0,C|368:176|368:264,3,75
248,184,225608,5,0
240,88,226073,1,0
240,24,226421,1,0
248,328,227350,5,0
248,272,227582,1,0
248,200,227814,1,0
248,168,227931,1,0
248,120,228163,1,0
248,80,228743,1,0
248,80,228859,1,0
80,160,229324,5,0
80,160,229556,1,0
408,160,230021,1,0
456,152,230485,1,0
456,152,230833,1,0
96,312,231878,5,0
216,304,232227,1,0
352,296,232575,1,0
424,280,232807,1,0
288,136,233272,5,0
288,136,233504,1,0
96,152,233852,1,0
184,104,235460,6,6,C|184:104|144:96|44:125|45:226|64:256|84:270|104:284|120:288|160:288|192:272|208:256|246:216|270:175|280:136|304:120|351:106|404:112|453:157|468:179|477:209|475:254|472:291|464:313|452:331|427:337|400:342|280:296,2,1137.5
