osu file format v9

[General]
AudioFilename: AFI - Miss Murder.mp3
AudioLeadIn: 0
PreviewTime: 7022
Countdown: 1
SampleSet: Normal
StackLeniency: 0.7
Mode: 0
LetterboxInBreaks: 0

[Editor]
DistanceSpacing: 0.8
BeatDivisor: 3
GridSize: 8

[Metadata]
Title:Miss Murder
Artist:AFI
Creator:Mashley
Version:Insane
Source:
Tags:decemberunderground lesjuh

[Difficulty]
HPDrainRate:7
CircleSize:6
OverallDifficulty:7
ApproachRate:8
SliderMultiplier:2.4
SliderTickRate:3

[Events]
//Background and Video events
0,0,"AFI2.jpg"
//Break Periods
2,20556,25480
2,67361,73078
2,87268,93031
2,120787,127517
2,168286,172336
//Storyboard Layer 0 (Background)
//Storyboard Layer 1 (Fail)
//Storyboard Layer 2 (Pass)
//Storyboard Layer 3 (Foreground)
//Storyboard Sound Samples
//Background Colour Transformations
3,100,0,0,0

[TimingPoints]
5356,416.666666666667,4,1,0,50,1,0
7023,-100,4,1,0,59,0,1
20356,419.58041958042,4,1,0,59,1,0
20356,-100,4,1,0,59,0,0
24293,-133.333333333333,4,1,0,59,0,0
40495,416.666666666667,4,1,0,59,1,0
40495,-133.333333333333,4,1,0,59,0,0
53828,-100,4,1,0,59,0,1
67161,-133.333333333333,4,1,0,59,0,0
80091,-133.333333333333,4,2,0,59,0,0
80495,419.58041958042,4,1,0,59,1,0
80495,-133.333333333333,4,2,0,59,0,0
91538,-133.333333333333,4,1,0,59,0,0
93921,416.666666666667,4,1,0,59,1,0
93921,-133.333333333333,4,1,0,59,0,0
107254,-100,4,1,0,59,0,1
120587,480,4,1,0,50,1,0
120592,-100,4,1,0,59,0,0
151315,-83.3333333333333,4,1,0,73,0,0
163955,-100,4,1,0,73,0,0
164753,416.666666666667,4,1,0,50,1,0
174753,-100,4,1,0,50,0,1
187947,-100,4,1,0,50,0,0
188086,-100,4,1,0,50,0,1
201280,-100,4,1,0,50,0,0
201419,-100,4,1,0,50,0,1
201697,-100,4,1,0,50,0,0
201836,-100,4,1,0,50,0,1
201975,-100,4,1,0,50,0,0

[Colours]
Combo1 : 237,224,224
Combo2 : 157,0,0
Combo3 : 54,27,27
Combo4 : 232,243,244

[HitObjects]
40,352,5355,5,0
104,360,5494,1,0
152,312,5633,1,0
168,248,5772,1,0
120,200,5911,1,0
104,136,6050,1,0
136,80,6189,1,0
192,48,6328,1,0
256,64,6467,1,0
304,104,6605,1,0
368,96,6744,1,0
416,56,6883,1,0
456,0,7022,6,0,B|512:48|488:152,1,160,4|0
464,208,7439,1,6
376,296,7717,1,0
320,328,7855,1,8
192,328,8133,1,0
136,296,8272,1,2
128,168,8550,1,0
184,144,8689,2,0,B|208:56|112:16,1,160,4|0
96,80,9105,2,0,B|184:96|232:8,1,160,8|0
296,0,9522,1,0
360,16,9661,1,0
376,80,9800,1,0
352,136,9939,2,0,B|328:216|328:216|384:280,1,160
424,320,10355,37,4
256,328,10633,1,0
256,264,10772,2,2,B|208:176|304:208|256:112,1,160,2|0
256,48,11189,1,4
112,24,11467,1,0
112,24,11605,1,2
40,144,11883,1,0
48,80,12022,2,0,B|112:80|144:168|72:240|0:192,1,240,0|8
96,328,12717,1,0
32,320,12855,2,0,B|32:256|120:224|192:296|144:368,1,240,0|8
208,360,13411,1,8
272,352,13550,1,8
328,320,13689,6,0,B|376:232|464:272,1,160
448,336,14105,2,0,B|376:296|376:296|424:232|424:232|360:184,1,240,6|0
288,80,14800,1,0
288,80,14939,1,8
160,80,15217,1,0
160,80,15355,2,0,B|160:168|80:208,1,160,4|0
40,264,15772,2,8,B|56:344|56:344|136:368,1,160
192,352,16189,2,0,B|168:320|160:264,2,80
256,328,16605,2,0,B|250:286|226:254,2,80
256,192,17022,12,4,20356
32,208,26230,6,0,B|16:272|56:320,1,119.999996423721
112,352,26649,1,0
144,240,26929,1,4
168,0,27488,5,8
256,80,27768,1,0
256,80,27908,1,4
384,208,28328,1,8
336,320,28607,2,0,B|296:368|216:368|176:320,1,179.999994635582,0|0
144,272,29167,1,8
368,272,29586,1,4
256,96,30006,1,8
176,32,30286,37,8
136,80,30425,2,0,B|104:152|160:200,1,119.999996423721
200,224,30845,2,0,B|256:264|312:224,1,119.999996423721,8|0
361,191,31265,2,0,B|408:152|376:80,1,119.999996423721
336,32,31684,1,8
256,96,31964,5,8
216,144,32104,2,0,B|176:128|176:64|216:48,1,119.999996423721,4|0
296,48,32523,2,0,B|336:64|336:128|296:144,1,119.999996423721,8|0
256,184,32943,1,0
192,288,33223,1,0
200,224,33362,2,0,B|256:264|312:224,1,119.999996423721,8|8
320,288,33782,1,4
448,352,34202,37,8
472,256,34481,1,8
488,200,34621,2,0,B|464:136|384:136,1,119.999996423721
328,120,35041,2,0,B|272:72|288:8,1,119.999996423721
224,16,35460,2,0,B|238:74|182:122,1,119.999996423721,8|0
116,136,35880,2,8,B|48:136|24:200,1,119.999996423721
40,256,36300,1,0
200,344,36719,1,0
312,344,36999,1,4
256,320,37139,5,0
128,192,37558,1,8
256,64,37978,1,0
384,192,38397,1,8
384,320,38677,1,8
384,256,38817,2,0,B|448:256,3,59.9999982118607,0|0|0|8
128,64,39516,1,8
128,128,39656,2,0,B|64:128,3,59.9999982118607,0|0|0|8
48,328,40356,5,0
96,280,40495,2,0,B|152:240|216:280,1,119.999996423721,4|0
256,328,40911,2,0,B|312:368|368:328,1,119.999996423721,0|0
416,288,41328,1,8
504,192,41606,1,0
504,192,41745,1,8
464,56,42022,5,0
416,104,42161,2,0,B|360:144|304:104,1,119.999996423721,4|0
256,56,42578,2,0,B|200:16|144:56,1,119.999996423721,0|0
104,104,42995,1,8
8,192,43272,1,0
8,192,43411,1,8
72,304,43689,37,0
72,304,43828,1,6
152,128,44245,1,0
360,128,44661,1,2
440,304,45078,1,0
440,304,45356,1,4
384,336,45495,6,0,B|368:376|304:376|288:336,1,119.999996423721
336,288,45911,1,8
176,287,46189,1,0
224,336,46328,2,0,B|208:375|144:375|128:335,1,119.999996423721,4|0
72,304,46745,1,8
48,56,47022,37,0
96,104,47161,2,0,B|152:144|208:104,1,119.999996423721,4|0
256,56,47578,2,0,B|312:16|368:56,1,119.999996423721,0|0
416,96,47995,1,8
504,192,48272,1,0
504,192,48411,1,8
464,328,48689,5,0
416,280,48828,2,0,B|360:240|304:280,1,119.999996423721,4|0
256,328,49245,2,0,B|200:368|144:328,1,119.999996423721,0|0
104,280,49661,1,8
8,192,49939,1,0
8,192,50078,1,8
48,64,50356,37,0
72,0,50495,2,2,B|128:40|120:120|32:136,1,179.999994635582
168,104,51189,1,0
208,56,51328,1,8
272,48,51467,1,0
336,64,51606,1,0
376,120,51745,1,8
384,184,51883,1,0
352,240,52022,1,0
296,272,52161,1,4
56,0,53828,6,0,B|0:48|24:152,1,160,4|0
48,208,54245,1,6
136,296,54522,1,0
112,352,54661,2,0,B|184:360|208:312|192:256|160:240,1,160,8|0
152,192,55078,1,2
192,72,55356,1,2
256,56,55495,1,4
256,184,55772,1,0
320,168,55911,2,0,B|416:136|472:224,1,160,8|0
496,264,56328,1,0
496,328,56467,1,0
440,296,56606,1,0
440,360,56745,2,0,B|384:376|328:352|304:288,1,160,8|8
288,240,57161,38,0,B|232:184|136:208,1,160
152,272,57578,2,0,B|208:216|208:216|176:136|176:136|248:80,1,240,6|4
352,32,58272,1,0
352,32,58411,1,8
456,104,58689,1,8
472,168,58828,2,0,B|496:216|464:296|424:304,1,160
360,280,59245,2,0,B|336:232|368:152|408:144,1,160,8|0
360,104,59661,1,0
296,88,59800,1,0
240,120,59939,1,0
184,152,60078,1,8
128,184,60217,1,0
64,160,60356,1,8
8,120,60495,6,0,B|-8:40|24:0|112:8,1,160
64,72,60911,1,6
64,312,61189,1,0
81,376,61328,2,0,B|24:384|-8:344|8:264,1,160
8,208,61745,1,8
128,160,62022,1,8
128,160,62161,1,4
256,208,62439,1,0
256,208,62578,1,8
384,160,62856,1,8
384,160,62995,1,4
504,208,63272,1,0
504,208,63411,1,8
256,192,63828,12,4,67161
240,96,73828,6,0,B|224:24,2,59.9999982118607
304,104,74245,2,0,B|360:48,2,59.9999982118607
344,152,74661,2,0,B|416:128,2,59.9999982118607
352,216,75078,2,0,B|416:224,2,59.9999982118607
328,280,75495,6,0,B|368:352,2,59.9999982118607
272,304,75911,2,0,B|280:368,2,59.9999982118607
208,296,76328,2,0,B|184:352,2,59.9999982118607
160,256,76745,2,0,B|104:296,2,59.9999982118607
160,192,77161,38,0,B|88:184,2,59.9999982118607
184,136,77578,2,0,B|136:96,2,59.9999982118607
232,96,77995,2,0,B|216:32,2,59.9999982118607
288,104,78411,2,0,B|312:40,2,59.9999982118607
256,192,78828,12,8,80078
80,40,80495,6,0,B|16:64|16:144,1,119.999996423721,0|2
64,168,80914,2,0,B|128:152|128:72,1,119.999996423721,8|0
168,32,81334,2,0,B|216:32|216:32|208:64|208:64|248:64,1,119.999996423721,4|2
304,72,81753,1,8
360,96,81893,1,0
392,144,82033,1,0
440,176,82173,38,0,B|496:192|512:264,1,119.999996423721,0|2
456,288,82592,2,0,B|400:272|384:200,1,119.999996423721,8|0
328,200,83012,2,0,B|272:224|272:224|272:296,1,119.999996423721,4|0
248,336,83432,1,8
192,360,83571,1,0
136,368,83711,1,0
80,344,83851,6,0,B|16:232,1,119.999996423721,0|2
56,192,84271,2,0,B|120:304,1,119.999996423721,8|0
176,296,84690,2,0,B|200:272|200:272|176:256|176:256|200:240|200:240|176:208,1,119.999996423721,4|0
136,184,85110,1,8
112,128,85250,1,0
128,72,85390,1,0
176,40,85529,38,0,B|232:16|296:40,1,119.999996423721,0|2
304,96,85949,2,0,B|240:80|184:104,1,119.999996423721,8|0
208,160,86369,1,4
304,232,86648,1,0
304,232,86788,1,8
408,168,87068,1,6
464,56,93781,21,0
416,104,93921,2,0,B|360:144|304:104,1,119.999996423721,4|0
256,56,94337,2,0,B|200:16|144:56,1,119.999996423721,0|0
96,96,94754,1,8
8,192,95032,1,0
8,192,95171,1,8
48,328,95448,5,0
96,280,95587,2,0,B|152:240|208:280,1,119.999996423721,4|0
256,328,96004,2,0,B|312:368|368:328,1,119.999996423721,0|0
408,280,96421,1,8
504,192,96698,1,0
504,192,96837,1,8
440,80,97115,37,0
440,80,97254,1,6
360,256,97671,1,0
152,256,98087,1,2
72,80,98504,1,0
72,80,98782,1,4
128,48,98921,6,0,B|144:8|208:8|224:48,1,119.999996423721
176,96,99337,1,8
336,97,99615,1,0
288,48,99754,2,0,B|304:9|368:9|384:49,1,119.999996423721,4|0
440,80,100171,1,8
464,328,100448,37,0
416,280,100587,2,0,B|360:240|304:280,1,119.999996423721,4|0
256,328,101004,2,0,B|200:368|144:328,1,119.999996423721,0|0
96,288,101421,1,8
8,192,101698,1,0
8,192,101837,1,8
48,56,102115,5,0
96,104,102254,2,0,B|152:144|208:104,1,119.999996423721,4|0
256,56,102671,2,0,B|312:16|368:56,1,119.999996423721,0|0
408,104,103087,1,8
504,192,103365,1,0
504,192,103504,1,8
464,320,103782,37,0
440,384,103921,2,2,B|384:344|392:264|480:248,1,179.999994635582
344,280,104615,1,0
304,328,104754,1,8
240,336,104893,1,0
176,320,105032,1,0
136,264,105171,1,8
128,200,105310,1,0
160,144,105448,1,0
216,112,105587,1,4
456,384,107254,6,0,B|512:336|488:232,1,160,4|0
464,176,107671,1,6
376,88,107948,1,0
320,56,108087,1,8
192,56,108365,1,0
136,88,108504,1,2
128,216,108782,1,0
184,240,108921,2,0,B|208:328|112:368,1,160,4|0
96,304,109337,2,0,B|184:288|232:376,1,160,8|0
296,384,109754,1,0
360,368,109893,1,0
376,304,110032,1,0
352,248,110171,2,0,B|328:168|328:168|384:104,1,160
424,64,110587,37,4
256,56,110865,1,0
256,120,111004,2,2,B|208:208|304:176|256:272,1,160,2|0
256,336,111421,1,4
112,360,111698,1,0
112,360,111837,1,2
40,240,112115,1,0
48,304,112254,2,0,B|112:304|144:216|72:144|0:192,1,240,0|8
96,56,112948,1,0
32,64,113087,2,0,B|32:128|120:160|192:88|144:16,1,240,0|8
208,24,113643,1,8
272,32,113782,1,8
328,64,113921,6,0,B|376:152|464:112,1,160
448,48,114337,2,0,B|376:88|376:88|424:152|424:152|360:200,1,240,6|0
288,304,115032,1,0
288,304,115171,1,8
160,304,115448,1,0
160,304,115587,2,0,B|160:216|80:176,1,160,4|0
40,120,116004,2,8,B|56:40|56:40|136:16,1,160
192,32,116421,2,0,B|168:64|160:120,2,80
256,56,116837,2,0,B|250:98|226:130,2,80
256,192,117254,12,4,120587
48,8,128267,53,4
48,128,128507,1,8
152,64,128747,1,0
152,184,128987,1,0
152,304,129227,2,0,B|200:360|256:368|312:360|360:304,1,240,8|0
256,248,129947,1,0
256,128,130187,1,0
256,8,130427,1,8
360,64,130667,1,0
360,184,130907,1,0
464,256,131147,1,8
464,128,131387,1,0
464,8,131627,1,0
256,8,132107,5,8
256,376,132587,1,12
256,192,134267,12,4,135947
400,352,136427,37,0
488,248,136667,1,0
400,152,136907,1,8
320,256,137147,1,0
192,256,137387,1,0
112,352,137627,1,0
24,248,137867,1,0
112,152,138107,1,0
152,40,138347,2,0,B|200:96|256:104|312:96|360:40,2,240,0|8|4
256,360,139787,5,0
256,360,140027,1,0
72,296,140507,1,0
72,296,140747,2,0,B|16:248|8:192|16:136|72:88,1,240,8|0
160,168,141467,1,0
256,240,141707,1,0
352,168,141947,1,0
440,88,142187,1,0
256,8,142667,37,8
256,376,143147,1,12
112,32,143627,5,0
24,136,143867,1,0
112,232,144107,1,0
192,128,144347,1,0
320,128,144587,1,8
400,32,144827,1,0
488,136,145067,1,0
400,232,145307,1,0
360,344,145547,2,0,B|312:288|256:280|200:288|152:344,3,240,0|0|8|4
0,192,147467,37,8
512,192,147947,1,12
256,192,149387,12,4,151307
320,336,151787,6,0,B|392:368|464:336,1,144.000003433228
464,208,152267,2,0,B|392:176|320:208,1,144.000003433228,8|0
187,177,152747,2,0,B|120:208|48:176,1,144.000003433228,0|0
52,46,153227,2,0,B|120:16|192:48,1,144.000003433228,8|0
320,88,153707,2,0,B|391:119|459:89,2,144.000003433228,8|0|8
256,200,154427,1,0
256,200,154667,1,12
256,200,154907,1,0
192,336,155147,6,0,B|120:368|48:336,1,144.000003433228
48,208,155627,2,0,B|120:176|192:208,1,144.000003433228,8|0
324,177,156107,2,0,B|392:208|464:176,1,144.000003433228,0|0
459,46,156587,2,0,B|392:16|320:48,1,144.000003433228,8|0
192,88,157067,2,0,B|120:119|52:89,2,144.000003433228,8|0|8
256,0,157787,1,0
256,0,158027,1,8
256,384,158507,1,12
256,192,158987,12,4,162827
256,192,163307,5,4
224,344,164753,6,0,B|128:312|136:224,1,160
135,156,165169,2,8,B|128:72|224:40,1,160
288,40,165586,2,0,B|384:72|376:156,1,160
376,227,166002,2,8,B|384:312|288:344,1,160
216,352,166419,37,0
144,368,166558,1,0
80,344,166697,1,0
56,280,166836,1,0
48,208,166975,1,0
80,144,167114,1,0
144,112,167252,1,0
216,136,167391,1,0
256,200,167530,1,0
328,208,167669,1,0
392,176,167808,1,0
416,112,167947,1,0
400,40,168086,1,4
440,192,173086,37,0
392,232,173225,1,0
344,272,173364,1,0
328,216,173502,1,0
376,176,173641,1,0
424,136,173780,1,0
408,72,173919,1,0
360,112,174058,1,0
312,152,174197,1,0
296,96,174336,1,0
344,56,174475,1,0
392,16,174614,1,0
456,0,174752,6,0,B|512:48|488:152,1,160,4|0
464,208,175169,1,6
376,296,175447,1,0
400,352,175586,2,0,B|328:360|304:312|320:256|352:240,1,160,8|0
360,192,176002,1,2
320,72,176280,1,2
256,56,176419,1,4
256,184,176697,1,0
192,168,176836,2,0,B|96:136|40:224,1,160,8|0
16,264,177252,1,0
16,328,177391,1,0
72,296,177530,1,0
72,360,177669,2,0,B|128:376|184:352|208:288,1,160,8|8
224,240,178086,6,0,B|280:184|376:208,1,160
360,272,178502,2,0,B|304:216|304:216|336:136|336:136|264:80,1,240,6|4
160,32,179197,1,0
160,32,179336,1,8
56,104,179614,1,8
40,168,179752,2,0,B|16:216|48:296|88:304,1,160
152,280,180169,2,0,B|176:232|144:152|104:144,1,160,8|0
152,104,180586,1,0
216,88,180725,1,0
272,120,180864,1,0
328,152,181002,1,8
384,184,181141,1,0
448,160,181280,1,8
504,120,181419,38,0,B|520:40|488:0|400:8,1,160
448,72,181836,1,6
448,312,182114,1,0
431,376,182252,2,0,B|488:384|520:344|504:264,1,160
504,208,182669,1,8
384,160,182947,1,8
384,160,183086,1,4
256,208,183364,1,0
256,208,183502,1,8
128,160,183780,1,8
128,160,183919,1,4
8,208,184197,1,0
8,208,184336,1,8
256,192,184752,12,4,187252
160,312,188086,6,0,B|192:376|256:392|320:376|352:312,1,240,0|6
256,224,188780,1,0
288,160,188919,2,0,B|328:184|344:224|328:264|288:288,1,160
224,288,189336,2,8,B|184:264|168:224|184:184|224:160,1,160
168,128,189752,1,0
192,0,190030,1,0
192,0,190169,1,8
320,0,190447,1,8
320,0,190586,1,4
344,128,190864,1,0
344,128,191002,1,8
424,304,191419,38,0,B|368:368|272:328,1,160
224,296,191836,1,4
224,296,192114,1,0
24,368,192530,2,2,B|104:328|104:200|0:176,1,240
152,16,193364,2,0,B|112:96|136:184|240:200,1,240
296,200,193919,2,0,B|368:184|384:72,1,160
320,104,194336,2,8,B|328:200|448:184,1,160
496,168,194752,5,4
464,304,195030,1,0
464,304,195169,2,0,B|416:336|416:336|392:296|392:296|336:328,1,160,6|0
288,352,195586,2,0,B|240:368|208:336|208:280|272:264,1,160
328,248,196002,2,8,B|387:233|387:177|355:145|307:161,1,160
248,168,196419,1,4
176,64,196697,1,0
176,64,196836,1,8
112,176,197114,1,0
112,176,197252,1,4
184,280,197530,1,0
184,280,197669,1,8
256,192,198086,12,4,201002
256,192,201419,21,14
256,192,201836,1,14
