osu file format v9

[General]
AudioFilename: AFI - Miss Murder.mp3
AudioLeadIn: 0
PreviewTime: 7022
Countdown: 1
SampleSet: Normal
StackLeniency: 0.7
Mode: 0
LetterboxInBreaks: 0

[Editor]
DistanceSpacing: 0.9
BeatDivisor: 2
GridSize: 8

[Metadata]
Title:Miss Murder
Artist:AFI
Creator:Mashley
Version:Easy
Source:
Tags:decemberunderground lesjuh

[Difficulty]
HPDrainRate:2
CircleSize:3
OverallDifficulty:2
ApproachRate:3
SliderMultiplier:1.2
SliderTickRate:3

[Events]
//Background and Video events
0,0,"AFI2.jpg"
//Break Periods
2,20556,24790
2,67362,72388
2,87208,92481
2,120788,126827
2,168286,173312
//Storyboard Layer 0 (Background)
//Storyboard Layer 1 (Fail)
//Storyboard Layer 2 (Pass)
//Storyboard Layer 3 (Foreground)
//Storyboard Sound Samples
//Background Colour Transformations
3,100,0,0,0

[TimingPoints]
5356,416.666666666667,4,1,0,50,1,0
7023,-100,4,1,0,59,0,1
20356,419.58041958042,4,1,0,50,1,0
20356,-100,4,1,0,59,0,0
24293,-133.333333333333,4,1,0,59,0,0
40495,416.666666666667,4,1,0,50,1,0
40495,-133.333333333333,4,1,0,50,0,0
53828,-100,4,1,0,59,0,1
67161,-133.333333333333,4,1,0,59,0,0
80495,419.58041958042,4,1,0,50,1,0
80495,-133.333333333333,4,2,0,59,0,0
91538,-133.333333333333,4,1,0,59,0,0
93921,416.666666666667,4,1,0,50,1,0
93921,-133.333333333333,4,1,0,50,0,0
107254,-100,4,1,0,59,0,1
120587,480,4,1,0,50,1,0
120592,-100,4,1,0,59,0,0
127787,-76.9230769230769,4,1,0,59,0,0
163955,-100,4,1,0,73,0,0
164753,416.666666666667,4,1,0,50,1,0
174753,-100,4,1,0,50,0,1
187947,-100,4,1,0,50,0,0
188086,-100,4,1,0,50,0,1
201280,-100,4,1,0,50,0,0
201419,-100,4,1,0,50,0,1
201558,-100,4,1,0,50,0,0
201836,-100,4,1,0,50,0,1
201975,-100,4,1,0,50,0,0

[Colours]
Combo1 : 237,224,224
Combo2 : 157,0,0
Combo3 : 54,27,27
Combo4 : 232,243,244

[HitObjects]
480,96,7022,6,0,B|456:24|392:8|328:24|304:96,1,240
392,232,8550,1,2
440,312,8967,1,0
344,312,9383,1,4
32,288,10356,6,0,B|56:360|120:376|184:360|208:288,1,240
120,152,11884,1,2
72,72,12301,1,0
168,72,12717,1,4
256,376,13689,38,0,B|320:280|192:248|256:144,1,240
344,40,15217,1,2
256,24,15633,1,0
168,40,16050,1,4
256,192,17022,12,4,20356
120,344,26230,22,0,B|48:352|0:280|32:208,1,179.999994635582,8|4
64,144,27488,1,8
200,24,28328,1,8
200,24,28607,1,8
312,24,29167,1,8
448,144,30006,1,8
496,224,30425,6,4,B|496:320|416:392|296:368|240:288,1,329.999990165234,4|0
256,216,32383,1,12
328,120,32943,2,0,B|296:56|216:56|184:120,1,179.999994635582
136,48,34202,37,8
0,136,35041,1,8
0,136,35321,1,8
0,256,35880,1,8
136,336,36719,1,0
136,336,36999,1,4
256,296,37558,5,8
256,216,37978,1,0
256,136,38397,1,8
312,80,38817,2,0,B|368:48|448:56|496:144|456:224,1,269.999991953373
424,296,40495,6,0,B|384:336|344:296,1,89.9999973177911
264,296,41328,1,8
128,296,42022,1,4
48,224,42578,1,8
48,64,43411,1,8
120,104,43828,6,0,B|160:64|200:104,1,89.9999973177911
280,104,44661,1,8
416,104,45355,1,4
496,176,45911,1,8
496,336,46744,1,8
400,344,47161,38,0,B|360:256|256:216|152:256|112:344,1,359.999989271164,4|4
16,336,49245,1,8
16,176,50078,1,8
16,96,50495,2,0,B|48:16,1,89.9999973177911,0|8
128,16,51328,2,0,B|161:99,2,89.9999973177911,0|8|0
32,288,53828,6,0,B|56:360|120:376|184:360|208:288,1,240
120,152,55356,1,2
72,72,55773,1,0
168,72,56189,1,4
480,96,57162,38,0,B|456:24|392:8|328:24|304:96,1,240
392,232,58690,1,2
440,312,59107,1,0
344,312,59523,1,4
256,8,60495,6,0,B|192:104|320:136|256:240,1,240
168,344,62023,1,2
256,360,62439,1,0
344,344,62856,1,4
256,192,63828,12,4,67162
160,152,73828,6,0,B|184:64|256:56|328:64|352:152,1,269.999991953373,0|8
352,232,75495,2,0,B|328:320|256:328|184:320|160:232,2,269.999991953373,0|8|0
400,168,78411,1,8
448,104,78828,2,4,B|472:64,6,29.9999991059304
472,264,80495,6,0,B|416:352,1,89.9999973177911
344,344,81334,2,0,B|295:268,1,89.9999973177911,8|2
216,272,82173,2,0,B|160:360,1,89.9999973177911
88,352,83012,2,0,B|39:276,1,89.9999973177911,8|2
40,192,83851,38,0,B|96:104,1,89.9999973177911
168,112,84690,2,0,B|216:187,1,89.9999973177911,8|2
296,184,85529,2,0,B|352:96,1,89.9999973177911
424,104,86368,2,0,B|472:179,1,89.9999973177911,8|2
424,88,93921,22,0,B|384:48|344:88,1,89.9999973177911
264,88,94754,1,8
128,88,95448,1,4
48,160,96004,1,8
48,320,96837,1,8
120,280,97254,6,0,B|160:320|200:280,1,89.9999973177911
280,280,98087,1,8
416,280,98781,1,4
496,208,99337,1,8
496,48,100170,1,8
400,40,100587,38,0,B|360:128|256:168|152:128|112:40,1,359.999989271164,4|4
16,48,102671,1,8
16,208,103504,1,8
16,288,103921,6,0,B|48:368,1,89.9999973177911,0|8
128,368,104754,2,0,B|161:285,2,89.9999973177911,0|8|0
32,96,107254,38,0,B|56:24|120:8|184:24|208:96,1,240
120,232,108782,1,2
72,312,109199,1,0
168,312,109615,1,4
480,288,110588,6,0,B|456:360|392:376|328:360|304:288,1,240
392,152,112116,1,2
440,72,112533,1,0
344,72,112949,1,4
256,376,113921,38,0,B|192:280|320:248|256:144,1,240
168,40,115449,1,2
256,24,115865,1,0
344,40,116282,1,4
256,192,117254,12,4,120588
184,64,128267,22,0,B|96:64,3,77.9999986052513
24,64,129227,1,8
24,216,129707,1,0
176,216,130187,2,0,B|264:216,3,77.9999986052513
336,216,131147,1,0
336,216,131627,1,0
336,368,132107,1,12
336,368,132587,1,12
256,192,134267,12,4,135947
40,88,136907,37,8
192,88,137387,1,0
344,88,137867,1,8
472,296,138827,1,8
320,296,139307,1,0
168,296,139787,5,0
168,296,140027,1,0
104,152,140507,1,0
104,152,140747,1,8
408,232,141707,1,0
408,232,141947,1,0
344,88,142427,1,0
344,88,142667,1,8
168,88,143147,1,12
48,192,143627,38,0,B|48:272,3,77.9999986052513
48,352,144587,1,8
256,168,145547,2,0,B|256:88,3,77.9999986052513
256,8,146507,1,8
464,352,147467,1,12
464,352,147947,1,12
256,192,149387,12,4,151307
472,64,152267,5,8
328,64,152747,2,0,B|248:64,1,77.9999986052513
168,64,153227,2,0,B|72:56|16:128|16:224|96:288,1,311.999994421005
152,328,154427,1,0
160,248,154667,1,8
256,360,155147,5,0
408,320,155627,1,0
488,192,156107,1,8
408,64,156587,1,0
256,24,157067,1,0
104,64,157547,1,0
256,192,158027,21,12
256,192,158507,1,12
104,160,158987,6,0,B|88:264|144:336|216:360|304:328,1,311.999994421005,0|10
220,51,160907,2,0,B|296:24|368:48|424:120|408:224,1,311.999994421005,0|10
256,192,162827,37,12
256,192,163307,1,12
256,192,164753,12,4,168086
480,288,174752,38,0,B|456:360|392:376|328:360|304:288,1,240
392,152,176280,1,2
440,72,176697,1,0
344,72,177114,1,4
32,96,178086,6,0,B|56:24|120:8|184:24|208:96,1,240
120,232,179614,1,2
72,312,180030,1,0
168,312,180447,1,4
256,8,181419,38,0,B|320:104|192:136|256:240,1,240
344,344,182947,1,2
256,360,183364,1,0
168,344,183780,1,4
256,192,184752,12,4,188086
40,40,188919,5,0
96,136,189336,1,0
96,136,189614,1,8
96,240,190030,2,0,B|96:304|152:344,1,120,0|4
256,240,191002,37,0
256,136,191419,1,12
256,24,191836,2,0,B|320:136|384:-40|456:88,1,240
456,192,193086,1,0
456,304,193502,1,0
360,344,193919,1,12
144,352,194752,6,0,B|24:320|24:192|48:136,1,240
208,96,196280,1,0
256,192,196697,1,2
304,288,197114,1,4
256,192,198086,12,4,200586
256,192,201836,1,12
