osu file format v13

[General]
AudioFilename: AContrari.mp3
AudioLeadIn: 2000
PreviewTime: 32778
Countdown: 0
SampleSet: Normal
StackLeniency: 0.7
Mode: 0
LetterboxInBreaks: 0
WidescreenStoryboard: 0

[Editor]
DistanceSpacing: 1.3
BeatDivisor: 4
GridSize: 4
TimelineZoom: 1.7

[Metadata]
Title:SEKS I KEKS Eleny Malishevoi (Hard Dubstep Edit)
TitleUnicode:СЕКС И КЕКС Елены Малышевой (Hard Dubstep Edit)
Artist:AContrari
ArtistUnicode:AContrari
Creator:AlexaBM
Version:Hard
Source:
Tags:russian sex and cupcake acontrariproject remix жить здорово -bakari-
BeatmapID:437328
BeatmapSetID:182331

[Difficulty]
HPDrainRate:7
CircleSize:4
OverallDifficulty:6
ApproachRate:7
SliderMultiplier:1.4
SliderTickRate:1

[Events]
//Background and Video events
Video,1426,"333.avi"
0,0,"cake.jpg",0,0
//Break Periods
//Storyboard Layer 0 (Background)
//Storyboard Layer 1 (Fail)
//Storyboard Layer 2 (Pass)
//Storyboard Layer 3 (Foreground)
//Storyboard Sound Samples
//Background Colour Transformations
3,100,163,162,255

[TimingPoints]
1426,491.803278688525,4,1,2,50,1,0
1426,-125,4,1,2,50,0,0
9294,-111.111111111111,4,1,1,60,0,0
17163,-100,4,1,1,60,0,0
32901,-83.3333333333333,4,1,1,70,0,1
44704,-80,4,1,1,70,0,1
45196,-76.9230769230769,4,1,1,70,0,1
46180,-83.3333333333333,4,1,1,70,0,1
48393,-76.9230769230769,4,1,1,70,0,1
48516,-100,4,1,1,70,0,0
48639,-90.9090909090909,4,1,1,70,0,1
48762,-90.9090909090909,4,1,1,70,0,0
64376,-100,4,1,1,60,0,0
80114,-111.111111111111,4,1,2,50,0,0
87983,-125,4,1,2,43,0,0
95852,-125,4,1,2,15,0,0

[Colours]
Combo1 : 247,199,108
Combo2 : 36,247,152
Combo3 : 128,128,255
Combo4 : 255,62,158

[HitObjects]
83,311,1426,6,0,P|131:311|184:248,1,112,2|0,0:0|0:0,0:0:0:0:
203,127,2409,2,0,P|240:87|295:84,1,112
359,123,3147,1,0,0:0:0:0:
347,195,3393,6,0,P|309:234|254:237,1,112,2|0,0:0|0:0,0:0:0:0:
123,175,4376,2,0,P|96:222|110:275,1,112
163,327,5114,1,0,0:0:0:0:
231,351,5360,6,0,L|363:359,1,112,2|0,0:0|0:0,0:0:0:0:
439,247,6344,2,0,L|327:240,1,112
255,235,7081,1,0,0:0:0:0:
199,187,7327,6,0,P|191:131|203:71,1,112,2|0,0:0|0:0,0:0:0:0:
335,135,8311,2,0,P|343:191|331:251,1,112
287,299,9048,1,0,0:0:0:0:
200,348,9294,6,0,L|216:376,2,31.4999990386963
128,300,9786,2,0,P|108:260|108:228,1,62.9999980773926,8|0,0:0|0:0,0:0:0:0:
108,160,10278,1,0,0:0:0:0:
120,120,10401,1,0,0:0:0:0:
144,88,10524,1,0,0:0:0:0:
180,68,10647,1,0,0:0:0:0:
220,64,10770,2,0,P|276:76|292:88,1,62.9999980773926,8|0,0:0|0:0,0:0:0:0:
347,127,11262,6,0,L|379:95,2,31.4999990386963
287,183,11753,1,8,0:0:0:0:
227,239,11999,1,0,0:0:0:0:
160,288,12245,2,0,P|120:312|84:312,1,62.9999980773926
64,312,12614,1,0,0:0:0:0:
32,288,12737,2,0,P|8:240|9:213,1,62.9999980773926,8|0,0:0|0:0,0:0:0:0:
76,136,13229,5,0,0:0:0:0:
112,116,13352,1,0,0:0:0:0:
152,116,13475,1,0,0:0:0:0:
228,152,13721,2,0,P|260:200|264:224,1,62.9999980773926,8|0,0:0|0:0,0:0:0:0:
296,316,14212,1,0,0:0:0:0:
324,344,14335,1,0,0:0:0:0:
364,348,14458,1,0,0:0:0:0:
404,336,14581,1,0,0:0:0:0:
436,312,14704,2,0,P|452:280|456:244,1,62.9999980773926,8|0,0:0|0:0,0:0:0:0:
448,112,15196,6,0,L|488:96,2,31.4999990386963
368,136,15688,2,0,P|316:132|296:116,1,62.9999980773926,8|0,0:0|0:0,0:0:0:0:
228,104,16180,2,0,P|187:100|148:113,1,62.9999980773926
128,124,16548,1,0,0:0:0:0:
92,140,16671,2,0,P|61:144|32:132,1,62.9999980773926
79,35,17163,5,0,0:0:0:0:
139,207,17655,1,8,0:0:0:0:
79,35,18147,1,0,0:0:0:0:
108,120,18393,1,0,0:0:0:0:
172,52,18639,1,8,0:0:0:0:
373,207,19130,5,0,0:0:0:0:
433,35,19622,1,8,0:0:0:0:
256,68,20114,2,0,B|236:124|256:168|256:168|288:232|256:268,1,210,0|8,0:0|0:0,0:0:0:0:
108,288,21098,5,0,0:0:0:0:
108,288,21344,1,0,0:0:0:0:
144,144,21589,1,8,0:0:0:0:
144,144,21835,1,0,0:0:0:0:
284,158,22081,2,0,P|332:160|363:132,1,70
383,118,22450,1,0,0:0:0:0:
426,130,22573,2,0,L|438:211,1,70
452,288,23065,5,0,0:0:0:0:
416,316,23188,1,0,0:0:0:0:
372,320,23311,1,0,0:0:0:0:
288,284,23557,2,0,P|240:272|204:276,1,70,8|0,0:0|0:0,0:0:0:0:
139,317,24048,2,0,P|106:326|72:320,1,70
72,320,24417,1,0,0:0:0:0:
72,320,24540,1,8,0:0:0:0:
224,176,25032,6,0,P|215:121|145:73,1,140,0|8,0:0|0:0,0:0:0:0:
138,161,25770,1,0,0:0:0:0:
168,248,26016,2,0,P|216:268|260:252,1,70
312,220,26507,1,8,0:0:0:0:
332,132,26753,1,0,0:0:0:0:
268,64,26999,6,0,P|201:39|134:94,1,140,0|8,0:0|0:0,0:0:0:0:
107,153,27737,1,0,0:0:0:0:
128,243,27983,2,0,L|175:299,1,70
264,288,28475,2,0,L|311:344,1,70,8|0,0:0|0:0,0:0:0:0:
256,192,28966,12,0,31426,0:0:0:0:
256,192,31917,5,6,3:0:0:0:
99,211,32901,6,0,P|141:243|246:205,1,167.999994873047,6|8,0:0|0:0,0:0:0:0:
266,181,33516,2,0,L|261:130,2,41.9999987182618
297,201,33885,2,0,P|324:211|383:202,1,83.9999974365235,2|0,0:0|0:0,0:0:0:0:
443,127,34376,2,0,L|484:131,2,41.9999987182618,8|0|0,0:0|0:0|0:0,0:0:0:0:
405,32,34868,5,2,0:0:0:0:
323,91,35114,1,0,0:0:0:0:
183,39,35360,2,0,P|147:39|93:84,2,83.9999974365235,8|0|2,0:0|0:0|0:0,0:0:0:0:
239,123,36098,1,0,0:0:0:0:
242,159,36221,1,0,0:0:0:0:
222,191,36344,2,0,P|211:228|221:278,1,83.9999974365235,8|0,0:0|0:0,0:0:0:0:
309,316,36835,6,0,P|337:266|302:153,1,167.999994873047,2|8,0:0|0:0,0:0:0:0:
284,137,37450,2,0,L|231:143,2,41.9999987182618
304,102,37819,1,2,0:0:0:0:
331,59,37942,2,0,L|374:65,2,41.9999987182618
299,19,38311,2,0,L|209:28,1,83.9999974365235,8|0,0:0|0:0,0:0:0:0:
64,48,38803,6,0,P|40:78|40:140,1,83.9999974365235,2|0,0:0|0:0,0:0:0:0:
100,212,39294,2,0,L|96:253,2,41.9999987182618,8|0|0,0:0|0:0|0:0,0:0:0:0:
136,204,39663,1,0,0:0:0:0:
172,188,39786,2,0,L|169:135,2,41.9999987182618,2|0|0,0:0|0:0|0:0,0:0:0:0:
280,288,40278,6,0,P|263:309|252:336,2,55.9999982910157,10|0|0,0:0|0:0|0:0,0:0:0:0:
344,252,40770,6,0,P|372:221|346:101,1,167.999994873047,6|8,0:0|0:0,0:0:0:0:
328,80,41385,2,0,L|331:37,2,41.9999987182618
291,91,41753,2,0,L|290:138,2,41.9999987182618,2|0|0,0:0|0:0|0:0,0:0:0:0:
208,20,42245,1,8,0:0:0:0:
136,104,42491,1,0,0:0:0:0:
49,152,42737,6,0,P|37:125|40:66,1,83.9999974365235,2|0,0:0|0:0,0:0:0:0:
136,104,43229,2,0,P|148:131|145:190,1,83.9999974365235,8|0,0:0|0:0,0:0:0:0:
126,215,43598,2,0,L|79:209,2,41.9999987182618,0|2|0,0:0|0:0|0:0,0:0:0:0:
147,246,43966,2,0,L|193:242,1,41.9999987182618
228,244,44212,2,0,L|320:257,1,83.9999974365235,8|0,0:0|0:0,0:0:0:0:
412,220,44704,6,0,P|440:175|429:94,1,131.25,2|0,0:0|0:0,0:0:0:0:
396,80,45196,2,0,L|260:94,1,136.499993751526,8|0,0:0|0:0,0:0:0:0:
220,104,45688,2,0,L|231:12,2,90.9999958343508,2|0|8,0:0|0:0|0:0,0:0:0:0:
179,368,46671,5,2,0:0:0:0:
125,140,47163,1,8,0:0:0:0:
334,216,47655,1,2,0:0:0:0:
100,220,48147,1,8,0:0:0:0:
92,212,48393,6,0,P|104:180|108:140,1,45.4999979171754
100,128,48639,6,0,B|128:132|128:132|144:116|144:116|152:132|152:132|168:112|168:112|176:140|176:140|204:120|204:120|224:136|224:136|252:128|252:128|270:156|300:160,1,269.500008224488,6|0,0:0|0:0,0:0:0:0:
340,192,49622,2,0,L|408:176,2,51.3333348999024,4|0|0,3:0|0:0|0:0,0:0:0:0:
336,264,50114,2,0,L|392:276,2,51.3333348999024,0|0|0,0:0|0:0|0:0,0:0:0:0:
232,244,50606,5,2,0:0:0:0:
217,241,50729,1,0,0:0:0:0:
203,238,50852,1,2,0:0:0:0:
92,176,51098,2,0,P|120:144|204:140,1,115.50000352478,2|0,0:0|0:0,0:0:0:0:
208,148,51589,1,4,3:0:0:0:
240,252,51835,2,0,L|224:307,2,38.5000011749268,2|2|2,0:0|0:0|0:0,0:0:0:0:
315,172,52327,1,2,0:0:0:0:
388,84,52573,6,0,B|402:90|416:108|416:108|404:136|404:136|420:148|420:148|412:168|412:168|428:188|428:188|420:212|420:212|432:236|432:236|432:280,1,231.000007049561,6|0,0:0|0:0,0:0:0:0:
428,380,53557,1,4,3:0:0:0:
328,364,53803,2,0,P|288:360|248:328,1,77.0000023498536
192,264,54294,1,2,0:0:0:0:
160,168,54540,5,0,0:0:0:0:
160,168,54663,1,0,0:0:0:0:
160,168,54786,1,2,0:0:0:0:
138,65,55032,1,2,0:0:0:0:
81,238,55278,1,0,0:0:0:0:
260,201,55524,1,4,3:0:0:0:
332,272,55770,2,0,L|320:328,2,38.5000011749268,2|2|2,0:0|0:0|0:0,0:0:0:0:
396,196,56262,1,2,0:0:0:0:
436,104,56507,6,0,B|424:72|392:52|392:52|372:44|372:44|352:60|352:60|332:48|332:48|312:60|312:60|292:48|292:48|272:56|272:56|248:48,1,231.000007049561,6|0,0:0|0:0,0:0:0:0:
144,52,57491,2,4,P|116:72|96:100,1,51.3333348999024,4|4,3:0|0:0,3:0:0:0:
60,140,57819,1,0,0:0:0:0:
28,204,57983,2,0,P|20:240|28:284,1,77.0000023498536,0|2,0:0|0:0,0:0:0:0:
120,352,58475,5,0,0:0:0:0:
140,360,58598,1,0,0:0:0:0:
160,364,58721,1,2,0:0:0:0:
268,352,58966,2,0,P|280:312|260:256,1,77.0000023498536,2|0,0:0|0:0,0:0:0:0:
232,244,59335,1,0,0:0:0:0:
192,208,59458,2,0,P|160:164|200:72,1,154.000004699707,4|2,3:0|0:0,0:0:0:0:
284,24,60196,1,2,0:0:0:0:
376,80,60442,6,0,B|400:112|400:112|388:132|388:132|416:144|416:144|408:168|408:168|424:180|424:180|421:193|421:193|424:216,1,154.000004699707,6|0,0:0|0:0,0:0:0:0:
388,296,61180,1,0,0:0:0:0:
308,368,61426,2,0,P|252:384|224:368,1,77.0000023498536,4|0,3:0|0:0,0:0:0:0:
188,360,61794,1,0,0:0:0:0:
48,308,62163,1,2,0:0:0:0:
48,208,62409,5,2,0:0:0:0:
56,192,62532,1,0,0:0:0:0:
68,180,62655,1,2,0:0:0:0:
148,120,62901,2,0,P|204:108|236:112,1,77.0000023498536,2|0,0:0|0:0,0:0:0:0:
308,155,63393,2,0,P|347:155|384:144,1,77.0000023498536,4|0,3:0|0:0,0:0:0:0:
384,144,63762,1,2,0:0:0:0:
384,144,63885,1,2,0:0:0:0:
472,188,64130,1,2,0:0:0:0:
464,296,64376,6,0,P|400:312|336:248,1,140,6|8,0:0|0:0,0:0:0:0:
320,184,65114,1,0,0:0:0:0:
292,96,65360,2,0,L|320:8,2,70,2|0|8,0:0|0:0|0:0,0:0:0:0:
230,163,66098,1,0,0:0:0:0:
176,236,66344,6,0,P|144:184|164:100,1,140,2|8,0:0|0:0,0:0:0:0:
328,48,67327,2,0,P|372:44|404:60,1,70,2|0,0:0|0:0,0:0:0:0:
464,112,67819,2,0,P|474:144|469:179,1,70,8|0,0:0|0:0,0:0:0:0:
332,292,68311,5,2,0:0:0:0:
184,283,68557,1,0,0:0:0:0:
308,203,68803,1,8,0:0:0:0:
255,340,69048,1,0,0:0:0:0:
216,198,69294,1,2,0:0:0:0:
256,340,69540,1,0,0:0:0:0:
256,340,69663,1,0,0:0:0:0:
256,340,69786,1,8,0:0:0:0:
80,120,70278,5,2,0:0:0:0:
112,88,70401,1,0,0:0:0:0:
156,72,70524,1,0,0:0:0:0:
245,55,70770,2,0,P|298:33|315:14,2,70,8|0|2,0:0|0:0|0:0,0:0:0:0:
156,72,71507,1,0,0:0:0:0:
112,88,71630,1,0,0:0:0:0:
80,120,71753,2,0,P|60:164|60:192,1,70,8|0,0:0|0:0,0:0:0:0:
112,320,72245,6,0,P|172:340|272:308,2,140,2|8|2,0:0|0:0|0:0,0:0:0:0:
56,248,73475,1,0,0:0:0:0:
68,160,73721,2,0,P|74:118|100:80,1,70,8|0,0:0|0:0,0:0:0:0:
212,48,74212,6,0,L|232:144,1,70,2|0,0:0|0:0,0:0:0:0:
300,168,74704,2,0,L|288:256,1,70,8|0,0:0|0:0,0:0:0:0:
248,316,75196,2,0,B|212:340|212:340|176:300|124:316,1,140,2|8,0:0|0:0,0:0:0:0:
44,356,75934,1,0,0:0:0:0:
48,208,76180,6,0,P|64:156|96:124,1,70,2|0,0:0|0:0,0:0:0:0:
144,88,76671,1,8,0:0:0:0:
232,60,76917,2,0,P|284:60|316:72,1,70,0|2,0:0|0:0,0:0:0:0:
376,116,77409,1,0,0:0:0:0:
376,116,77532,1,0,0:0:0:0:
376,116,77655,2,0,P|400:164|400:188,1,70,8|0,0:0|0:0,0:0:0:0:
372,268,78147,6,0,L|408:312,2,35,2|0|0,0:0|0:0|0:0,0:0:0:0:
284,248,78639,2,0,L|208:240,1,70,8|0,0:0|0:0,0:0:0:0:
144,184,79130,2,0,L|68:176,1,70,2|0,0:0|0:0,0:0:0:0:
28,168,79499,1,0,0:0:0:0:
4,128,79622,1,8,0:0:0:0:
24,40,79868,1,8,0:0:0:0:
160,36,80114,6,0,L|296:52,1,125.999996154785,6|0,0:0|0:0,0:0:0:0:
396,172,81098,2,0,L|270:157,1,125.999996154785
188,148,81835,1,0,0:0:0:0:
108,172,82081,6,0,L|68:300,2,125.999996154785,2|0|0,0:0|0:0|0:0,0:0:0:0:
128,92,83311,1,0,0:0:0:0:
192,44,83557,2,0,P|252:40|276:44,1,62.9999980773926
328,76,84048,6,0,L|312:144,1,62.9999980773926,2|0,0:0|0:0,0:0:0:0:
372,196,84540,2,0,L|384:260,1,62.9999980773926
380,340,85032,1,0,0:0:0:0:
304,312,85278,1,0,0:0:0:0:
228,344,85524,1,0,0:0:0:0:
156,308,85770,1,0,0:0:0:0:
80,336,86016,6,0,P|52:356|16:360,2,62.9999980773926,2|0|0,0:0|0:0|0:0,0:0:0:0:
100,256,86753,1,0,0:0:0:0:
120,176,86999,2,0,P|148:156|184:152,2,62.9999980773926
100,256,87737,1,0,0:0:0:0:
40,200,87983,6,0,P|44:140|88:100,1,112,2|0,0:0|0:0,0:0:0:0:
224,88,88966,2,0,P|220:148|176:188,1,112,0|0,0:0|0:0,0:0:0:0:
124,220,89704,1,0,0:0:0:0:
76,275,89950,6,0,P|127:293|183:262,1,112,2|0,0:0|0:0,0:0:0:0:
284,172,90934,2,0,P|338:169|381:203,1,112
412,268,91671,1,0,0:0:0:0:
475,232,91917,6,0,L|515:116,1,112,2|0,0:0|0:0,0:0:0:0:
367,152,92901,2,0,L|330:257,1,112
295,324,93639,1,0,0:0:0:0:
235,364,93885,6,0,P|180:374|127:358,1,112,2|0,0:0|0:0,0:0:0:0:
67,228,94868,2,0,B|91:176|151:176|151:176|201:112|151:50,1,224
