osu file format v13

[General]
AudioFilename: AContrari.mp3
AudioLeadIn: 2000
PreviewTime: 32778
Countdown: 0
SampleSet: Normal
StackLeniency: 0.7
Mode: 0
LetterboxInBreaks: 0
WidescreenStoryboard: 0

[Editor]
DistanceSpacing: 1.1
BeatDivisor: 4
GridSize: 4
TimelineZoom: 1

[Metadata]
Title:SEKS I KEKS Eleny Malishevoi (Hard Dubstep Edit)
TitleUnicode:СЕКС И КЕКС Елены Малышевой (Hard Dubstep Edit)
Artist:AContrari
ArtistUnicode:AContrari
Creator:AlexaBM
Version:Easy
Source:
Tags:russian sex and cupcake acontrariproject remix жить здорово -bakari-
BeatmapID:437329
BeatmapSetID:182331

[Difficulty]
HPDrainRate:2
CircleSize:3
OverallDifficulty:2
ApproachRate:3
SliderMultiplier:0.8
SliderTickRate:1

[Events]
//Background and Video events
Video,1426,"333.avi"
0,0,"cake.jpg",0,0
//Break Periods
//Storyboard Layer 0 (Background)
//Storyboard Layer 1 (Fail)
//Storyboard Layer 2 (Pass)
//Storyboard Layer 3 (Foreground)
//Storyboard Sound Samples
//Background Colour Transformations
3,100,163,162,255

[TimingPoints]
1426,491.803278688525,4,1,2,50,1,0
9294,-100,4,1,1,60,0,0
32901,-100,4,1,1,70,0,1
48516,-100,4,1,1,70,0,0
48639,-100,4,1,1,70,0,1
48762,-100,4,1,1,70,0,0
64376,-100,4,1,1,60,0,0
80114,-100,4,1,2,50,0,0
87983,-100,4,1,2,43,0,0
95852,-100,4,1,2,15,0,0

[Colours]
Combo1 : 247,199,108
Combo2 : 36,247,152
Combo3 : 128,128,255
Combo4 : 255,62,158

[HitObjects]
60,316,1426,6,0,L|108:248,1,80,2|0,0:0|0:0,0:0:0:0:
192,232,2409,2,0,L|240:164,1,80
316,124,3393,2,0,P|364:116|404:128,2,80,2|0|0,0:0|0:0|0:0,0:0:0:0:
238,166,4868,1,0,0:0:0:0:
160,208,5360,6,0,P|112:216|72:204,1,80,2|0,0:0|0:0,0:0:0:0:
16,152,6344,2,0,P|8:104|20:64,1,80
92,32,7327,1,2,0:0:0:0:
161,85,7819,2,0,P|217:89|241:81,2,80
92,32,9294,6,0,B|68:68|78:108|78:108|92:144|66:189,1,160
8,248,10770,1,8,0:0:0:0:
56,320,11262,2,0,P|112:336|212:320,1,160
284,268,12737,1,8,0:0:0:0:
352,212,13229,6,0,P|385:191|430:180,2,80,0|8|0,0:0|0:0|0:0,0:0:0:0:
284,268,14704,1,8,0:0:0:0:
200,296,15196,2,0,B|188:252|211:215|211:215|219:178|184:140,1,160
119,93,16671,1,8,0:0:0:0:
31,93,17163,6,0,P|46:146|71:167,1,80,0|8,0:0|0:0,0:0:0:0:
149,177,18147,2,0,P|183:157|202:122,1,80,0|8,0:0|0:0,0:0:0:0:
220,36,19130,1,0,0:0:0:0:
308,48,19622,2,0,B|356:66|370:96|370:96|401:72|447:82,1,160,8|8,0:0|0:0,0:0:0:0:
425,165,21098,6,0,L|387:240,1,80,0|8,0:0|0:0,0:0:0:0:
340,312,22081,1,0,0:0:0:0:
256,336,22573,1,8,0:0:0:0:
172,312,23065,2,0,P|131:275|115:241,2,80,0|8|0,0:0|0:0|0:0,0:0:0:0:
256,336,24540,1,8,0:0:0:0:
340,312,25032,6,0,B|364:276|352:236|352:236|376:196|356:156,1,160
296,96,26507,1,8,0:0:0:0:
240,164,26999,2,0,P|192:188|116:116,1,160
112,40,28475,1,8,0:0:0:0:
256,192,28966,12,6,31917,3:0:0:0:
176,280,32901,5,6,0:0:0:0:
260,308,33393,2,0,P|316:312|340:304,2,80,8|2|8,0:0|0:0|0:0,0:0:0:0:
176,280,34868,2,0,B|144:252|144:252|128:208,1,80,2|8,0:0|0:0,0:0:0:0:
168,136,35852,1,2,0:0:0:0:
256,140,36344,2,0,B|288:168|288:168|304:212,1,80,8|2,0:0|0:0,0:0:0:0:
292,292,37327,5,8,0:0:0:0:
364,340,37819,2,0,P|407:320|440:220,1,160,2|2,0:0|0:0,0:0:0:0:
400,140,39294,2,0,P|368:120|312:116,1,80,8|2,0:0|0:0,0:0:0:0:
240,132,40278,1,8,0:0:0:0:
172,188,40770,5,2,0:0:0:0:
156,276,41262,2,0,P|216:348|280:332,1,160,8|8,0:0|0:0,0:0:0:0:
344,288,42737,1,2,0:0:0:0:
424,324,43229,1,8,0:0:0:0:
504,364,43721,2,0,B|520:320|503:286|503:286|480:248|501:202,1,160,2|2,0:0|0:0,0:0:0:0:
510,122,45196,5,8,0:0:0:0:
432,76,45688,2,0,B|392:80|392:80|360:104,1,80,2|8,0:0|0:0,0:0:0:0:
300,168,46671,6,0,L|248:236,1,80,2|8,0:0|0:0,0:0:0:0:
196,300,47655,1,2,0:0:0:0:
112,272,48147,1,8,0:0:0:0:
32,308,48639,6,0,P|24:268|104:184,1,160,6|4,0:0|3:0,0:0:0:0:
268,156,50606,2,0,B|296:128|296:128|312:88,1,80,2|2,0:0|0:0,0:0:0:0:
268,12,51589,2,0,B|240:40|240:40|224:80,1,80,4|2,3:0|0:0,0:0:0:0:
208,164,52573,6,0,B|197:213|197:213|177:236|177:236|159:278|159:278|122:294,1,160,6|4,0:0|3:0,0:0:0:0:
56,340,54048,1,0,0:0:0:0:
24,260,54540,2,0,P|16:216|28:176,1,80,0|2,0:0|0:0,0:0:0:0:
112,168,55524,2,0,P|120:129|112:90,1,80,4|2,3:0|0:0,0:0:0:0:
36,48,56507,6,0,B|84:48|84:48|124:72|124:72|188:68|188:68|212:80|212:80|236:68|236:68|260:80|260:80|280:68|280:68|304:80|304:80|332:72|332:72|332:68,1,320,6|0,0:0|0:0,0:0:0:0:
420,72,58966,1,2,0:0:0:0:
444,156,59458,2,0,P|436:200|416:228,1,80,4|2,3:0|0:0,0:0:0:0:
332,248,60442,6,0,B|272:256|272:256|244:276|244:276|224:276|224:276|204:304|176:304,1,160,6|4,0:0|3:0,0:0:0:0:
104,328,61917,1,0,0:0:0:0:
60,252,62409,2,0,P|60:207|78:171,2,80,2|2|4,0:0|0:0|3:0,0:0:0:0:
104,328,63885,1,2,0:0:0:0:
192,332,64376,6,0,P|260:276|256:200,1,160,6|2,0:0|0:0,0:0:0:0:
200,144,65852,1,8,0:0:0:0:
112,132,66344,2,0,P|76:144|48:184,1,80,2|8,0:0|0:0,0:0:0:0:
36,264,67327,1,2,0:0:0:0:
116,300,67819,1,8,0:0:0:0:
200,332,68311,6,0,B|244:340|244:340|300:312|364:336,1,160,2|2,0:0|0:0,0:0:0:0:
440,360,69786,1,8,0:0:0:0:
496,292,70278,1,2,0:0:0:0:
472,208,70770,2,0,P|432:168|400:164,1,80,8|2,0:0|0:0,0:0:0:0:
324,176,71753,1,8,0:0:0:0:
252,224,72245,6,0,B|208:244|174:229|174:229|136:213|92:236,1,160,2|2,0:0|0:0,0:0:0:0:
40,300,73721,1,8,0:0:0:0:
108,356,74212,2,0,P|156:364|192:356,1,80,2|8,0:0|0:0,0:0:0:0:
260,307,75196,2,0,P|299:302|338:310,1,80,2|8,0:0|0:0,0:0:0:0:
418,347,76180,6,0,B|437:309|418:269|418:269|432:225|406:187,1,160,2|2,0:0|0:0,0:0:0:0:
340,136,77655,1,8,0:0:0:0:
252,152,78147,2,0,B|212:168|200:212|200:212|160:240|112:224,1,160,2|2,0:0|0:0,0:0:0:0:
52,180,79622,1,8,0:0:0:0:
20,100,80114,6,0,P|36:64|72:36,1,80,6|0,0:0|0:0,0:0:0:0:
152,56,81098,2,0,P|192:64|232:56,1,80
316,32,82081,1,2,0:0:0:0:
396,72,82573,2,0,L|428:152,1,80
456,228,83557,1,0,0:0:0:0:
412,304,84048,6,0,B|372:316|372:316|324:308,1,80,2|0,0:0|0:0,0:0:0:0:
264,256,85032,2,0,B|226:249|226:249|186:261,1,80
140,333,86016,2,0,P|99:268|129:197,1,160,2|0,0:0|0:0,0:0:0:0:
212,168,87491,1,0,0:0:0:0:
296,148,87983,6,0,B|336:132|372:152|372:152|420:132|424:80,1,160,2|0,0:0|0:0,0:0:0:0:
368,24,89458,1,0,0:0:0:0:
280,40,89950,2,0,L|196:64,1,80,2|0,0:0|0:0,0:0:0:0:
144,132,90934,2,0,L|60:156,1,80
36,236,91917,6,0,B|46:285|86:298|86:298|129:277|173:301,1,160,2|0,0:0|0:0,0:0:0:0:
232,348,93393,1,0,0:0:0:0:
320,360,93885,2,0,P|364:336|376:296,1,80,2|0,0:0|0:0,0:0:0:0:
396,224,94868,2,0,B|372:192|332:184|332:184|288:176|268:128,1,160
