osu file format v14

[General]
AudioFilename: Xenoblade Chronicles Medley - Super Smash Bros. for Wii U [OST].mp3
AudioLeadIn: 0
PreviewTime: -1
Countdown: 0
SampleSet: None
StackLeniency: 0.7
Mode: 1
LetterboxInBreaks: 1
WidescreenStoryboard: 0

[Editor]
DistanceSpacing: 1
BeatDivisor: 4
GridSize: 32
TimelineZoom: 1.1

[Metadata]
Title:Xenoblade Chronicles medley
TitleUnicode:Xenoblade Chronicles medley
Artist:ACE+
ArtistUnicode:ACE+
Creator:Teh Saturn
Version:Really feeling it!
Source:Super Smash Bros for Wii U/Xenoblade Chronicles
Tags:
BeatmapID:774008
BeatmapSetID:351228

[Difficulty]
HPDrainRate:5
CircleSize:5
OverallDifficulty:5
ApproachRate:5
SliderMultiplier:1.4
SliderTickRate:1

[Events]
//Background and Video events
0,0,"Background.jpg",0,0
//Break Periods
2,56904,59153
//Storyboard Layer 0 (Background)
//Storyboard Layer 1 (Fail)
//Storyboard Layer 2 (Pass)
//Storyboard Layer 3 (Foreground)
//Storyboard Sound Samples

[TimingPoints]
649.647859922179,240,4,1,0,45,1,0
31320,230.769230769231,4,1,0,45,1,0
58990,170.454545454545,4,1,0,45,1,0
71260,340.908852459019,4,1,0,45,1,0

[HitObjects]
258,192,649,5,0,0:0:0:0:
257,198,889,1,2,0:0:0:0:
258,192,1009,1,0,0:0:0:0:
259,200,1249,1,0,0:0:0:0:
259,197,1369,1,2,0:0:0:0:
266,197,1729,1,0,0:0:0:0:
250,189,1849,1,2,0:0:0:0:
257,199,2089,1,0,0:0:0:0:
257,199,2209,1,0,0:0:0:0:
257,199,2329,1,2,0:0:0:0:
258,192,2569,1,0,0:0:0:0:
257,198,2809,1,2,0:0:0:0:
258,192,2929,1,0,0:0:0:0:
259,200,3169,1,0,0:0:0:0:
259,197,3289,1,2,0:0:0:0:
266,197,3649,1,0,0:0:0:0:
250,189,3769,1,2,0:0:0:0:
257,199,4009,1,0,0:0:0:0:
257,199,4129,1,0,0:0:0:0:
257,199,4249,1,2,0:0:0:0:
259,193,4489,1,0,0:0:0:0:
258,192,4729,1,2,0:0:0:0:
259,193,4969,1,0,0:0:0:0:
259,197,5089,1,0,0:0:0:0:
259,193,5209,1,2,0:0:0:0:
259,193,5449,1,0,0:0:0:0:
259,193,5689,1,2,0:0:0:0:
259,193,5809,1,2,0:0:0:0:
259,193,5929,1,2,0:0:0:0:
259,193,6049,1,2,0:0:0:0:
259,193,6169,1,2,0:0:0:0:
259,193,6289,1,2,0:0:0:0:
258,192,6409,1,4,0:0:0:0:
257,192,6769,1,4,0:0:0:0:
259,193,7009,1,0,0:0:0:0:
252,192,7129,1,2,0:0:0:0:
259,193,7369,1,4,0:0:0:0:
259,193,7849,1,2,0:0:0:0:
259,193,7969,1,2,0:0:0:0:
259,193,8089,1,2,0:0:0:0:
258,192,8209,1,2,0:0:0:0:
260,194,8329,1,0,0:0:0:0:
257,192,8569,1,2,0:0:0:0:
259,193,8809,1,0,0:0:0:0:
259,192,8869,1,0,0:0:0:0:
259,192,8929,1,0,0:0:0:0:
259,193,8989,1,0,0:0:0:0:
253,191,9049,1,2,0:0:0:0:
252,191,9289,1,0,0:0:0:0:
252,191,9409,1,0,0:0:0:0:
252,191,9529,1,2,0:0:0:0:
252,191,9649,1,0,0:0:0:0:
252,191,9889,1,0,0:0:0:0:
252,191,10009,1,2,0:0:0:0:
260,194,10249,1,0,0:0:0:0:
257,192,10489,1,2,0:0:0:0:
259,193,10729,1,0,0:0:0:0:
259,192,10789,1,0,0:0:0:0:
259,192,10849,1,0,0:0:0:0:
259,193,10909,1,0,0:0:0:0:
253,191,10969,1,2,0:0:0:0:
252,191,11209,1,0,0:0:0:0:
252,191,11329,1,0,0:0:0:0:
252,191,11449,1,2,0:0:0:0:
252,191,11569,1,0,0:0:0:0:
252,191,11809,1,0,0:0:0:0:
252,191,11929,1,2,0:0:0:0:
257,192,12169,1,0,0:0:0:0:
259,193,12409,1,2,0:0:0:0:
259,192,12649,1,0,0:0:0:0:
253,191,12769,1,0,0:0:0:0:
256,192,12889,1,2,0:0:0:0:
256,192,13009,1,0,0:0:0:0:
256,192,13129,1,0,0:0:0:0:
252,191,13369,1,4,0:0:0:0:
245,194,13609,1,2,0:0:0:0:
245,194,13729,1,2,0:0:0:0:
249,190,13849,1,2,0:0:0:0:
249,190,13969,1,2,0:0:0:0:
249,190,14089,1,2,0:0:0:0:
259,192,14329,1,0,0:0:0:0:
259,192,14449,1,2,0:0:0:0:
256,192,14689,1,0,0:0:0:0:
256,192,14809,1,2,0:0:0:0:
252,191,14929,1,2,0:0:0:0:
254,195,15049,1,0,0:0:0:0:
226,269,15289,1,0,0:0:0:0:
253,192,15529,1,2,0:0:0:0:
249,190,15589,1,2,0:0:0:0:
249,190,15649,1,2,0:0:0:0:
249,190,15709,1,2,0:0:0:0:
249,190,15769,1,0,0:0:0:0:
249,190,15829,1,0,0:0:0:0:
249,190,15889,1,0,0:0:0:0:
252,188,15949,1,0,0:0:0:0:
253,189,16009,1,0,0:0:0:0:
249,188,16249,1,0,0:0:0:0:
250,189,16369,1,2,0:0:0:0:
249,188,16609,1,0,0:0:0:0:
252,191,16729,1,2,0:0:0:0:
253,192,16969,1,0,0:0:0:0:
253,192,17089,1,0,0:0:0:0:
247,183,17209,1,2,0:0:0:0:
247,183,17329,1,0,0:0:0:0:
247,183,17449,1,0,0:0:0:0:
247,183,17569,1,0,0:0:0:0:
247,183,17689,1,2,0:0:0:0:
258,192,17929,1,0,0:0:0:0:
249,188,18169,1,0,0:0:0:0:
250,189,18289,1,2,0:0:0:0:
249,188,18529,1,0,0:0:0:0:
252,191,18649,1,2,0:0:0:0:
253,192,18889,1,0,0:0:0:0:
253,192,19009,1,0,0:0:0:0:
247,183,19129,1,2,0:0:0:0:
247,183,19249,1,0,0:0:0:0:
247,183,19369,1,0,0:0:0:0:
247,183,19489,1,0,0:0:0:0:
247,183,19609,1,2,0:0:0:0:
257,189,19849,1,2,0:0:0:0:
257,189,20089,1,2,0:0:0:0:
249,188,20329,1,0,0:0:0:0:
252,191,20389,1,0,0:0:0:0:
252,191,20449,1,0,0:0:0:0:
253,192,20509,1,0,0:0:0:0:
253,192,20569,1,2,0:0:0:0:
253,192,20629,1,0,0:0:0:0:
253,192,20689,1,0,0:0:0:0:
253,192,20749,1,0,0:0:0:0:
253,192,20809,1,0,0:0:0:0:
251,187,21049,1,0,0:0:0:0:
252,187,21169,1,0,0:0:0:0:
252,187,21289,1,2,0:0:0:0:
252,187,21529,1,0,0:0:0:0:
252,192,21769,1,6,0:0:0:0:
252,192,22009,1,0,0:0:0:0:
252,191,22129,1,6,0:0:0:0:
253,192,22489,1,0,0:0:0:0:
251,187,22729,1,0,0:0:0:0:
251,187,22849,1,0,0:0:0:0:
252,187,22969,1,2,0:0:0:0:
252,187,23209,1,2,0:0:0:0:
252,187,23329,1,2,0:0:0:0:
248,188,23449,1,2,0:0:0:0:
248,188,23569,1,2,0:0:0:0:
248,187,23689,1,4,0:0:0:0:
252,191,23929,1,2,0:0:0:0:
253,192,24169,1,0,0:0:0:0:
253,192,24289,1,0,0:0:0:0:
251,187,24409,1,2,0:0:0:0:
251,187,24529,1,0,0:0:0:0:
252,187,24769,1,0,0:0:0:0:
252,187,24889,1,2,0:0:0:0:
252,187,25129,1,0,0:0:0:0:
250,183,25249,1,0,0:0:0:0:
250,183,25369,1,2,0:0:0:0:
248,187,25609,1,4,0:0:0:0:
252,191,25849,1,2,0:0:0:0:
253,192,26089,1,0,0:0:0:0:
253,192,26209,1,0,0:0:0:0:
251,187,26329,1,2,0:0:0:0:
251,187,26449,1,0,0:0:0:0:
252,187,26689,1,0,0:0:0:0:
252,187,26809,1,2,0:0:0:0:
250,183,27049,1,2,0:0:0:0:
250,183,27169,1,2,0:0:0:0:
248,187,27289,1,2,0:0:0:0:
248,187,27409,1,2,0:0:0:0:
256,192,27529,12,2,29209,0:0:0:0:
259,188,31320,5,0,0:0:0:0:
259,188,31551,1,0,0:0:0:0:
259,188,31666,1,0,0:0:0:0:
259,188,31781,1,2,0:0:0:0:
259,188,31896,1,0,0:0:0:0:
259,188,32012,1,0,0:0:0:0:
249,191,32127,1,0,0:0:0:0:
253,188,32243,1,2,0:0:0:0:
253,188,32358,1,0,0:0:0:0:
252,185,32473,1,0,0:0:0:0:
252,185,32589,1,2,0:0:0:0:
252,185,32704,1,0,0:0:0:0:
252,185,32820,1,0,0:0:0:0:
252,185,32935,1,2,0:0:0:0:
252,185,32993,1,2,0:0:0:0:
252,185,33050,1,2,0:0:0:0:
252,184,33108,1,2,0:0:0:0:
259,188,33166,1,0,0:0:0:0:
259,188,33396,1,0,0:0:0:0:
259,188,33512,1,0,0:0:0:0:
255,186,33627,1,2,0:0:0:0:
253,188,33743,1,0,0:0:0:0:
253,188,33858,1,0,0:0:0:0:
252,185,33973,1,0,0:0:0:0:
252,185,34089,1,2,0:0:0:0:
252,185,34204,1,0,0:0:0:0:
252,185,34320,1,0,0:0:0:0:
252,185,34435,1,2,0:0:0:0:
252,185,34550,1,0,0:0:0:0:
252,184,34666,1,0,0:0:0:0:
255,181,34781,1,2,0:0:0:0:
255,181,34839,1,2,0:0:0:0:
255,180,34896,1,2,0:0:0:0:
255,180,34954,1,2,0:0:0:0:
259,188,35012,1,0,0:0:0:0:
259,188,35242,1,0,0:0:0:0:
259,188,35358,1,0,0:0:0:0:
255,186,35473,1,2,0:0:0:0:
253,188,35589,1,0,0:0:0:0:
253,188,35704,1,0,0:0:0:0:
252,185,35819,1,0,0:0:0:0:
252,185,35935,1,2,0:0:0:0:
252,185,36050,1,0,0:0:0:0:
252,185,36166,1,0,0:0:0:0:
252,185,36281,1,2,0:0:0:0:
252,185,36396,1,2,0:0:0:0:
252,184,36512,1,0,0:0:0:0:
255,181,36627,1,2,0:0:0:0:
255,180,36742,1,2,0:0:0:0:
254,189,36858,1,0,0:0:0:0:
255,186,36973,1,6,0:0:0:0:
253,188,37204,1,0,0:0:0:0:
252,185,37320,1,6,0:0:0:0:
254,189,37781,1,0,0:0:0:0:
255,186,37896,1,6,0:0:0:0:
253,188,38127,1,0,0:0:0:0:
252,185,38243,1,2,0:0:0:0:
255,186,38473,1,2,0:0:0:0:
255,186,38531,1,2,0:0:0:0:
253,188,38589,1,2,0:0:0:0:
259,188,38704,5,0,0:0:0:0:
259,188,38935,1,0,0:0:0:0:
259,188,39050,1,0,0:0:0:0:
259,188,39165,1,2,0:0:0:0:
259,188,39280,1,0,0:0:0:0:
259,188,39396,1,0,0:0:0:0:
249,191,39511,1,0,0:0:0:0:
253,188,39627,1,2,0:0:0:0:
253,188,39742,1,0,0:0:0:0:
252,185,39857,1,0,0:0:0:0:
252,185,39973,1,2,0:0:0:0:
252,185,40088,1,0,0:0:0:0:
252,185,40204,1,0,0:0:0:0:
252,185,40319,1,2,0:0:0:0:
252,185,40377,1,2,0:0:0:0:
252,185,40434,1,2,0:0:0:0:
252,184,40492,1,2,0:0:0:0:
259,188,40550,1,0,0:0:0:0:
259,188,40780,1,0,0:0:0:0:
259,188,40896,1,0,0:0:0:0:
255,186,41011,1,2,0:0:0:0:
253,188,41127,1,0,0:0:0:0:
253,188,41242,1,0,0:0:0:0:
252,185,41357,1,0,0:0:0:0:
252,185,41473,1,2,0:0:0:0:
252,185,41588,1,0,0:0:0:0:
252,185,41704,1,0,0:0:0:0:
252,185,41819,1,2,0:0:0:0:
252,185,41934,1,0,0:0:0:0:
252,184,42050,1,0,0:0:0:0:
255,181,42165,1,2,0:0:0:0:
255,181,42223,1,2,0:0:0:0:
255,180,42280,1,2,0:0:0:0:
255,180,42338,1,2,0:0:0:0:
259,188,42396,1,0,0:0:0:0:
259,188,42626,1,0,0:0:0:0:
259,188,42742,1,0,0:0:0:0:
255,186,42857,1,2,0:0:0:0:
253,188,42973,1,0,0:0:0:0:
253,188,43088,1,0,0:0:0:0:
252,185,43203,1,0,0:0:0:0:
252,185,43319,1,2,0:0:0:0:
252,185,43434,1,0,0:0:0:0:
252,185,43550,1,2,0:0:0:0:
252,185,43665,1,2,0:0:0:0:
252,185,43780,1,0,0:0:0:0:
252,184,43896,1,2,0:0:0:0:
255,181,44011,1,2,0:0:0:0:
255,180,44126,1,2,0:0:0:0:
259,188,44243,1,0,0:0:0:0:
253,188,44473,1,0,0:0:0:0:
253,188,44589,1,0,0:0:0:0:
252,185,44704,1,2,0:0:0:0:
252,185,44935,1,0,0:0:0:0:
254,191,45166,1,0,0:0:0:0:
253,191,45223,1,0,0:0:0:0:
251,191,45281,1,0,0:0:0:0:
251,189,45396,1,0,0:0:0:0:
251,189,45454,1,0,0:0:0:0:
251,189,45512,1,0,0:0:0:0:
256,190,45627,1,2,0:0:0:0:
255,189,45685,1,2,0:0:0:0:
259,188,45743,1,2,0:0:0:0:
255,195,45858,1,2,0:0:0:0:
255,195,45973,1,2,0:0:0:0:
253,188,46089,1,0,0:0:0:0:
252,190,46320,1,2,0:0:0:0:
253,190,46550,1,0,0:0:0:0:
254,191,46666,1,0,0:0:0:0:
253,191,46781,1,2,0:0:0:0:
251,189,46896,1,0,0:0:0:0:
251,189,47012,1,0,0:0:0:0:
248,187,47127,1,0,0:0:0:0:
248,187,47243,1,2,0:0:0:0:
248,187,47358,1,0,0:0:0:0:
248,186,47473,1,0,0:0:0:0:
252,186,47589,1,0,0:0:0:0:
258,195,47704,1,2,0:0:0:0:
252,190,47820,1,0,0:0:0:0:
252,190,47878,1,0,0:0:0:0:
252,190,47936,1,0,0:0:0:0:
247,192,48166,1,2,0:0:0:0:
258,195,48396,1,0,0:0:0:0:
152,122,48512,1,0,0:0:0:0:
252,199,48627,1,2,0:0:0:0:
246,192,48858,1,0,0:0:0:0:
241,192,48973,1,0,0:0:0:0:
241,192,49089,1,0,0:0:0:0:
254,198,49204,1,6,0:0:0:0:
239,199,49550,1,6,0:0:0:0:
240,205,49781,1,0,0:0:0:0:
241,192,50012,1,2,0:0:0:0:
253,190,50243,1,0,0:0:0:0:
254,191,50359,1,0,0:0:0:0:
253,191,50474,1,2,0:0:0:0:
251,189,50589,1,0,0:0:0:0:
251,189,50705,1,0,0:0:0:0:
248,187,50820,1,0,0:0:0:0:
248,187,50936,1,2,0:0:0:0:
248,187,51051,1,0,0:0:0:0:
248,186,51166,1,0,0:0:0:0:
252,186,51282,1,0,0:0:0:0:
258,195,51397,1,2,0:0:0:0:
252,190,51513,1,0,0:0:0:0:
252,190,51629,1,6,0:0:0:0:
259,194,51916,1,0,0:0:0:0:
259,194,51973,1,0,0:0:0:0:
259,194,52031,1,0,0:0:0:0:
254,197,52089,1,2,0:0:0:0:
254,193,52377,1,0,0:0:0:0:
254,193,52435,1,0,0:0:0:0:
254,193,52493,1,0,0:0:0:0:
254,193,52550,1,0,0:0:0:0:
254,193,52839,1,0,0:0:0:0:
258,195,52896,1,0,0:0:0:0:
258,195,52954,1,0,0:0:0:0:
252,190,53012,1,2,0:0:0:0:
253,194,53243,1,0,0:0:0:0:
253,194,53358,1,0,0:0:0:0:
253,192,53473,1,2,0:0:0:0:
251,192,53589,1,0,0:0:0:0:
251,192,53646,1,0,0:0:0:0:
254,193,53704,1,2,0:0:0:0:
254,193,53820,1,0,0:0:0:0:
254,193,53877,1,0,0:0:0:0:
254,193,53935,1,2,0:0:0:0:
254,193,54166,1,0,0:0:0:0:
254,193,54396,1,2,0:0:0:0:
251,189,54512,1,0,0:0:0:0:
252,190,54570,1,0,0:0:0:0:
253,194,54627,1,2,0:0:0:0:
253,194,54743,1,0,0:0:0:0:
253,194,54800,1,0,0:0:0:0:
253,194,54858,1,2,0:0:0:0:
253,187,55089,1,0,0:0:0:0:
254,193,55320,1,2,0:0:0:0:
254,193,55377,1,2,0:0:0:0:
254,193,55435,1,0,0:0:0:0:
254,193,55493,1,0,0:0:0:0:
254,193,55550,1,2,0:0:0:0:
254,193,55608,1,2,0:0:0:0:
254,193,55666,1,0,0:0:0:0:
254,193,55723,1,0,0:0:0:0:
246,186,55781,1,2,0:0:0:0:
262,203,56243,1,2,0:0:0:0:
257,195,56300,1,2,0:0:0:0:
253,194,56358,1,2,0:0:0:0:
253,194,56416,1,2,0:0:0:0:
253,187,56473,1,0,0:0:0:0:
253,187,56531,1,0,0:0:0:0:
253,187,56589,1,0,0:0:0:0:
253,187,56646,1,0,0:0:0:0:
254,193,56704,1,2,0:0:0:0:
256,194,60353,5,0,0:0:0:0:
256,194,60694,1,2,0:0:0:0:
265,192,61035,1,0,0:0:0:0:
264,189,61205,1,0,0:0:0:0:
264,189,61376,1,2,0:0:0:0:
263,187,61717,1,0,0:0:0:0:
263,187,62058,1,2,0:0:0:0:
263,187,62228,1,0,0:0:0:0:
217,61,62313,1,0,0:0:0:0:
217,61,62399,1,0,0:0:0:0:
218,51,62569,1,0,0:0:0:0:
218,51,62739,1,2,0:0:0:0:
256,194,63080,5,0,0:0:0:0:
256,194,63421,1,2,0:0:0:0:
265,192,63762,1,0,0:0:0:0:
264,189,63932,1,0,0:0:0:0:
264,189,64103,1,2,0:0:0:0:
263,187,64444,1,0,0:0:0:0:
263,187,64785,1,2,0:0:0:0:
263,187,64955,1,0,0:0:0:0:
217,61,65040,1,0,0:0:0:0:
217,61,65126,1,0,0:0:0:0:
218,51,65296,1,0,0:0:0:0:
218,51,65466,1,2,0:0:0:0:
267,182,65808,1,0,0:0:0:0:
267,181,65978,1,0,0:0:0:0:
254,197,66149,1,2,0:0:0:0:
254,196,66319,1,0,0:0:0:0:
254,191,66489,1,0,0:0:0:0:
253,192,66660,1,0,0:0:0:0:
253,192,66830,1,2,0:0:0:0:
253,192,67171,1,0,0:0:0:0:
253,191,67342,1,0,0:0:0:0:
253,191,67512,1,2,0:0:0:0:
258,191,67683,1,0,0:0:0:0:
258,188,67853,1,0,0:0:0:0:
258,188,67938,1,0,0:0:0:0:
258,188,68024,1,0,0:0:0:0:
258,188,68109,1,0,0:0:0:0:
254,191,68194,1,2,0:0:0:0:
253,192,68535,1,0,0:0:0:0:
253,191,68706,1,0,0:0:0:0:
253,191,68876,1,2,0:0:0:0:
258,191,69047,5,0,0:0:0:0:
258,188,69217,1,0,0:0:0:0:
258,188,69302,1,0,0:0:0:0:
258,188,69388,1,0,0:0:0:0:
258,188,69473,1,0,0:0:0:0:
254,191,69558,1,2,0:0:0:0:
254,193,69899,1,4,0:0:0:0:
260,192,70239,5,6,0:0:0:0:
260,198,70410,1,0,0:0:0:0:
260,192,70580,1,6,0:0:0:0:
260,192,70751,1,0,0:0:0:0:
260,197,71092,1,4,0:0:0:0:
260,197,71432,1,0,0:0:0:0:
261,197,71515,1,0,0:0:0:0:
261,197,71600,1,2,0:0:0:0:
261,197,71771,1,0,0:0:0:0:
262,197,71856,1,0,0:0:0:0:
260,197,71942,1,0,0:0:0:0:
260,197,72112,1,0,0:0:0:0:
261,197,72195,1,0,0:0:0:0:
261,197,72280,1,2,0:0:0:0:
261,197,72451,1,0,0:0:0:0:
262,197,72536,1,0,0:0:0:0:
260,197,72622,1,0,0:0:0:0:
260,197,72794,1,0,0:0:0:0:
260,197,72879,1,0,0:0:0:0:
260,197,72964,1,0,0:0:0:0:
248,197,73134,1,0,0:0:0:0:
248,197,73220,1,0,0:0:0:0:
261,197,73305,1,2,0:0:0:0:
256,199,73475,1,0,0:0:0:0:
261,197,73561,1,0,0:0:0:0:
257,199,73646,1,0,0:0:0:0:
260,197,73731,1,0,0:0:0:0:
260,197,73816,1,0,0:0:0:0:
260,197,73902,1,0,0:0:0:0:
261,197,73987,1,2,0:0:0:0:
261,197,74157,1,0,0:0:0:0:
261,197,74242,1,0,0:0:0:0:
256,195,74328,1,2,0:0:0:0:
260,197,74498,1,0,0:0:0:0:
260,197,74583,1,0,0:0:0:0:
260,197,74669,1,2,0:0:0:0:
248,197,74839,1,6,0:0:0:0:
248,197,75009,1,6,0:0:0:0:
256,199,75180,1,6,0:0:0:0:
248,188,75350,1,0,0:0:0:0:
252,191,75436,1,0,0:0:0:0:
252,191,75521,1,0,0:0:0:0:
252,191,75606,1,0,0:0:0:0:
252,191,75691,1,2,0:0:0:0:
252,191,75862,1,0,0:0:0:0:
252,191,75947,1,0,0:0:0:0:
253,192,76032,1,0,0:0:0:0:
253,192,76203,1,0,0:0:0:0:
253,192,76373,1,2,0:0:0:0:
253,192,76544,1,2,0:0:0:0:
248,197,76714,1,2,0:0:0:0:
252,195,76884,1,0,0:0:0:0:
252,194,76970,1,0,0:0:0:0:
251,194,77055,1,0,0:0:0:0:
249,195,77225,1,0,0:0:0:0:
248,195,77566,1,0,0:0:0:0:
252,191,77737,1,2,0:0:0:0:
247,195,77907,1,0,0:0:0:0:
248,195,78078,1,2,0:0:0:0:
248,195,78248,1,0,0:0:0:0:
248,195,78333,1,0,0:0:0:0:
248,197,78419,1,0,0:0:0:0:
252,195,78589,1,0,0:0:0:0:
252,201,78930,1,0,0:0:0:0:
252,201,79101,1,0,0:0:0:0:
249,195,79271,1,6,0:0:0:0:
248,195,79612,1,0,0:0:0:0:
248,195,79783,1,0,0:0:0:0:
248,195,79953,1,6,0:0:0:0:
252,201,80294,1,0,0:0:0:0:
252,201,80464,1,0,0:0:0:0:
251,191,80635,1,6,0:0:0:0:
257,194,80976,1,0,0:0:0:0:
252,191,81061,1,0,0:0:0:0:
253,190,81146,1,0,0:0:0:0:
253,190,81317,1,0,0:0:0:0:
253,190,81487,1,0,0:0:0:0:
253,190,81573,1,0,0:0:0:0:
253,190,81658,1,0,0:0:0:0:
253,190,81743,1,0,0:0:0:0:
253,190,81828,1,0,0:0:0:0:
