osu file format v5

[General]
AudioFilename: 01 - Highway To Hell.mp3
AudioLeadIn: 507
PreviewTime: -1
Countdown: 1
SampleSet: Normal
StackLeniency: 0.8
Mode: 0
LetterboxInBreaks: 1

[Metadata]
Title:Highway To Hell
Artist:AC/DC
Creator:GameguyX35
Version:Hell
Source:
Tags:

[Difficulty]
HPDrainRate:6
CircleSize:7
OverallDifficulty:7
SliderMultiplier:1.1
SliderTickRate:1

[Events]
//Background and Video events
0,0,"Retro_DirtTrack___Excitebike___by_RETROnoob.jpg"
//Break Periods
2,67731,70810
2,122083,128851
2,195107,201669
//Storyboard Layer 0 (Background)
//Storyboard Layer 1 (Failing)
//Storyboard Layer 2 (Passing)
//Storyboard Layer 3 (Foreground)
//Storyboard Sound Samples
//Background Colour Transformations
3,100,163,162,255

[TimingPoints]
49298,253.79784825,4,1,0,100,1

[Colours]
Combo1 : 128,0,0
Combo2 : 255,0,0
Combo3 : 255,128,0
Combo4 : 0,0,0

[HitObjects]
160,192,9451,1,0
256,192,11482,1,0
352,192,13512,1,0
288,192,14527,1,0
224,192,15773,1,2
160,192,16050,1,0
256,256,17827,5,0
256,192,19857,5,0
256,256,21634,1,0
320,256,22751,1,0
256,256,23918,1,0
256,320,24172,1,0
256,192,26731,1,0
192,224,29219,5,0
320,192,30770,1,0
256,128,31785,1,0
256,192,33199,1,0
256,256,33697,1,0
128,288,34692,1,0
192,288,35680,1,2
128,288,37180,5,0
192,288,37677,1,0
256,224,39170,1,0
256,224,40165,1,0
256,160,41176,1,0
256,192,44146,1,0
320,192,46136,1,0
192,192,47629,5,0
192,128,49298,2,0,B|352:128,12,110
160,224,53358,5,0
256,224,54373,1,0
320,224,54881,1,0
352,224,55135,1,0
256,320,57419,1,0
256,192,58434,1,0
256,224,58942,1,0
256,256,59196,1,2
352,96,61561,1,0
224,96,62556,1,0
256,96,63003,1,0
288,96,63256,1,2
160,256,65541,5,0
160,128,66536,1,0
160,160,67063,1,0
160,192,67317,1,2
96,224,72009,6,0,B|256:192|384:256,1,220
384,128,74000,2,0,B|192:64|96:192,1,220
192,224,75439,2,2,B|352:224,2,110
192,160,76454,2,2,B|352:160,2,110
128,288,77723,2,0,B|384:96,1,220
256,192,80470,12,0,85083
192,160,86098,6,0,B|352:160,2,110
192,224,87875,2,0,B|352:224,2,110
256,192,89428,5,0
256,192,90423,1,0
256,192,91916,1,0
256,192,92189,1,0
256,192,92414,1,0
256,256,93907,1,0
320,256,94404,1,0
224,256,94902,1,0
160,256,95489,1,2
256,192,97390,1,0
256,128,99381,1,0
320,128,99803,1,0
384,128,100057,1,0
256,256,101372,5,0
192,256,101869,1,0
320,256,102865,1,0
256,192,103103,1,0
192,128,104118,1,0
256,96,104372,1,0
256,160,104625,1,0
256,256,104879,1,0
192,224,105133,6,0,B|352:224,3,110
320,256,106148,5,2
96,256,106656,2,0,B|224:128|352:160|480:32,2,440
256,192,108940,1,4
416,320,111224,2,0,B|192:160|64:320|160:32|416:160|384:0,2,550
64,320,115306,2,0,B|288:256|352:352|480:128|96:160|192:0|224:0,2,550
64,64,119346,2,0,B|192:160|128:320|352:320|416:128|480:384,2,550
256,192,129751,12,0,132036
160,192,132797,6,0,B|320:192,3,110
160,256,134066,6,0,B|320:256,3,110
256,32,135589,6,0,B|256:384,1,330
160,352,136604,2,0,B|320:352,1,110
160,288,137365,2,0,B|320:288,1,110
160,224,138127,2,4,B|320:224,1,110
256,32,138888,2,4,B|256:384,1,330
160,192,140687,1,0
224,192,140919,1,0
288,192,141683,1,0
352,192,142180,1,2
288,192,143176,1,0
160,192,143710,1,0
320,128,144725,6,0,B|320:288,6,110
288,128,147010,6,0,B|288:288,1,110
32,32,148025,2,0,B|256:384|480:320,1,550
352,224,150143,5,0
288,160,151578,1,0
224,160,152086,1,0
192,224,152593,1,0
256,224,153627,1,0
320,224,154124,1,2
352,224,154370,1,0
320,224,155120,1,2
256,224,156115,5,0
192,192,156613,1,0
256,160,157608,1,0
352,192,158106,1,0
352,192,158431,1,0
256,256,159599,1,0
192,192,160096,1,0
288,160,160594,1,2
288,256,161589,1,0
288,256,162087,1,0
288,256,162491,1,0
160,192,163580,1,0
224,192,164268,1,2
320,96,164776,5,0
320,160,165791,1,0
320,224,166298,1,0
320,224,166552,1,0
288,224,167821,5,0
160,224,168329,1,0
192,288,168836,1,0
288,288,170050,1,0
288,288,170613,1,0
288,288,170867,1,0
96,160,172040,1,0
192,128,172538,1,0
192,256,173036,1,0
352,224,174031,5,0
224,160,174674,1,0
224,160,174927,1,0
224,256,176022,1,0
320,224,176519,1,0
256,160,177017,1,2
160,288,178012,1,0
256,288,178510,1,0
256,288,178988,1,0
32,352,180003,2,0,B|512:0|480:384|96:352|0:0|512:32|512:384|0:256|192:0|480:0|512:288,5,770
224,192,189394,2,0,B|384:192,16,110
256,192,194724,1,4
256,256,202398,5,0
320,256,202591,1,0
288,192,203353,1,0
224,192,204389,1,2
256,320,206379,1,4
