osu file format v5

[General]
AudioFilename: 01 - Highway To Hell.mp3
AudioLeadIn: 507
PreviewTime: -1
Countdown: 1
SampleSet: Normal
StackLeniency: 0.8
Mode: 0
LetterboxInBreaks: 1

[Metadata]
Title:Highway To Hell
Artist:AC/DC
Creator:GameguyX35
Version:Freeway
Source:
Tags:

[Difficulty]
HPDrainRate:6
CircleSize:6
OverallDifficulty:7
SliderMultiplier:1.4
SliderTickRate:1

[Events]
//Background and Video events
0,0,"Retro_DirtTrack___Excitebike___by_RETROnoob.jpg"
//Break Periods
2,67731,70810
2,121468,128527
2,164259,166840
2,195107,201669
//Storyboard Layer 0 (Background)
//Storyboard Layer 1 (Failing)
//Storyboard Layer 2 (Passing)
//Storyboard Layer 3 (Foreground)
//Storyboard Sound Samples
//Background Colour Transformations
3,100,163,162,255

[TimingPoints]
72010,497.66541988,4,1,0,100,1

[Colours]
Combo1 : 128,0,0
Combo2 : 255,0,0
Combo3 : 255,128,0
Combo4 : 0,0,0

[HitObjects]
160,192,9316,1,0
256,192,11804,1,0
352,192,13794,1,0
288,192,14789,1,0
224,192,15773,1,2
160,192,16282,1,0
256,192,19268,5,0
256,256,21258,1,0
320,256,22751,1,0
256,256,23746,1,0
192,256,24731,1,2
256,192,26731,1,0
192,224,29219,5,0
320,192,30712,1,0
256,128,31707,1,0
256,192,33199,1,0
256,256,33697,1,0
128,288,34692,1,0
192,288,35680,1,2
128,288,37180,5,0
192,288,37677,1,0
256,224,39170,1,0
256,224,40165,1,0
256,192,44146,1,0
320,192,46136,1,0
192,192,47629,5,0
256,192,49121,1,0
288,192,49619,1,0
320,224,50117,1,0
288,256,50614,1,0
224,224,51112,1,0
224,192,51609,1,0
224,160,52107,1,0
288,128,52604,1,0
320,224,53098,1,2
160,224,54097,5,0
256,224,55092,1,0
256,320,57580,1,0
256,192,58575,1,0
256,256,59568,1,2
352,96,61561,1,0
224,96,62556,1,0
288,96,63549,1,2
160,256,65541,5,0
160,128,66536,1,0
160,192,67531,1,2
96,224,72009,6,0,B|256:192|384:256,1,280
384,128,74000,2,0,B|192:64|96:192,1,280
256,320,75991,2,0,B|256:160|96:160|352:128|256:32,1,280
128,288,77981,2,0,B|384:96,1,280
256,192,80470,12,0,88431
256,192,89428,5,0
256,192,90423,1,0
256,192,91916,1,0
256,192,92414,1,0
256,256,93907,1,0
320,256,94404,1,0
224,256,94902,1,0
160,256,95400,1,2
256,192,97390,1,0
256,128,99381,1,0
320,128,99879,1,0
256,256,101372,5,0
192,256,101869,1,0
320,256,102865,1,0
256,192,103362,1,0
192,128,104358,1,0
256,96,104855,1,0
256,160,105353,1,0
256,256,105851,1,0
320,256,106348,5,2
96,256,106846,2,0,B|224:128|352:160|480:32,1,420
416,320,110827,2,0,B|192:160|64:320|160:32|416:160|384:0,1,560
64,320,115306,2,0,B|288:256|352:352|480:128|96:160|192:0|224:0,1,560
64,64,119288,2,0,B|192:160|128:320|352:320|416:128|480:384,1,560
256,192,129739,12,0,140188
160,192,140687,1,0
224,192,141185,1,0
288,192,141683,1,0
352,192,142180,1,2
288,192,143176,1,0
160,192,143673,1,0
224,256,144669,1,0
256,256,145166,1,0
320,256,145664,1,0
288,320,146162,1,0
192,224,146659,1,0
288,160,147157,1,0
256,256,147655,1,0
224,160,148152,1,2
352,224,150143,5,0
288,160,151636,1,0
224,160,152134,1,0
192,224,152631,1,0
256,224,153627,1,0
320,224,154124,1,2
320,224,155120,1,2
256,224,156115,5,0
192,192,156613,1,0
256,160,157608,1,0
352,192,158106,1,0
352,192,158603,1,0
256,256,159599,1,0
192,192,160096,1,0
288,160,160594,1,2
288,256,161589,1,0
288,256,162087,1,0
288,256,162585,1,0
160,192,163580,1,0
224,192,164078,1,2
288,224,168059,5,0
160,224,168557,1,0
192,288,169054,1,0
288,288,170050,1,0
288,288,170547,1,0
96,160,172040,1,0
192,128,172538,1,0
192,256,173036,1,0
352,224,174031,5,0
224,160,174529,1,0
224,160,175026,1,0
224,256,176022,1,0
320,224,176519,1,0
256,160,177017,1,2
160,288,178012,1,0
256,288,178510,1,0
256,288,179008,1,0
32,352,180003,2,0,B|512:0|480:384|96:352|0:0|512:32|512:384|0:256|192:0|480:0|512:288,5,840
256,256,202398,5,0
320,256,202896,1,0
288,192,203393,1,0
224,192,204389,1,2
256,320,206379,1,4
