osu file format v14

[General]
AudioFilename: 07 - ABBA - Thank You For The Music.mp3
AudioLeadIn: 0
PreviewTime: 45354
Countdown: 0
SampleSet: Normal
StackLeniency: 0.7
Mode: 0
LetterboxInBreaks: 0
WidescreenStoryboard: 0

[Editor]
Bookmarks: 84032,171362
DistanceSpacing: 1.2
BeatDivisor: 4
GridSize: 8
TimelineZoom: 1

[Metadata]
Title:Thank You For The Music
TitleUnicode:Thank You For The Music
Artist:ABBA
ArtistUnicode:ABBA
Creator:Larto
Version:Normal
Source:
Tags:pop english the album
BeatmapID:148417
BeatmapSetID:42637

[Difficulty]
HPDrainRate:5
CircleSize:3
OverallDifficulty:5
ApproachRate:5
SliderMultiplier:2.08
SliderTickRate:2

[Events]
//Background and Video events
0,0,"bg.jpg",0,0
//Break Periods
2,77282,80282
2,148503,151698
//Storyboard Layer 0 (Background)
//Storyboard Layer 1 (Fail)
//Storyboard Layer 2 (Pass)
//Storyboard Layer 3 (Foreground)
Sprite,Foreground,Centre,"Lyrics\C05.png",320,240 F,0,167999,168177,0,1 F,0,168177,174162,1 M,0,170962,,136,410 F,0,174162,174362,1,0
Sprite,Foreground,Centre,"Lyrics\C06.png",320,240 M,0,169427,,499,417 F,0,169427,169606,0,1 F,0,169606,174186,1 F,0,174186,174345,1,0
Sprite,Foreground,Centre,"Lyrics\C07.png",320,240 M,0,171034,,321,216 S,0,171034,,0.7471889 F,0,171034,171162,0,1 F,0,174186,174345,1,0
//Storyboard Layer 4 (Overlay)
//Storyboard Sound Samples

[TimingPoints]
45354,779.220779220779,4,1,1,49,1,0
47661,638.300795107034,4,1,1,49,1,1
48937,612.244897959184,4,1,1,49,1,1
50161,600,4,1,1,49,1,1
52602,600,4,1,1,49,1,1
52752,-100,4,1,1,49,0,1
53652,-100,4,1,1,49,0,1
67002,606.060606060606,4,1,1,49,1,1
71824,600,4,1,1,49,1,1
71824,-83.3333333333333,4,1,1,49,0,1
73624,-100,4,1,1,49,0,1
74074,-100,4,1,1,49,0,1
74234,612.244897959184,4,1,1,49,1,1
76682,600,4,1,1,49,1,0
86282,592.592592592593,4,1,1,49,1,0
95170,-100,4,1,1,49,0,0
95763,588.235294117647,4,1,1,49,1,0
100468,592.592592592593,4,1,1,49,1,0
109959,588.235294117647,4,1,1,49,1,0
114664,600,4,1,1,49,1,0
117064,594.059405940594,4,1,1,49,1,0
119440,-100,4,1,1,49,0,1
124192,592.619405940597,4,1,1,49,1,1
124340,-100,4,1,1,49,0,1
125229,-100,4,1,1,49,0,1
128932,589.68058968059,4,1,1,49,1,1
138366,600,4,1,1,49,1,1
141366,588.235294117647,4,1,1,49,1,1
143130,-83.3333333333333,4,1,1,49,0,1
144895,-100,4,1,1,49,0,1
145483,612.244897959184,4,1,1,49,1,1
147903,600,4,1,1,49,1,0
152898,612.244897959184,4,1,1,49,1,0
152898,-125,4,1,1,49,0,0
164377,-125,4,2,1,49,0,0
164683,-125,4,1,1,49,0,0
165142,714.285714285714,4,1,1,49,1,0
165142,-125,4,1,1,49,0,0
167106,-125,4,2,1,49,0,0
167463,-125,4,1,1,49,0,0
170962,800,4,1,1,49,1,0
170962,-76.9230769230769,4,1,0,49,0,0
174186,638.297872340426,4,1,1,49,1,1
175462,612.244897959184,4,1,1,49,1,1
176686,600,4,1,1,49,1,1
183886,594.059405940594,4,1,1,49,1,1
188638,597.014925373134,4,1,1,49,1,1
198190,-83.3333333333333,4,1,1,49,0,1
205951,588.235294117647,4,1,1,49,1,1
207715,588.235294117647,4,1,1,49,1,1
207715,-83.3333333333333,4,1,1,49,0,1
210082,800,4,1,1,49,1,0
210882,952.380952380952,4,1,1,49,1,0
214691,1000,4,1,1,49,1,0
215691,1224.48979591837,4,1,1,49,1,0
216915,1111.11111111111,4,1,1,49,1,0
218026,1500,4,1,1,49,1,0
219872,1500,4,1,1,49,1,0

[Colours]
Combo1 : 255,186,83
Combo2 : 112,252,112
Combo3 : 120,120,252
Combo4 : 253,134,134

[HitObjects]
32,192,45353,53,6,0:0:0:0:
256,112,46133,1,6,0:0:0:0:
480,192,46912,1,6,0:0:0:0:
256,272,47661,6,0,B|240:328|192:360|128:352|88:312,1,208,4|8,0:0|0:0,0:0:0:0:
144,192,48618,1,0,0:0:0:0:
112,64,48937,2,0,B|160:24|256:-24|352:24|400:64,1,312,4|0,0:0|0:0,0:0:0:0:
360,192,50161,6,0,B|144:192,2,208,6|8|2,0:0|0:0|0:0,0:0:0:0:
256,88,51661,1,0,0:0:0:0:
72,96,51961,2,0,B|0:192|72:288,1,208,4|0,0:0|0:0,0:0:0:0:
160,192,52902,6,0,B|256:264|352:192,1,208,6|0,0:0|0:0,0:0:0:0:
400,282,53802,2,0,B|255:387|111:282,1,312,2|0,0:0|0:0,0:0:0:0:
32,184,55002,6,0,B|-24:96|40:24|112:16,2,208,6|8|2,0:0|0:0|0:0,0:0:0:0:
256,200,56802,1,8,0:0:0:0:
328,96,57102,1,0,0:0:0:0:
184,96,57402,6,0,B|72:104|40:224,1,208,6|8,0:0|0:0,0:0:0:0:
104,336,58302,1,0,0:0:0:0:
176,232,58602,2,0,B|184:280|256:312|328:280|336:232,1,208,4|8,0:0|0:0,0:0:0:0:
448,192,59502,1,0,0:0:0:0:
480,88,59802,5,6,0:0:0:0:
256,192,60402,1,8,0:0:0:0:
32,296,61002,2,2,B|80:368|152:376|232:352,1,208,2|8,0:0|0:0,0:0:0:0:
336,312,61902,1,2,0:0:0:0:
424,224,62202,6,0,B|400:104|288:48,2,208,6|10|2,0:0|0:0|0:0,0:0:0:0:
360,320,63702,1,0,0:0:0:0:
256,264,64002,2,0,B|160:328,1,104,8|0,0:0|0:0,0:0:0:0:
88,224,64602,6,0,B|112:104|224:48,2,208,6|2|2,0:0|0:0|0:0,0:0:0:0:
152,320,66102,1,0,0:0:0:0:
256,264,66402,2,0,B|352:328,1,104,8|0,0:0|0:0,0:0:0:0:
464,328,67002,6,0,B|520:288|560:192|520:96|464:56,1,312,4|0,0:0|0:0,0:0:0:0:
336,56,68214,2,0,B|280:96|240:192|280:288|336:328,1,312,4|0,0:0|0:0,0:0:0:0:
400,192,69426,5,4,0:0:0:0:
256,24,70032,1,6,0:0:0:0:
112,192,70638,1,6,0:0:0:0:
256,360,71244,1,6,0:0:0:0:
381,80,71824,6,0,B|93:80,1,249.600005950928,4|8,0:0|0:0,0:0:0:0:
176,208,72724,1,0,0:0:0:0:
336,208,73024,1,4,0:0:0:0:
464,40,73924,5,0,0:0:0:0:
352,128,74234,2,0,B|256:56|160:128,2,208,6|8|2,0:0|0:0|0:0,0:0:0:0:
352,256,75764,2,0,B|256:328|160:256,1,208
256,192,76682,1,4,0:0:0:0:
16,264,81482,6,0,B|16:352|88:384|176:360,2,208,6|8|2,0:0|0:0|0:0,0:0:0:0:
16,136,82982,1,0,0:0:0:0:
96,40,83282,1,8,0:0:0:0:
368,176,83882,2,0,B|384:248|352:344|256:328|160:344|128:248|152:168,1,416,4|4,0:0|0:0,0:0:0:0:
192,56,85382,1,0,0:0:0:0:
320,56,85682,2,0,B|256:136,1,104,8|0,0:0|0:0,0:0:0:0:
120,136,86282,5,4,0:0:0:0:
8,360,86874,1,8,0:0:0:0:
256,312,87467,2,0,B|368:352|448:272,1,208,4|8,0:0|0:0,0:0:0:0:
464,152,88356,1,0,0:0:0:0:
360,88,88652,2,0,B|152:88,2,208,4|8|4,0:0|0:0|0:0,0:0:0:0:
256,256,90430,1,8,0:0:0:0:
496,264,91022,6,0,B|496:352|424:384|336:360,2,208,6|8|2,0:0|0:0|0:0,0:0:0:0:
496,136,92504,1,0,0:0:0:0:
416,40,92800,1,8,0:0:0:0:
144,176,93393,2,0,B|128:248|160:344|256:328|352:344|384:248|360:168,1,416,4|4,0:0|0:0,0:0:0:0:
320,56,94874,1,0,0:0:0:0:
192,56,95170,2,0,B|256:136,1,104,8|0,0:0|0:0,0:0:0:0:
392,136,95763,5,4,0:0:0:0:
256,336,96351,1,0,0:0:0:0:
120,136,96939,2,0,B|144:208|224:232|296:192,1,208,4|8,0:0|0:0,0:0:0:0:
256,72,97821,1,0,0:0:0:0:
376,32,98115,1,6,0:0:0:0:
496,192,98704,1,8,0:0:0:0:
376,352,99292,1,6,0:0:0:0:
256,192,99880,1,8,0:0:0:0:
256,64,100174,1,0,0:0:0:0:
344,152,100468,6,0,B|480:312,2,208,4|8|4,0:0|0:0|0:0,0:0:0:0:
472,160,101949,1,0,0:0:0:0:
392,64,102245,1,8,0:0:0:0:
384,360,102838,2,0,B|336:288|256:248|176:288|128:360,1,312,4|0,0:0|0:0,0:0:0:0:
0,352,104023,1,4,0:0:0:0:
256,368,104616,1,8,0:0:0:0:
512,352,105208,6,0,B|488:256|416:208|352:192,1,208,6|8,0:0|0:0,0:0:0:0:
256,256,106097,1,0,0:0:0:0:
131,201,106393,2,0,B|96:216|24:256|0:352,1,208,6|8,0:0|0:0,0:0:0:0:
144,312,107282,1,0,0:0:0:0:
256,360,107579,1,6,0:0:0:0:
480,192,108171,1,8,0:0:0:0:
256,24,108764,1,6,0:0:0:0:
32,192,109356,1,8,0:0:0:0:
160,328,109959,6,0,B|192:360|256:376|320:360|352:328,2,208,6|8|2,0:0|0:0|0:0,0:0:0:0:
184,208,111429,1,0,0:0:0:0:
328,208,111723,1,8,0:0:0:0:
152,80,112311,2,0,B|368:80,2,208,6|8|2,0:0|0:0|0:0,0:0:0:0:
256,160,113782,1,0,0:0:0:0:
256,288,114076,1,8,0:0:0:0:
496,232,114664,6,0,B|480:312|424:352|344:360,1,208,6|8,0:0|0:0,0:0:0:0:
16,232,115864,2,0,B|32:312|88:352|168:360,1,208,4|8,0:0|0:0,0:0:0:0:
256,280,116764,1,0,0:0:0:0:
256,152,117064,1,4,0:0:0:0:
512,192,117658,1,6,0:0:0:0:
256,24,118252,1,6,0:0:0:0:
0,192,118846,1,6,0:0:0:0:
256,272,119440,6,0,B|272:328|320:360|384:352|424:312,1,208,4|8,0:0|0:0,0:0:0:0:
368,192,120331,1,0,0:0:0:0:
400,64,120628,2,0,B|352:24|256:-24|160:24|112:64,1,312,4|0,0:0|0:0,0:0:0:0:
152,192,121816,6,0,B|368:192,2,208,6|8|2,0:0|0:0|0:0,0:0:0:0:
256,88,123301,1,0,0:0:0:0:
440,96,123598,2,0,B|512:192|440:288,1,208,4|0,0:0|0:0,0:0:0:0:
352,192,124488,6,0,B|256:264|160:192,1,208,6|0,0:0|0:0,0:0:0:0:
112,282,125377,2,0,B|257:387|401:282,1,312,2|0,0:0|0:0,0:0:0:0:
480,184,126562,6,0,B|536:96|472:24|400:16,2,208,6|8|2,0:0|0:0|0:0,0:0:0:0:
256,200,128340,1,8,0:0:0:0:
184,96,128636,1,0,0:0:0:0:
328,96,128932,6,0,B|440:104|472:224,1,208,6|8,0:0|0:0,0:0:0:0:
408,336,129816,1,0,0:0:0:0:
336,232,130111,2,0,B|328:280|256:312|184:280|176:232,1,208,4|8,0:0|0:0,0:0:0:0:
64,192,130995,1,0,0:0:0:0:
32,88,131290,5,6,0:0:0:0:
256,192,131880,1,8,0:0:0:0:
480,296,132470,2,2,B|432:368|360:376|280:352,1,208,2|8,0:0|0:0,0:0:0:0:
176,312,133354,1,2,0:0:0:0:
88,224,133649,6,0,B|112:104|224:48,2,208,6|10|2,0:0|0:0|0:0,0:0:0:0:
152,320,135123,1,0,0:0:0:0:
256,264,135418,2,0,B|352:328,1,104,8|0,0:0|0:0,0:0:0:0:
424,224,136008,6,0,B|400:104|288:48,2,208,6|10|2,0:0|0:0|0:0,0:0:0:0:
360,320,137482,1,0,0:0:0:0:
256,264,137777,2,0,B|160:328,1,104,8|2,0:0|0:0,0:0:0:0:
48,328,138366,22,0,B|-8:288|-48:192|-8:96|48:56,1,312,6|0,0:0|0:0,0:0:0:0:
176,56,139566,2,0,B|232:96|272:192|232:288|176:328,1,312,4|0,0:0|0:0,0:0:0:0:
112,192,140766,37,4,0:0:0:0:
256,24,141366,1,6,0:0:0:0:
400,192,141954,1,6,0:0:0:0:
256,360,142542,1,6,0:0:0:0:
128,80,143130,6,0,B|416:80,1,249.600005950928,4|8,0:0|0:0,0:0:0:0:
336,208,144013,1,0,0:0:0:0:
176,208,144307,1,4,0:0:0:0:
48,40,145189,5,0,0:0:0:0:
160,128,145483,2,0,B|256:56|352:128,2,208,6|8|2,0:0|0:0|0:0,0:0:0:0:
160,256,147013,2,0,B|256:328|352:256,1,208
256,192,147903,1,4,0:0:0:0:
40,272,152898,22,0,B|88:344|144:376|256:400|368:376|424:344|472:272,1,499.2,6|2,0:0|0:0,0:0:0:0:
472,112,155346,2,0,B|424:40|368:8|256:-16|144:8|88:40|40:112,1,499.2,6|2,0:0|0:0,0:0:0:0:
64,224,157489,5,0,0:0:0:0:
184,165,157795,2,0,B|200:141|218:130|256:122|293:130|311:141|327:165,1,166.4,6|0,0:0|0:0,0:0:0:0:
256,256,158714,1,0,0:0:0:0:
328,352,159020,2,0,B|312:375|293:386|256:394|218:386|200:375|184:352,1,166.4,6|2,0:0|0:0,0:0:0:0:
144,240,159938,1,0,0:0:0:0:
56,184,160244,1,6,0:0:0:0:
256,88,160857,1,0,0:0:0:0:
480,184,161469,6,0,B|408:232|320:216,1,166.4,4|8,0:0|0:0,0:0:0:0:
312,104,162387,1,0,0:0:0:0:
408,48,162693,2,0,B|488:112|496:192|488:272|408:336,1,332.8,6|2,0:0|0:0,0:0:0:0:
256,280,164530,1,2,0:0:0:0:
104,336,165142,6,0,B|24:272|16:192|24:112|104:48,1,332.8,6|2,0:0|0:0,0:0:0:0:
256,104,167284,1,2,0:0:0:0:
511,366,167999,38,2,B|449:310|461:242|477:206,1,166.4,2|6,0:0|0:0,0:0:0:0:
0,220,169427,38,2,B|62:276|50:344|34:380,1,166.4,2|6,0:0|0:0,0:0:0:0:
196,286,170962,38,0,B|232:306|257:364|257:364|281:323|323:215|372:298|447:208|463:166|442:64|431:44|347:17|281:42|256:95|256:95|232:42|164:24|99:48|88:75|51:148|115:198,1,946.39998307705,4|0,0:0|0:0,0:0:0:0:
16,248,174186,38,0,B|-56:152|16:56,1,208,4|8,0:0|0:0,0:0:0:0:
72,152,175143,1,0,0:0:0:0:
160,80,175462,2,0,B|200:112|256:128|312:112|352:80,1,208,4|8,0:0|0:0,0:0:0:0:
424,320,176686,21,4,0:0:0:0:
256,136,177286,1,8,0:0:0:0:
88,320,177886,2,0,B|144:376|240:344|256:264,1,208,6|8,0:0|0:0,0:0:0:0:
344,192,178786,1,0,0:0:0:0:
168,192,179086,6,0,B|72:208|-8:112|72:16|168:32,1,312,4|0,0:0|0:0,0:0:0:0:
347,31,180286,2,0,B|440:16|520:112|440:208|344:192,1,312,6|0,0:0|0:0,0:0:0:0:
480,256,181486,5,6,0:0:0:0:
256,344,182086,1,8,0:0:0:0:
32,256,182686,1,6,0:0:0:0:
256,152,183286,1,8,0:0:0:0:
208,264,183586,1,0,0:0:0:0:
320,320,183886,6,0,B|432:280|400:152,1,208,6|8,0:0|0:0,0:0:0:0:
328,56,184777,1,0,0:0:0:0:
184,56,185074,1,6,0:0:0:0:
256,264,185668,1,8,0:0:0:0:
256,136,185965,1,0,0:0:0:0:
344,216,186262,6,0,B|320:264|256:272|192:264|168:216,2,208,6|0|2,0:0|0:0|0:0,0:0:0:0:
456,168,187747,1,0,0:0:0:0:
480,48,188044,1,8,0:0:0:0:
32,24,188638,5,6,0:0:0:0:
32,136,188936,1,0,0:0:0:0:
32,248,189235,1,8,0:0:0:0:
32,360,189533,1,0,0:0:0:0:
144,336,189832,6,0,B|144:272|256:184|368:272|368:336,1,312,4|2,0:0|0:0,0:0:0:0:
480,360,191026,5,6,0:0:0:0:
480,248,191324,1,0,0:0:0:0:
480,136,191623,1,8,0:0:0:0:
480,24,191921,1,0,0:0:0:0:
368,48,192220,6,0,B|368:112|256:200|144:112|144:48,1,312,4|2,0:0|0:0,0:0:0:0:
24,56,193414,2,0,B|24:152|56:216|136:264|216:264,1,312,4|0,0:0|0:0,0:0:0:0:
301,263,194608,2,0,B|376:264|456:216|488:152|488:56,1,312,4|0,0:0|0:0,0:0:0:0:
392,88,195802,37,4,0:0:0:0:
384,344,196399,1,6,0:0:0:0:
128,352,196996,1,6,0:0:0:0:
120,88,197593,1,6,0:0:0:0:
352,192,198190,6,0,B|328:256|256:288|184:256|160:192,1,249.600005950928,6|2,0:0|0:0,0:0:0:0:
192,64,199085,1,0,0:0:0:0:
320,64,199384,1,2,0:0:0:0:
480,192,200578,6,0,B|480:288|400:344|304:320,2,249.600005950928,4|8|2,0:0|0:0|0:0,0:0:0:0:
360,168,202070,1,0,0:0:0:0:
256,232,202369,1,8,0:0:0:0:
152,168,202667,1,0,0:0:0:0:
32,192,202966,5,4,0:0:0:0:
256,48,203563,1,2,0:0:0:0:
480,192,204160,1,4,0:0:0:0:
256,336,204757,1,2,0:0:0:0:
80,312,205354,5,0,0:0:0:0:
152,120,205951,1,6,0:0:0:0:
360,120,206539,1,6,0:0:0:0:
432,312,207127,1,2,0:0:0:0:
328,192,207715,6,0,B|328:280|256:301|184:280|184:192,2,249.600005950928,6|2|2,0:0|0:0|0:0,0:0:0:0:
256,88,209185,1,0,0:0:0:0:
168,320,210082,6,0,B|192:368|256:376|320:368|344:320,2,208,6|6|6,0:0|0:0|0:0,0:0:0:0:
256,192,214691,12,4,219872,0:0:0:0:
