osu file format v9

[General]
AudioFilename: 16 - Abba - Dancing Queen.mp3
AudioLeadIn: 3000
PreviewTime: 85015
Countdown: 1
SampleSet: Soft
StackLeniency: 0.6
Mode: 0
LetterboxInBreaks: 1

[Editor]
Bookmarks: 44111,46197,103379,106067,113391,114286,175043,177582,192967,196551
DistanceSpacing: 0.8
BeatDivisor: 4
GridSize: 8

[Metadata]
Title:Dancing Queen
Artist:ABBA
Creator:Aglezabad
Version:Intense
Source:
Tags:Arrival Pop 70s

[Difficulty]
HPDrainRate:5
CircleSize:5
OverallDifficulty:6
ApproachRate:5
SliderMultiplier:1.4
SliderTickRate:2

[Events]
//Background and Video events
Video,-1217,"Abba - Dancing Queen.avi"
0,0,"abba.jpeg"
//Break Periods
2,8943,9316
2,37907,38133
2,50731,52467
2,78653,79940
2,94181,95469
2,124343,131303
2,143155,151608
//Storyboard Layer 0 (Background)
//Storyboard Layer 1 (Fail)
//Storyboard Layer 2 (Pass)
//Storyboard Layer 3 (Foreground)
//Storyboard Sound Samples
//Background Colour Transformations
3,100,163,162,255

[TimingPoints]
960,597.250606060604,4,2,0,60,1,0

[Colours]
Combo1 : 138,253,221
Combo2 : 228,253,179
Combo3 : 137,254,146
Combo4 : 135,255,172
Combo5 : 136,181,255

[HitObjects]
257,194,960,1,8
368,189,1557,2,8,B|369:117|369:117,2,70,8|2|8
334,233,2453,1,2
294,272,2751,2,8,B|293:356|293:356,2,70,8|2|8
238,268,3647,1,2
182,264,3946,2,8,B|119:343|119:343,2,70,8|2|8
143,223,4842,1,2
107,179,5140,2,8,B|38:131|82:42,1,140
131,49,6036,1,2
183,67,6335,2,8,B|255:108|282:170,1,140
296,247,7380,1,4
296,247,7529,1,4
212,249,7977,1,4
212,249,8127,1,4
127,249,8574,1,4
127,249,8724,1,4
456,183,10516,6,8,B|457:255|457:255,2,70,8|2|8
407,155,11411,1,2
362,121,11710,2,8,B|361:37|361:37,2,70,8|2|8
305,122,12606,1,2
248,123,12905,2,8,B|185:44|185:44,2,70,8|2|8
194,137,13800,1,2
142,159,14099,2,8,B|84:213|167:296,1,140
192,322,14995,1,2
242,298,15294,2,8,B|308:243|399:252,1,140
146,244,17085,5,2
146,132,17683,1,2
257,133,18280,1,10
369,133,18877,1,4
369,133,19176,1,4
369,133,19474,1,4
370,244,20072,1,2
299,330,20669,1,8
242,327,20967,1,8
165,245,21565,2,2,B|101:245|102:244,2,35
115,144,22461,1,2
182,54,23058,1,8
238,52,23356,1,8
331,112,23954,2,2,B|298:110|298:111,3,35
400,160,24999,5,2
438,200,25297,1,2
407,278,25745,1,2
360,309,26044,1,2
276,311,26492,1,2
191,309,26940,1,2
135,307,27239,2,2,B|59:297|54:189,1,140
148,144,28433,2,2,B|165:48|302:8|333:14,1,210
357,18,29628,1,10
472,24,30225,1,10
472,80,30523,2,8,B|495:191|389:287|389:287,1,210
280,344,32166,1,8
200,344,32614,1,8
144,344,32912,2,2,B|45:217,1,140,8|2
24,160,33958,1,2
24,160,34107,1,2
24,104,34406,1,2
104,104,34853,1,2
192,104,35301,2,2,B|259:82|342:179|310:291|214:307|214:307,2,280,2|2|6
42,343,39333,5,8
153,340,39930,1,8
320,341,40826,1,8
320,341,41125,1,8
410,274,41722,1,8
297,274,42319,1,8
156,276,43215,1,8
156,276,43514,1,8
56,224,44111,2,2,B|88:104|168:48|368:48|472:128|472:176,1,490
456,232,46649,2,2,B|416:213,5,35
376,192,47694,2,2,B|332:171,6,35
296,160,49038,2,0,B|211:114,2,70
328,120,49934,2,0,B|371:64,2,70
88,64,53667,5,8
144,64,53965,1,2
176,64,54115,1,8
232,64,54413,1,2
264,64,54563,1,8
320,64,54861,1,8
352,64,55011,1,2
504,192,56056,1,2
448,192,56354,1,2
416,192,56504,1,2
328,192,56952,1,2
160,192,57848,1,8
160,192,57998,1,2
160,248,58296,1,8
160,248,58445,1,2
160,336,58893,1,8
80,336,59341,1,6
314,192,60685,5,4
225,122,61282,1,4
176,190,61730,1,4
400,352,63223,5,2
400,296,63522,1,2
400,272,63671,1,2
400,216,63969,1,2
368,216,64119,1,2
312,216,64417,1,2
256,216,64716,1,2
144,216,65313,2,6,B|100:204|68:148|48:104|147:29|190:41|238:124,1,315,2|6
464,16,68001,5,2
464,72,68300,1,2
464,96,68449,1,2
464,152,68747,1,2
464,240,69195,1,2
464,296,69494,1,2
344,360,70241,2,2,B|80:368|232:80|40:112|-24:128,1,455,2|6
40,224,72779,1,8
40,280,73078,1,8
40,304,73227,1,8
72,352,73525,1,8
128,288,73973,1,8
128,256,74123,1,8
128,64,75168,5,2
208,64,75616,1,2
264,64,75914,2,2,B|406:63,1,140
488,64,76960,1,2
488,64,77109,1,2
488,120,77408,1,2
488,232,78005,1,2
440,304,78453,1,2
24,16,81140,5,8
96,56,81588,1,8
96,56,81887,1,8
176,56,82335,1,8
256,56,82783,1,8
256,56,83081,2,8,B|337:54|434:156|412:272|412:274,1,280
144,192,85769,1,8
200,128,86217,1,8
320,56,86964,1,8
400,136,87561,1,10
400,216,88009,2,10,B|220:349,1,210
144,272,89502,2,8,B|153:203|222:147,2,140
88,272,90995,1,2
88,160,91592,1,2
88,104,91891,1,2
168,104,92339,1,2
248,104,92787,2,2,B|324:110|386:183|380:258|330:318|330:317,1,280,2|6
119,272,96669,5,2
41,239,97117,1,2
93,221,97415,2,2,B|93:125|221:61|253:61,1,210,2|6
313,133,98909,1,2
311,245,99506,1,2
226,243,99954,1,2
114,239,100551,1,2
36,158,101148,1,2
36,158,101447,1,2
36,74,101895,1,2
120,72,102343,1,2
312,72,103388,2,0,B|416:72|480:80|480:240|408:264|288:264|208:200|112:200|32:256|32:336,1,630
56,328,106225,5,2
168,328,106822,1,8
168,272,107121,1,8
168,136,107867,2,2,B|232:136|231:135,3,35
248,168,108614,1,2
248,280,109211,1,8
296,312,109510,1,8
408,312,110107,2,2,B|472:312|471:313,3,35
432,208,111152,1,2
376,208,111451,1,2
296,208,111899,1,2
240,208,112197,1,2
160,208,112645,1,2
72,208,113093,1,2
50,149,113392,2,2,B|97:162|154:119|197:19|198:19,1,210
262,19,114586,2,2,B|269:120|412:217,1,245,2|6
397,241,115781,5,8
395,325,116378,1,8
344,328,116677,2,8,B|255:316|234:249|114:248,1,245,2|6
56,192,118170,1,10
137,197,118618,1,10
188,196,118916,2,2,B|247:180|270:129|292:90,1,140,0|4
324,27,119962,1,2
324,27,120111,1,2
379,89,120559,1,4
380,145,121007,1,4
256,192,121455,12,0,124143
255,191,132504,5,8
345,125,133101,1,8
345,125,133400,1,8
390,195,133997,1,8
390,195,134296,1,8
383,83,134744,6,0,B|241:2|107:111|235:186|104:328|64:328,1,455
181,306,137282,2,2,B|232:306,5,35
261,306,138327,2,2,B|305:306,6,35
272,221,139671,6,0,B|350:219|345:219,2,70
272,164,140567,2,0,B|271:92,3,70
189,56,142060,2,2,B|107:10|68:29|26:69|50:142,1,210,2|6
96,64,152810,5,2
160,64,153109,1,2
256,64,153557,1,2
352,64,154005,1,2
416,128,154453,1,2
384,192,154752,2,2,B|256:192|128:224|64:320,1,350,2|6
320,325,157588,5,2
387,274,158036,1,2
387,162,158634,1,8
319,72,159231,1,8
307,155,159679,2,2,B|91:284,1,245,0|4
94,196,161172,5,2
92,112,161620,1,2
175,106,162068,1,2
287,107,162665,2,2,B|352:151|362:259,1,175,2|2
340,258,163561,1,8
249,258,164009,1,8
165,260,164457,2,8,B|97:197,1,70,2|6
110,128,165203,1,4
110,128,165353,1,4
193,126,165801,1,4
193,126,165950,1,4
277,125,166398,1,4
277,125,166547,1,4
486,350,168190,5,2
373,348,168787,1,2
289,349,169235,2,2,B|134:228,1,175
90,147,170579,5,8
146,50,171176,1,8
230,51,171624,1,8
341,52,172221,1,8
444,93,172818,1,8
443,94,173117,1,8
443,177,173565,1,8
444,261,174013,1,8
264,344,175058,2,0,B|120:344|24:264|24:176|88:40|312:32,1,595
336,32,177895,5,2
448,32,178492,1,8
448,88,178791,1,8
445,176,179388,2,2,B|509:176|508:175,3,35
480,264,180284,1,2
384,320,180881,1,10
328,320,181180,1,10
311,232,181777,2,2,B|375:232|374:233,3,35
264,232,182673,1,2
208,232,182972,1,2
96,232,183569,1,2
72,184,183867,1,2
72,104,184315,1,2
152,72,184763,1,2
208,72,185062,2,2,B|260:126|248:238,1,175,2|6
185,318,186257,6,2,B|69:276|58:92,1,245,2|6
64,96,187451,1,8
144,96,187899,1,8
200,96,188198,2,8,B|207:183|74:313,1,245,8|4
168,320,189691,1,8
256,320,190139,1,8
256,232,190587,2,8,B|303:176|386:186,1,140,8|4
440,184,191482,1,2
440,152,191632,1,2
440,40,192229,1,8
360,40,192677,1,8
256,192,192976,12,0,196560
256,191,197604,5,2
144,192,198202,1,2
88,192,198500,1,4
88,192,198649,1,4
88,280,199097,1,4
88,280,199247,1,4
176,280,199695,1,4
176,280,199844,1,4
141,53,201038,1,2
141,53,201188,1,2
252,47,201785,1,8
336,48,202233,1,8
256,192,202532,12,4,204622
184,256,205219,1,8
88,192,205816,1,8
160,104,206414,1,8
256,160,207011,1,8
352,104,207608,1,2
408,168,208056,1,4
408,168,208205,1,4
352,232,208653,1,4
352,232,208803,1,4
280,280,209251,1,4
280,280,209400,1,4
256,192,209997,12,4,215969
