osu file format v14

[General]
AudioFilename: step.mp3
AudioLeadIn: 0
PreviewTime: 65402
Countdown: 0
SampleSet: Normal
StackLeniency: 0.7
Mode: 1
LetterboxInBreaks: 0
WidescreenStoryboard: 0

[Editor]
DistanceSpacing: 1.5
BeatDivisor: 8
GridSize: 32
TimelineZoom: 2.899999

[Metadata]
Title:Hop Step Adventure*
TitleUnicode:Hop Step Adventure☆
Artist:AAAA Chazuke
ArtistUnicode:ああああ茶漬け
Creator:TKS
Version:Special*
Source:VOEZ
Tags:Rayark 梅干茶漬け Umeboshi chiptune
BeatmapID:998269
BeatmapSetID:466471

[Difficulty]
HPDrainRate:6
CircleSize:5
OverallDifficulty:7
ApproachRate:5
SliderMultiplier:1.4
SliderTickRate:1

[Events]
//Background and Video events
0,0,"34359706.jpg",0,-110
//Break Periods
//Storyboard Layer 0 (Background)
//Storyboard Layer 1 (Fail)
//Storyboard Layer 2 (Pass)
//Storyboard Layer 3 (Foreground)
//Storyboard Sound Samples

[TimingPoints]
1290,322.58064516129,4,1,0,65,1,0
6451,-100,4,1,0,75,0,0
10886,-100,4,1,0,100,0,0
11531,-100,4,1,0,85,0,0
32177,-117.647058823529,4,1,0,70,0,0
36048,-83.3333333333333,4,1,0,100,0,0
37338,-100,4,1,0,85,0,0
63789,-153.846153846153,4,2,0,50,0,0
64031,-100,4,1,0,85,0,0
65806,-100,4,1,0,85,0,1
96773,-100,4,1,0,85,0,0
112177,-133.333333333333,4,1,0,65,0,0
113467,-66.6666666666667,4,1,0,85,0,0
114757,-25,4,3,0,5,0,0

[HitObjects]
256,192,1290,5,0,0:0:0:0:
256,192,1612,1,0,0:0:0:0:
256,192,1935,1,0,0:0:0:0:
256,192,2257,1,0,0:0:0:0:
256,192,2580,1,0,0:0:0:0:
256,192,2902,1,0,0:0:0:0:
256,192,3225,1,0,0:0:0:0:
256,192,3548,1,0,0:0:0:0:
256,192,3709,1,0,0:0:0:0:
256,192,3789,1,0,0:0:0:0:
256,192,3870,1,0,0:0:0:0:
256,192,4193,1,0,0:0:0:0:
256,192,4515,1,0,0:0:0:0:
256,192,4838,1,0,0:0:0:0:
256,192,5160,1,0,0:0:0:0:
256,192,5483,1,0,0:0:0:0:
256,192,5806,1,0,0:0:0:0:
256,192,5967,1,0,0:0:0:0:
256,192,6048,1,0,0:0:0:0:
256,192,6128,1,0,0:0:0:0:
256,192,6289,1,0,0:0:0:0:
256,192,6370,1,0,0:0:0:0:
256,192,6451,1,0,0:0:0:0:
256,192,6612,1,8,0:0:0:0:
256,192,6773,1,0,0:0:0:0:
256,192,6935,1,8,0:0:0:0:
256,192,7096,1,0,0:0:0:0:
256,192,7257,1,8,0:0:0:0:
256,192,7419,1,0,0:0:0:0:
256,192,7580,1,8,0:0:0:0:
256,192,7741,1,0,0:0:0:0:
256,192,7902,1,8,0:0:0:0:
256,192,8064,1,0,0:0:0:0:
256,192,8225,1,8,0:0:0:0:
256,192,8386,1,0,0:0:0:0:
256,192,8548,1,8,0:0:0:0:
256,192,8709,1,0,0:0:0:0:
256,192,8870,1,8,0:0:0:0:
256,192,8951,1,8,0:0:0:0:
256,192,9031,1,0,0:0:0:0:
256,192,9193,1,8,0:0:0:0:
256,192,9354,1,0,0:0:0:0:
256,192,9515,1,8,0:0:0:0:
256,192,9677,1,0,0:0:0:0:
256,192,9838,1,8,0:0:0:0:
256,192,9999,1,0,0:0:0:0:
256,192,10160,1,8,0:0:0:0:
256,192,10322,1,0,0:0:0:0:
256,192,10483,1,8,0:0:0:0:
256,192,10644,1,0,0:0:0:0:
256,192,10806,1,8,0:0:0:0:
256,192,10967,1,4,0:0:0:0:
256,192,11128,1,4,0:0:0:0:
256,192,11289,1,12,0:0:0:0:
256,192,11612,1,0,0:0:0:0:
256,192,11773,1,0,0:0:0:0:
256,192,11854,1,0,0:0:0:0:
256,192,11935,1,8,0:0:0:0:
256,192,12096,1,0,0:0:0:0:
256,192,12257,1,8,0:0:0:0:
256,192,12338,1,8,0:0:0:0:
256,192,12419,1,0,0:0:0:0:
256,192,12499,1,0,0:0:0:0:
256,192,12580,1,8,0:0:0:0:
256,192,12902,1,0,0:0:0:0:
256,192,13064,1,8,0:0:0:0:
256,192,13144,1,8,0:0:0:0:
256,192,13225,1,0,0:0:0:0:
256,192,13386,1,8,0:0:0:0:
256,192,13548,1,0,0:0:0:0:
256,192,13709,1,0,0:0:0:0:
256,192,13870,1,8,0:0:0:0:
256,192,14031,1,8,0:0:0:0:
256,192,14193,1,0,0:0:0:0:
256,192,14354,1,0,0:0:0:0:
256,192,14435,1,0,0:0:0:0:
256,192,14515,1,8,0:0:0:0:
256,192,14677,1,0,0:0:0:0:
256,192,14838,1,8,0:0:0:0:
256,192,14919,1,0,0:0:0:0:
256,192,14999,1,8,0:0:0:0:
256,192,15080,1,8,0:0:0:0:
256,192,15160,1,0,0:0:0:0:
256,192,15483,1,0,0:0:0:0:
256,192,15564,1,0,0:0:0:0:
256,192,15644,1,0,0:0:0:0:
256,192,15725,1,8,0:0:0:0:
256,192,15806,1,0,0:0:0:0:
256,192,15967,1,8,0:0:0:0:
256,192,16128,1,0,0:0:0:0:
256,192,16289,1,0,0:0:0:0:
256,192,16451,1,8,0:0:0:0:
256,192,16612,1,8,0:0:0:0:
256,192,16773,1,0,0:0:0:0:
256,192,16935,1,0,0:0:0:0:
256,192,17015,1,0,0:0:0:0:
256,192,17096,1,8,0:0:0:0:
256,192,17257,1,0,0:0:0:0:
256,192,17419,1,8,0:0:0:0:
256,192,17499,1,8,0:0:0:0:
256,192,17580,1,0,0:0:0:0:
256,192,17660,1,0,0:0:0:0:
256,192,17741,1,8,0:0:0:0:
256,192,18064,1,0,0:0:0:0:
256,192,18225,1,8,0:0:0:0:
256,192,18306,1,8,0:0:0:0:
256,192,18386,1,0,0:0:0:0:
256,192,18548,1,8,0:0:0:0:
256,192,18709,1,0,0:0:0:0:
256,192,18870,1,8,0:0:0:0:
256,192,19031,1,0,0:0:0:0:
256,192,19193,1,8,0:0:0:0:
256,192,19354,1,4,0:0:0:0:
256,192,19515,1,0,0:0:0:0:
256,192,19596,1,0,0:0:0:0:
256,192,19677,1,8,0:0:0:0:
256,192,19838,1,0,0:0:0:0:
256,192,19999,1,12,0:0:0:0:
256,192,20160,1,0,0:0:0:0:
256,192,20214,1,8,0:0:0:0:
256,192,20268,1,8,0:0:0:0:
256,192,20322,1,0,0:0:0:0:
256,192,20483,1,8,0:0:0:0:
256,192,20644,1,0,0:0:0:0:
256,192,20806,1,0,0:0:0:0:
256,192,20886,1,0,0:0:0:0:
256,192,20967,1,8,0:0:0:0:
256,192,21048,1,0,0:0:0:0:
256,192,21128,1,8,0:0:0:0:
256,192,21209,1,8,0:0:0:0:
256,192,21289,1,0,0:0:0:0:
256,192,21451,1,0,0:0:0:0:
256,192,21612,1,0,0:0:0:0:
256,192,21693,1,8,0:0:0:0:
256,192,21773,1,8,0:0:0:0:
256,192,21854,1,8,0:0:0:0:
256,192,21935,1,0,0:0:0:0:
256,192,22096,1,0,0:0:0:0:
256,192,22177,1,0,0:0:0:0:
256,192,22257,1,8,0:0:0:0:
256,192,22419,1,0,0:0:0:0:
256,192,22580,1,8,0:0:0:0:
256,192,22660,1,8,0:0:0:0:
256,192,22741,1,0,0:0:0:0:
256,192,22822,1,0,0:0:0:0:
256,192,22902,1,8,0:0:0:0:
256,192,23225,1,0,0:0:0:0:
256,192,23386,1,8,0:0:0:0:
256,192,23467,1,8,0:0:0:0:
256,192,23548,1,0,0:0:0:0:
256,192,23709,1,8,0:0:0:0:
256,192,23870,1,0,0:0:0:0:
256,192,24031,1,0,0:0:0:0:
256,192,24193,1,8,0:0:0:0:
256,192,24354,1,8,0:0:0:0:
256,192,24515,1,0,0:0:0:0:
256,192,24677,1,0,0:0:0:0:
256,192,24757,1,0,0:0:0:0:
256,192,24838,1,8,0:0:0:0:
256,192,24999,1,0,0:0:0:0:
256,192,25160,1,8,0:0:0:0:
256,192,25241,1,0,0:0:0:0:
256,192,25322,1,8,0:0:0:0:
256,192,25402,1,8,0:0:0:0:
256,192,25483,1,0,0:0:0:0:
256,192,25806,1,0,0:0:0:0:
256,192,25886,1,0,0:0:0:0:
256,192,25967,1,0,0:0:0:0:
256,192,26048,1,8,0:0:0:0:
256,192,26128,1,0,0:0:0:0:
256,192,26289,1,8,0:0:0:0:
256,192,26451,1,0,0:0:0:0:
256,192,26505,1,8,0:0:0:0:
256,192,26558,1,8,0:0:0:0:
256,192,26612,1,0,0:0:0:0:
256,192,26773,1,8,0:0:0:0:
256,192,26935,1,8,0:0:0:0:
256,192,27096,1,0,0:0:0:0:
256,192,27257,1,0,0:0:0:0:
256,192,27338,1,0,0:0:0:0:
256,192,27419,1,8,0:0:0:0:
256,192,27580,1,0,0:0:0:0:
256,192,27741,1,8,0:0:0:0:
256,192,27822,1,8,0:0:0:0:
256,192,27902,1,0,0:0:0:0:
256,192,27983,1,0,0:0:0:0:
256,192,28064,1,8,0:0:0:0:
256,192,28386,1,0,0:0:0:0:
256,192,28548,1,8,0:0:0:0:
256,192,28628,1,8,0:0:0:0:
256,192,28709,1,0,0:0:0:0:
256,192,28870,1,8,0:0:0:0:
256,192,29031,1,0,0:0:0:0:
256,192,29193,1,8,0:0:0:0:
256,192,29354,1,0,0:0:0:0:
256,192,29435,1,8,0:0:0:0:
256,192,29515,1,8,0:0:0:0:
256,192,29596,1,8,0:0:0:0:
256,192,29677,1,0,0:0:0:0:
256,192,29838,1,8,0:0:0:0:
256,192,29919,1,8,0:0:0:0:
256,192,29999,1,0,0:0:0:0:
256,192,30080,1,8,0:0:0:0:
256,192,30160,1,8,0:0:0:0:
256,192,30241,1,8,0:0:0:0:
256,192,30322,1,0,0:0:0:0:
256,192,30483,1,8,0:0:0:0:
256,192,30537,1,8,0:0:0:0:
256,192,30591,1,8,0:0:0:0:
256,192,30644,1,0,0:0:0:0:
256,192,30725,1,0,0:0:0:0:
256,192,30806,1,8,0:0:0:0:
256,192,30967,1,0,0:0:0:0:
256,192,31128,1,0,0:0:0:0:
256,192,31209,1,0,0:0:0:0:
256,192,31289,1,8,0:0:0:0:
256,192,31370,1,0,0:0:0:0:
256,192,31451,1,0,0:0:0:0:
256,192,31531,1,8,0:0:0:0:
256,192,31612,1,8,0:0:0:0:
256,192,31693,1,0,0:0:0:0:
256,192,31773,1,8,0:0:0:0:
256,192,31854,1,0,0:0:0:0:
256,192,31935,1,8,0:0:0:0:
256,192,32257,1,0,0:0:0:0:
256,192,32741,1,0,0:0:0:0:
256,192,32822,1,0,0:0:0:0:
256,192,32902,1,8,0:0:0:0:
256,192,33064,1,0,0:0:0:0:
256,192,33144,1,8,0:0:0:0:
256,192,33386,1,8,0:0:0:0:
256,192,33548,1,0,0:0:0:0:
256,192,33870,1,0,0:0:0:0:
256,192,34031,1,0,0:0:0:0:
256,192,34193,1,8,0:0:0:0:
256,192,34354,1,0,0:0:0:0:
256,192,34515,1,8,0:0:0:0:
256,192,34838,1,0,0:0:0:0:
256,192,35160,1,0,0:0:0:0:
256,192,35322,1,0,0:0:0:0:
256,192,35402,1,0,0:0:0:0:
256,192,35483,1,8,0:0:0:0:
256,192,35644,1,0,0:0:0:0:
256,192,35806,1,8,0:0:0:0:
256,192,35967,1,8,0:0:0:0:
256,192,36128,1,4,0:0:0:0:
256,192,36451,1,12,0:0:0:0:
256,192,36773,1,4,0:0:0:0:
256,192,37096,1,12,0:0:0:0:
256,192,37419,1,4,0:0:0:0:
256,192,37580,1,0,0:0:0:0:
256,192,37660,1,0,0:0:0:0:
256,192,37741,1,8,0:0:0:0:
256,192,37902,1,0,0:0:0:0:
256,192,37983,1,0,0:0:0:0:
256,192,38064,1,8,0:0:0:0:
256,192,38225,1,0,0:0:0:0:
256,192,38306,1,8,0:0:0:0:
256,192,38386,1,0,0:0:0:0:
256,192,38548,1,8,0:0:0:0:
256,192,38709,1,0,0:0:0:0:
256,192,38870,1,0,0:0:0:0:
256,192,38951,1,0,0:0:0:0:
256,192,39031,1,8,0:0:0:0:
256,192,39112,1,0,0:0:0:0:
256,192,39193,1,8,0:0:0:0:
256,192,39273,1,8,0:0:0:0:
256,192,39354,1,0,0:0:0:0:
256,192,39515,1,0,0:0:0:0:
256,192,39596,1,0,0:0:0:0:
256,192,39677,1,8,0:0:0:0:
256,192,39838,1,8,0:0:0:0:
256,192,39999,1,0,0:0:0:0:
256,192,40080,1,0,0:0:0:0:
256,192,40160,1,0,0:0:0:0:
256,192,40241,1,0,0:0:0:0:
256,192,40322,1,8,0:0:0:0:
256,192,40483,1,0,0:0:0:0:
256,192,40564,1,0,0:0:0:0:
256,192,40644,1,8,0:0:0:0:
256,192,40725,1,0,0:0:0:0:
256,192,40806,1,0,0:0:0:0:
256,192,40886,1,8,0:0:0:0:
256,192,40967,1,0,0:0:0:0:
256,192,41128,1,8,0:0:0:0:
256,192,41289,1,0,0:0:0:0:
256,192,41370,1,0,0:0:0:0:
256,192,41451,1,0,0:0:0:0:
256,192,41531,1,0,0:0:0:0:
256,192,41612,1,8,0:0:0:0:
256,192,41693,1,0,0:0:0:0:
256,192,41773,1,0,0:0:0:0:
256,192,41854,1,0,0:0:0:0:
256,192,41935,1,8,0:0:0:0:
256,192,41988,1,8,0:0:0:0:
256,192,42042,1,8,0:0:0:0:
256,192,42096,1,0,0:0:0:0:
256,192,42177,1,0,0:0:0:0:
256,192,42257,1,8,0:0:0:0:
256,192,42338,1,8,0:0:0:0:
256,192,42419,1,8,0:0:0:0:
256,192,42499,1,8,0:0:0:0:
256,192,42580,1,0,0:0:0:0:
256,192,42741,1,0,0:0:0:0:
256,192,42822,1,8,0:0:0:0:
256,192,42902,1,0,0:0:0:0:
256,192,43064,1,0,0:0:0:0:
256,192,43225,1,8,0:0:0:0:
256,192,43265,1,8,0:0:0:0:
256,192,43386,1,8,0:0:0:0:
256,192,43427,1,8,0:0:0:0:
256,192,43548,1,4,0:0:0:0:
256,192,43870,1,0,0:0:0:0:
256,192,44031,1,0,0:0:0:0:
256,192,44112,1,8,0:0:0:0:
256,192,44193,1,0,0:0:0:0:
256,192,44354,1,8,0:0:0:0:
256,192,44435,1,8,0:0:0:0:
256,192,44515,1,0,0:0:0:0:
256,192,44596,1,0,0:0:0:0:
256,192,44677,1,0,0:0:0:0:
256,192,44838,1,12,0:0:0:0:
256,192,45160,1,0,0:0:0:0:
256,192,45322,1,0,0:0:0:0:
256,192,45402,1,8,0:0:0:0:
256,192,45483,1,0,0:0:0:0:
256,192,45644,1,0,0:0:0:0:
256,192,45806,1,8,0:0:0:0:
256,192,45846,1,8,0:0:0:0:
256,192,45967,1,8,0:0:0:0:
256,192,46007,1,8,0:0:0:0:
256,192,46128,1,4,0:0:0:0:
256,192,46451,1,8,0:0:0:0:
256,192,46531,1,0,0:0:0:0:
256,192,46612,1,8,0:0:0:0:
256,192,46693,1,0,0:0:0:0:
256,192,46773,1,8,0:0:0:0:
256,192,46854,1,0,0:0:0:0:
256,192,46935,1,8,0:0:0:0:
256,192,47096,1,0,0:0:0:0:
256,192,47177,1,0,0:0:0:0:
256,192,47338,1,0,0:0:0:0:
256,192,47419,1,8,0:0:0:0:
256,192,47580,1,8,0:0:0:0:
256,192,47741,1,0,0:0:0:0:
256,192,47902,1,0,0:0:0:0:
256,192,47983,1,8,0:0:0:0:
256,192,48064,1,0,0:0:0:0:
256,192,48225,1,0,0:0:0:0:
256,192,48386,1,8,0:0:0:0:
256,192,48427,1,8,0:0:0:0:
256,192,48548,1,8,0:0:0:0:
256,192,48588,1,8,0:0:0:0:
256,192,48709,1,4,0:0:0:0:
256,192,49031,1,0,0:0:0:0:
256,192,49193,1,0,0:0:0:0:
256,192,49273,1,8,0:0:0:0:
256,192,49354,1,0,0:0:0:0:
256,192,49515,1,8,0:0:0:0:
256,192,49596,1,8,0:0:0:0:
256,192,49677,1,0,0:0:0:0:
256,192,49757,1,0,0:0:0:0:
256,192,49838,1,0,0:0:0:0:
256,192,49999,1,12,0:0:0:0:
256,192,50322,1,0,0:0:0:0:
256,192,50483,1,0,0:0:0:0:
256,192,50564,1,8,0:0:0:0:
256,192,50644,1,0,0:0:0:0:
256,192,50806,1,0,0:0:0:0:
256,192,50967,1,8,0:0:0:0:
256,192,51007,1,8,0:0:0:0:
256,192,51128,1,8,0:0:0:0:
256,192,51169,1,8,0:0:0:0:
256,192,51289,1,4,0:0:0:0:
256,192,51612,1,8,0:0:0:0:
256,192,51693,1,0,0:0:0:0:
256,192,51773,1,8,0:0:0:0:
256,192,51854,1,0,0:0:0:0:
256,192,51935,1,8,0:0:0:0:
256,192,52015,1,0,0:0:0:0:
256,192,52096,1,8,0:0:0:0:
256,192,52257,1,8,0:0:0:0:
256,192,52338,1,0,0:0:0:0:
256,192,52419,1,0,0:0:0:0:
256,192,52499,1,8,0:0:0:0:
256,192,52580,1,0,0:0:0:0:
256,192,52660,1,0,0:0:0:0:
256,192,52741,1,8,0:0:0:0:
256,192,52822,1,0,0:0:0:0:
256,192,52902,1,0,0:0:0:0:
256,192,53064,1,0,0:0:0:0:
256,192,53225,1,12,0:0:0:0:
256,192,53386,1,0,0:0:0:0:
256,192,53548,1,8,0:0:0:0:
256,192,53709,1,0,0:0:0:0:
256,192,53789,1,8,0:0:0:0:
256,192,53870,1,0,0:0:0:0:
256,192,53951,1,0,0:0:0:0:
256,192,54031,1,8,0:0:0:0:
256,192,54112,1,8,0:0:0:0:
256,192,54193,1,0,0:0:0:0:
256,192,54354,1,8,0:0:0:0:
256,192,54435,1,0,0:0:0:0:
256,192,54596,1,0,0:0:0:0:
256,192,54677,1,8,0:0:0:0:
256,192,54757,1,8,0:0:0:0:
256,192,54838,1,0,0:0:0:0:
256,192,54999,1,8,0:0:0:0:
256,192,55080,1,8,0:0:0:0:
256,192,55160,1,0,0:0:0:0:
256,192,55241,1,8,0:0:0:0:
256,192,55322,1,8,0:0:0:0:
256,192,55483,1,0,0:0:0:0:
256,192,55564,1,8,0:0:0:0:
256,192,55644,1,8,0:0:0:0:
256,192,55725,1,0,0:0:0:0:
256,192,55806,1,8,0:0:0:0:
256,192,55886,1,8,0:0:0:0:
256,192,55967,1,0,0:0:0:0:
256,192,56048,1,8,0:0:0:0:
256,192,56128,1,0,0:0:0:0:
256,192,56209,1,0,0:0:0:0:
256,192,56289,1,8,0:0:0:0:
256,192,56370,1,8,0:0:0:0:
256,192,56451,1,0,0:0:0:0:
256,192,56531,1,0,0:0:0:0:
256,192,56612,1,0,0:0:0:0:
256,192,56693,1,8,0:0:0:0:
256,192,56773,1,0,0:0:0:0:
256,192,56854,1,8,0:0:0:0:
256,192,56935,1,8,0:0:0:0:
256,192,57015,1,0,0:0:0:0:
256,192,57096,1,8,0:0:0:0:
256,192,57177,1,8,0:0:0:0:
256,192,57257,1,0,0:0:0:0:
256,192,57338,1,8,0:0:0:0:
256,192,57419,1,0,0:0:0:0:
256,192,57499,1,0,0:0:0:0:
256,192,57580,1,8,0:0:0:0:
256,192,57660,1,8,0:0:0:0:
256,192,57741,1,0,0:0:0:0:
256,192,57822,1,0,0:0:0:0:
256,192,57902,1,8,0:0:0:0:
256,192,58064,1,0,0:0:0:0:
256,192,58225,1,0,0:0:0:0:
256,192,58306,1,0,0:0:0:0:
256,192,58467,1,0,0:0:0:0:
256,192,58548,1,8,0:0:0:0:
256,192,58628,1,8,0:0:0:0:
256,192,58709,1,8,0:0:0:0:
256,192,58789,1,0,0:0:0:0:
256,192,58870,1,8,0:0:0:0:
256,192,58951,1,0,0:0:0:0:
256,192,59031,1,0,0:0:0:0:
256,192,59112,1,0,0:0:0:0:
256,192,59193,1,8,0:0:0:0:
256,192,59273,1,8,0:0:0:0:
256,192,59354,1,0,0:0:0:0:
256,192,59462,1,0,0:0:0:0:
256,192,59569,1,0,0:0:0:0:
256,192,59677,1,8,0:0:0:0:
256,192,59757,1,0,0:0:0:0:
256,192,59838,1,8,0:0:0:0:
256,192,59919,1,8,0:0:0:0:
256,192,59999,1,0,0:0:0:0:
256,192,60160,1,0,0:0:0:0:
256,192,60241,1,8,0:0:0:0:
256,192,60322,1,8,0:0:0:0:
256,192,60483,1,8,0:0:0:0:
256,192,60564,1,8,0:0:0:0:
256,192,60644,1,0,0:0:0:0:
256,192,60725,1,8,0:0:0:0:
256,192,60886,1,8,0:0:0:0:
256,192,60967,1,0,0:0:0:0:
256,192,61048,1,8,0:0:0:0:
256,192,61128,1,8,0:0:0:0:
256,192,61289,1,0,0:0:0:0:
256,192,61343,1,8,0:0:0:0:
256,192,61397,1,8,0:0:0:0:
256,192,61451,1,0,0:0:0:0:
256,192,61612,1,8,0:0:0:0:
256,192,61693,1,0,0:0:0:0:
256,192,61773,1,8,0:0:0:0:
256,192,61854,1,8,0:0:0:0:
256,192,61935,1,0,0:0:0:0:
256,192,62015,1,0,0:0:0:0:
256,192,62096,1,8,0:0:0:0:
256,192,62177,1,0,0:0:0:0:
256,192,62257,1,8,0:0:0:0:
256,192,62311,1,8,0:0:0:0:
256,192,62365,1,8,0:0:0:0:
256,192,62419,1,0,0:0:0:0:
256,192,62499,1,0,0:0:0:0:
256,192,62580,1,8,0:0:0:0:
256,192,62634,1,8,0:0:0:0:
256,192,62687,1,8,0:0:0:0:
256,192,62741,1,0,0:0:0:0:
256,192,62822,1,0,0:0:0:0:
256,192,62902,1,8,0:0:0:0:
256,192,62956,1,8,0:0:0:0:
256,192,63010,1,8,0:0:0:0:
256,192,63064,1,0,0:0:0:0:
256,192,63144,1,0,0:0:0:0:
256,192,63225,1,8,0:0:0:0:
256,192,63870,1,8,0:0:0:0:
256,192,63951,1,8,0:0:0:0:
256,192,64515,1,0,0:0:0:0:
256,192,64596,1,0,0:0:0:0:
256,192,64757,1,0,0:0:0:0:
256,192,64919,1,0,0:0:0:0:
256,192,65080,1,0,0:0:0:0:
256,192,65160,1,8,0:0:0:0:
256,192,65322,1,8,0:0:0:0:
256,192,65483,1,0,0:0:0:0:
256,192,65564,1,0,0:0:0:0:
256,192,65644,1,8,0:0:0:0:
256,192,65725,1,8,0:0:0:0:
256,192,65806,1,0,0:0:0:0:
256,192,65967,1,0,0:0:0:0:
256,192,66048,1,0,0:0:0:0:
256,192,66128,1,8,0:0:0:0:
256,192,66289,1,0,0:0:0:0:
256,192,66370,1,8,0:0:0:0:
256,192,66451,1,0,0:0:0:0:
256,192,66612,1,0,0:0:0:0:
256,192,66773,1,8,0:0:0:0:
256,192,66854,1,0,0:0:0:0:
256,192,66935,1,8,0:0:0:0:
256,192,67015,1,8,0:0:0:0:
256,192,67096,1,0,0:0:0:0:
256,192,67257,1,8,0:0:0:0:
256,192,67338,1,0,0:0:0:0:
256,192,67499,1,0,0:0:0:0:
256,192,67580,1,8,0:0:0:0:
256,192,67741,1,0,0:0:0:0:
256,192,67902,1,8,0:0:0:0:
256,192,67983,1,0,0:0:0:0:
256,192,68064,1,0,0:0:0:0:
256,192,68144,1,0,0:0:0:0:
256,192,68225,1,8,0:0:0:0:
256,192,68306,1,8,0:0:0:0:
256,192,68386,1,0,0:0:0:0:
256,192,68548,1,0,0:0:0:0:
256,192,68628,1,0,0:0:0:0:
256,192,68709,1,8,0:0:0:0:
256,192,68870,1,8,0:0:0:0:
256,192,68951,1,8,0:0:0:0:
256,192,69031,1,0,0:0:0:0:
256,192,69112,1,0,0:0:0:0:
256,192,69193,1,0,0:0:0:0:
256,192,69354,1,8,0:0:0:0:
256,192,69515,1,0,0:0:0:0:
256,192,69596,1,0,0:0:0:0:
256,192,69677,1,8,0:0:0:0:
256,192,69838,1,0,0:0:0:0:
256,192,69919,1,8,0:0:0:0:
256,192,69999,1,0,0:0:0:0:
256,192,70080,1,0,0:0:0:0:
256,192,70160,1,8,0:0:0:0:
256,192,70322,1,8,0:0:0:0:
256,192,70402,1,8,0:0:0:0:
256,192,70483,1,0,0:0:0:0:
256,192,70564,1,0,0:0:0:0:
256,192,70644,1,8,0:0:0:0:
256,192,70725,1,0,0:0:0:0:
256,192,70806,1,8,0:0:0:0:
256,192,70886,1,8,0:0:0:0:
256,192,70967,1,0,0:0:0:0:
256,192,71128,1,0,0:0:0:0:
256,192,71209,1,0,0:0:0:0:
256,192,71289,1,8,0:0:0:0:
256,192,71451,1,8,0:0:0:0:
256,192,71531,1,8,0:0:0:0:
256,192,71612,1,0,0:0:0:0:
256,192,71773,1,0,0:0:0:0:
256,192,71935,1,8,0:0:0:0:
256,192,72096,1,0,0:0:0:0:
256,192,72177,1,0,0:0:0:0:
256,192,72257,1,8,0:0:0:0:
256,192,72419,1,0,0:0:0:0:
256,192,72499,1,0,0:0:0:0:
256,192,72580,1,8,0:0:0:0:
256,192,72741,1,0,0:0:0:0:
256,192,72902,1,8,0:0:0:0:
256,192,72983,1,8,0:0:0:0:
256,192,73064,1,8,0:0:0:0:
256,192,73144,1,8,0:0:0:0:
256,192,73225,1,0,0:0:0:0:
256,192,73306,1,0,0:0:0:0:
256,192,73386,1,0,0:0:0:0:
256,192,73467,1,0,0:0:0:0:
256,192,73548,1,8,0:0:0:0:
256,192,73709,1,0,0:0:0:0:
256,192,73789,1,0,0:0:0:0:
256,192,73870,1,8,0:0:0:0:
256,192,73924,1,0,0:0:0:0:
256,192,73978,1,0,0:0:0:0:
256,192,74031,1,8,0:0:0:0:
256,192,74085,1,0,0:0:0:0:
256,192,74139,1,0,0:0:0:0:
256,192,74193,1,8,0:0:0:0:
256,192,74273,1,0,0:0:0:0:
256,192,74354,1,8,0:0:0:0:
256,192,74435,1,8,0:0:0:0:
256,192,74515,1,0,0:0:0:0:
256,192,74596,1,8,0:0:0:0:
256,192,74677,1,0,0:0:0:0:
256,192,74757,1,0,0:0:0:0:
256,192,74838,1,8,0:0:0:0:
256,192,74999,1,0,0:0:0:0:
256,192,75080,1,0,0:0:0:0:
256,192,75160,1,8,0:0:0:0:
256,192,75241,1,0,0:0:0:0:
256,192,75322,1,8,0:0:0:0:
256,192,75402,1,8,0:0:0:0:
256,192,75483,1,0,0:0:0:0:
256,192,75564,1,8,0:0:0:0:
256,192,75644,1,0,0:0:0:0:
256,192,75725,1,0,0:0:0:0:
256,192,75806,1,8,0:0:0:0:
256,192,75886,1,0,0:0:0:0:
256,192,75967,1,8,0:0:0:0:
256,192,76048,1,8,0:0:0:0:
256,192,76128,1,0,0:0:0:0:
256,192,76289,1,0,0:0:0:0:
256,192,76370,1,0,0:0:0:0:
256,192,76451,1,8,0:0:0:0:
256,192,76531,1,8,0:0:0:0:
256,192,76612,1,0,0:0:0:0:
256,192,76773,1,0,0:0:0:0:
256,192,76935,1,0,0:0:0:0:
256,192,77096,1,8,0:0:0:0:
256,192,77177,1,0,0:0:0:0:
256,192,77257,1,8,0:0:0:0:
256,192,77338,1,8,0:0:0:0:
256,192,77419,1,0,0:0:0:0:
256,192,77580,1,8,0:0:0:0:
256,192,77660,1,0,0:0:0:0:
256,192,77822,1,0,0:0:0:0:
256,192,77902,1,8,0:0:0:0:
256,192,78064,1,0,0:0:0:0:
256,192,78225,1,8,0:0:0:0:
256,192,78306,1,0,0:0:0:0:
256,192,78386,1,8,0:0:0:0:
256,192,78467,1,8,0:0:0:0:
256,192,78548,1,0,0:0:0:0:
256,192,78628,1,0,0:0:0:0:
256,192,78709,1,8,0:0:0:0:
256,192,78870,1,8,0:0:0:0:
256,192,78951,1,8,0:0:0:0:
256,192,79112,1,0,0:0:0:0:
256,192,79193,1,8,0:0:0:0:
256,192,79273,1,0,0:0:0:0:
256,192,79354,1,8,0:0:0:0:
256,192,79435,1,0,0:0:0:0:
256,192,79515,1,0,0:0:0:0:
256,192,79677,1,8,0:0:0:0:
256,192,79838,1,0,0:0:0:0:
256,192,79919,1,0,0:0:0:0:
256,192,79999,1,8,0:0:0:0:
256,192,80160,1,0,0:0:0:0:
256,192,80241,1,8,0:0:0:0:
256,192,80322,1,0,0:0:0:0:
256,192,80402,1,0,0:0:0:0:
256,192,80483,1,8,0:0:0:0:
256,192,80644,1,8,0:0:0:0:
256,192,80725,1,8,0:0:0:0:
256,192,80806,1,0,0:0:0:0:
256,192,80886,1,8,0:0:0:0:
256,192,80967,1,0,0:0:0:0:
256,192,81048,1,8,0:0:0:0:
256,192,81128,1,8,0:0:0:0:
256,192,81209,1,8,0:0:0:0:
256,192,81289,1,0,0:0:0:0:
256,192,81451,1,0,0:0:0:0:
256,192,81531,1,0,0:0:0:0:
256,192,81612,1,8,0:0:0:0:
256,192,81693,1,0,0:0:0:0:
256,192,81773,1,8,0:0:0:0:
256,192,81935,1,0,0:0:0:0:
256,192,82096,1,0,0:0:0:0:
256,192,82177,1,0,0:0:0:0:
256,192,82257,1,0,0:0:0:0:
256,192,82338,1,8,0:0:0:0:
256,192,82419,1,8,0:0:0:0:
256,192,82499,1,8,0:0:0:0:
256,192,82580,1,0,0:0:0:0:
256,192,82741,1,0,0:0:0:0:
256,192,82822,1,0,0:0:0:0:
256,192,82902,1,8,0:0:0:0:
256,192,83064,1,0,0:0:0:0:
256,192,83225,1,8,0:0:0:0:
256,192,83306,1,8,0:0:0:0:
256,192,83386,1,8,0:0:0:0:
256,192,83467,1,0,0:0:0:0:
256,192,83548,1,8,0:0:0:0:
256,192,83628,1,8,0:0:0:0:
256,192,83709,1,0,0:0:0:0:
256,192,83789,1,0,0:0:0:0:
256,192,83870,1,8,0:0:0:0:
256,192,84031,1,8,0:0:0:0:
256,192,84112,1,0,0:0:0:0:
256,192,84193,1,8,0:0:0:0:
256,192,84246,1,0,0:0:0:0:
256,192,84300,1,0,0:0:0:0:
256,192,84354,1,8,0:0:0:0:
256,192,84408,1,0,0:0:0:0:
256,192,84462,1,0,0:0:0:0:
256,192,84515,1,8,0:0:0:0:
256,192,84596,1,0,0:0:0:0:
256,192,84677,1,0,0:0:0:0:
256,192,84757,1,8,0:0:0:0:
256,192,84838,1,0,0:0:0:0:
256,192,84919,1,8,0:0:0:0:
256,192,84999,1,8,0:0:0:0:
256,192,85080,1,8,0:0:0:0:
256,192,85160,1,0,0:0:0:0:
256,192,85322,1,0,0:0:0:0:
256,192,85402,1,0,0:0:0:0:
256,192,85483,1,8,0:0:0:0:
256,192,85564,1,0,0:0:0:0:
256,192,85644,1,8,0:0:0:0:
256,192,85725,1,8,0:0:0:0:
256,192,85806,1,0,0:0:0:0:
256,192,85886,1,8,0:0:0:0:
256,192,85967,1,8,0:0:0:0:
256,192,86048,1,0,0:0:0:0:
256,192,86128,1,8,0:0:0:0:
256,192,86209,1,0,0:0:0:0:
256,192,86289,1,8,0:0:0:0:
256,192,86370,1,8,0:0:0:0:
256,192,86451,1,0,0:0:0:0:
256,192,86612,1,0,0:0:0:0:
256,192,86693,1,0,0:0:0:0:
256,192,86773,1,8,0:0:0:0:
256,192,86935,1,8,0:0:0:0:
256,192,87015,1,0,0:0:0:0:
256,192,87096,1,8,0:0:0:0:
256,192,87257,1,0,0:0:0:0:
256,192,87338,1,0,0:0:0:0:
256,192,87419,1,8,0:0:0:0:
256,192,87499,1,0,0:0:0:0:
256,192,87580,1,8,0:0:0:0:
256,192,87660,1,8,0:0:0:0:
256,192,87741,1,8,0:0:0:0:
256,192,87902,1,0,0:0:0:0:
256,192,88064,1,8,0:0:0:0:
256,192,88225,1,8,0:0:0:0:
256,192,88386,1,8,0:0:0:0:
256,192,88467,1,8,0:0:0:0:
256,192,88548,1,8,0:0:0:0:
256,192,88628,1,8,0:0:0:0:
256,192,88709,1,0,0:0:0:0:
256,192,88789,1,0,0:0:0:0:
256,192,88870,1,0,0:0:0:0:
256,192,88951,1,0,0:0:0:0:
256,192,89031,1,8,0:0:0:0:
256,192,89193,1,0,0:0:0:0:
256,192,89273,1,0,0:0:0:0:
256,192,89354,1,8,0:0:0:0:
256,192,89515,1,8,0:0:0:0:
256,192,89596,1,8,0:0:0:0:
256,192,89677,1,0,0:0:0:0:
256,192,89838,1,0,0:0:0:0:
256,192,89919,1,0,0:0:0:0:
256,192,89999,1,8,0:0:0:0:
256,192,90080,1,8,0:0:0:0:
256,192,90160,1,0,0:0:0:0:
256,192,90322,1,8,0:0:0:0:
256,192,90402,1,0,0:0:0:0:
256,192,90483,1,0,0:0:0:0:
256,192,90564,1,8,0:0:0:0:
256,192,90644,1,0,0:0:0:0:
256,192,90725,1,0,0:0:0:0:
256,192,90806,1,8,0:0:0:0:
256,192,90886,1,0,0:0:0:0:
256,192,90967,1,8,0:0:0:0:
256,192,91048,1,8,0:0:0:0:
256,192,91128,1,0,0:0:0:0:
256,192,91209,1,0,0:0:0:0:
256,192,91289,1,8,0:0:0:0:
256,192,91451,1,8,0:0:0:0:
256,192,91612,1,4,0:0:0:0:
256,192,91773,1,4,0:0:0:0:
256,192,91935,1,8,0:0:0:0:
256,192,91988,1,8,0:0:0:0:
256,192,92042,1,8,0:0:0:0:
256,192,92096,1,8,0:0:0:0:
256,192,92257,1,4,0:0:0:0:
256,192,92419,1,4,0:0:0:0:
256,192,92580,1,8,0:0:0:0:
256,192,92634,1,8,0:0:0:0:
256,192,92687,1,8,0:0:0:0:
256,192,92741,1,8,0:0:0:0:
256,192,92902,1,4,0:0:0:0:
256,192,93064,1,4,0:0:0:0:
256,192,93225,1,8,0:0:0:0:
256,192,93279,1,8,0:0:0:0:
256,192,93333,1,8,0:0:0:0:
256,192,93386,1,8,0:0:0:0:
256,192,93548,1,4,0:0:0:0:
256,192,93709,1,4,0:0:0:0:
256,192,93870,1,8,0:0:0:0:
256,192,93924,1,8,0:0:0:0:
256,192,93978,1,8,0:0:0:0:
256,192,94031,1,8,0:0:0:0:
256,192,94193,1,4,0:0:0:0:
256,192,94354,1,0,0:0:0:0:
256,192,94435,1,0,0:0:0:0:
256,192,94515,1,8,0:0:0:0:
256,192,94596,1,0,0:0:0:0:
256,192,94677,1,0,0:0:0:0:
256,192,94757,1,0,0:0:0:0:
256,192,94838,1,8,0:0:0:0:
256,192,94919,1,0,0:0:0:0:
256,192,94999,1,0,0:0:0:0:
256,192,95080,1,0,0:0:0:0:
256,192,95160,1,8,0:0:0:0:
256,192,95241,1,0,0:0:0:0:
256,192,95322,1,0,0:0:0:0:
256,192,95402,1,0,0:0:0:0:
256,192,95483,1,8,0:0:0:0:
256,192,95564,1,8,0:0:0:0:
256,192,95644,1,0,0:0:0:0:
256,192,95725,1,0,0:0:0:0:
256,192,95806,1,8,0:0:0:0:
256,192,95886,1,8,0:0:0:0:
256,192,95967,1,0,0:0:0:0:
256,192,96048,1,0,0:0:0:0:
256,192,96128,1,8,0:0:0:0:
256,192,96182,1,8,0:0:0:0:
256,192,96236,1,8,0:0:0:0:
256,192,96289,1,0,0:0:0:0:
256,192,96370,1,0,0:0:0:0:
256,192,96451,1,8,0:0:0:0:
256,192,96531,1,0,0:0:0:0:
256,192,96612,1,8,0:0:0:0:
256,192,96666,1,8,0:0:0:0:
256,192,96720,1,8,0:0:0:0:
256,192,96773,1,0,0:0:0:0:
256,192,96935,1,8,0:0:0:0:
256,192,97096,1,0,0:0:0:0:
256,192,97257,1,8,0:0:0:0:
256,192,97419,1,0,0:0:0:0:
256,192,97580,1,8,0:0:0:0:
256,192,97741,1,0,0:0:0:0:
256,192,97902,1,8,0:0:0:0:
256,192,98064,1,0,0:0:0:0:
256,192,98225,1,8,0:0:0:0:
256,192,98386,1,0,0:0:0:0:
256,192,98548,1,8,0:0:0:0:
256,192,98709,1,0,0:0:0:0:
256,192,98870,1,8,0:0:0:0:
256,192,99031,1,0,0:0:0:0:
256,192,99193,1,8,0:0:0:0:
256,192,99273,1,8,0:0:0:0:
256,192,99354,1,0,0:0:0:0:
256,192,99515,1,8,0:0:0:0:
256,192,99677,1,0,0:0:0:0:
256,192,99838,1,8,0:0:0:0:
256,192,99999,1,0,0:0:0:0:
256,192,100160,1,8,0:0:0:0:
256,192,100322,1,0,0:0:0:0:
256,192,100483,1,8,0:0:0:0:
256,192,100644,1,0,0:0:0:0:
256,192,100806,1,8,0:0:0:0:
256,192,100967,1,0,0:0:0:0:
256,192,101128,1,8,0:0:0:0:
256,192,101289,1,4,0:0:0:0:
256,192,101451,1,4,0:0:0:0:
256,192,101612,1,12,0:0:0:0:
256,192,101935,1,0,0:0:0:0:
256,192,102096,1,0,0:0:0:0:
256,192,102177,1,0,0:0:0:0:
256,192,102257,1,8,0:0:0:0:
256,192,102419,1,0,0:0:0:0:
256,192,102580,1,8,0:0:0:0:
256,192,102660,1,8,0:0:0:0:
256,192,102741,1,0,0:0:0:0:
256,192,102822,1,0,0:0:0:0:
256,192,102902,1,8,0:0:0:0:
256,192,103225,1,0,0:0:0:0:
256,192,103386,1,8,0:0:0:0:
256,192,103467,1,8,0:0:0:0:
256,192,103548,1,0,0:0:0:0:
256,192,103709,1,8,0:0:0:0:
256,192,103870,1,0,0:0:0:0:
256,192,104031,1,0,0:0:0:0:
256,192,104193,1,8,0:0:0:0:
256,192,104354,1,8,0:0:0:0:
256,192,104515,1,0,0:0:0:0:
256,192,104677,1,0,0:0:0:0:
256,192,104757,1,0,0:0:0:0:
256,192,104838,1,8,0:0:0:0:
256,192,104999,1,0,0:0:0:0:
256,192,105160,1,8,0:0:0:0:
256,192,105241,1,0,0:0:0:0:
256,192,105322,1,8,0:0:0:0:
256,192,105402,1,8,0:0:0:0:
256,192,105483,1,0,0:0:0:0:
256,192,105806,1,0,0:0:0:0:
256,192,105886,1,0,0:0:0:0:
256,192,105967,1,0,0:0:0:0:
256,192,106048,1,8,0:0:0:0:
256,192,106128,1,0,0:0:0:0:
256,192,106289,1,8,0:0:0:0:
256,192,106451,1,0,0:0:0:0:
256,192,106505,1,8,0:0:0:0:
256,192,106558,1,8,0:0:0:0:
256,192,106612,1,0,0:0:0:0:
256,192,106773,1,8,0:0:0:0:
256,192,106935,1,8,0:0:0:0:
256,192,107096,1,0,0:0:0:0:
256,192,107257,1,0,0:0:0:0:
256,192,107338,1,0,0:0:0:0:
256,192,107419,1,8,0:0:0:0:
256,192,107580,1,0,0:0:0:0:
256,192,107741,1,8,0:0:0:0:
256,192,107822,1,8,0:0:0:0:
256,192,107902,1,0,0:0:0:0:
256,192,107983,1,0,0:0:0:0:
256,192,108064,1,8,0:0:0:0:
256,192,108386,1,0,0:0:0:0:
256,192,108548,1,8,0:0:0:0:
256,192,108628,1,8,0:0:0:0:
256,192,108709,1,0,0:0:0:0:
256,192,108870,1,8,0:0:0:0:
256,192,109031,1,0,0:0:0:0:
256,192,109193,1,8,0:0:0:0:
256,192,109354,1,0,0:0:0:0:
256,192,109435,1,8,0:0:0:0:
256,192,109515,1,8,0:0:0:0:
256,192,109596,1,8,0:0:0:0:
256,192,109677,1,0,0:0:0:0:
256,192,109838,1,8,0:0:0:0:
256,192,109919,1,8,0:0:0:0:
256,192,109999,1,0,0:0:0:0:
256,192,110080,1,8,0:0:0:0:
256,192,110160,1,8,0:0:0:0:
256,192,110241,1,8,0:0:0:0:
256,192,110322,1,0,0:0:0:0:
256,192,110483,1,8,0:0:0:0:
256,192,110537,1,8,0:0:0:0:
256,192,110591,1,8,0:0:0:0:
256,192,110644,1,0,0:0:0:0:
256,192,110725,1,0,0:0:0:0:
256,192,110806,1,8,0:0:0:0:
256,192,110967,1,0,0:0:0:0:
256,192,111128,1,0,0:0:0:0:
256,192,111209,1,0,0:0:0:0:
256,192,111289,1,8,0:0:0:0:
256,192,111370,1,0,0:0:0:0:
256,192,111451,1,0,0:0:0:0:
256,192,111531,1,8,0:0:0:0:
256,192,111612,1,8,0:0:0:0:
256,192,111693,1,0,0:0:0:0:
256,192,111773,1,8,0:0:0:0:
256,192,111854,1,0,0:0:0:0:
256,192,111935,1,8,0:0:0:0:
256,192,112257,1,0,0:0:0:0:
256,192,112419,1,0,0:0:0:0:
256,192,112499,1,0,0:0:0:0:
256,192,112580,1,0,0:0:0:0:
256,192,112741,1,0,0:0:0:0:
256,192,112822,1,0,0:0:0:0:
256,192,112902,1,0,0:0:0:0:
256,192,113064,1,0,0:0:0:0:
256,192,113225,1,0,0:0:0:0:
256,192,113548,1,8,0:0:0:0:
256,192,113709,1,0,0:0:0:0:
256,192,113789,1,0,0:0:0:0:
256,192,113870,1,8,0:0:0:0:
256,192,114031,1,0,0:0:0:0:
256,192,114193,1,12,0:0:0:0:
256,192,114354,1,12,0:0:0:0:
256,192,114515,1,12,0:0:0:0:
256,192,114838,12,12,118386,0:0:0:0:
