osu file format v5

[General]
AudioFilename: Climax Jump (Hip Hop Re-Mix).mp3
AudioLeadIn: 0
PreviewTime: -1
Countdown: 0
SampleSet: Soft
StackLeniency: 0.7
Mode: 0
LetterboxInBreaks: 1

[Metadata]
Title:Climax Jump HIPHOP ver.
Artist:AAA Den-O form
Creator:Ultimate Carl
Version:Plat Form (Easy)
Source:Kamen Rider Den-O
Tags:kamen mask rider den-o den o japanese rap hiphop hip hop tokusatsu remix

[Difficulty]
HPDrainRate:4
CircleSize:5
OverallDifficulty:4
SliderMultiplier:1.4
SliderTickRate:1

[Events]
//Background and Video events
1,0,"Sequence 01.avi"
0,0,"Gun Form.png"
//Break Periods
2,55843,80520
2,94318,109515
//Storyboard Layer 0 (Background)
//Storyboard Layer 1 (Failing)
//Storyboard Layer 2 (Passing)
//Storyboard Layer 3 (Foreground)
//Storyboard Sound Samples
//Background Colour Transformations
3,100,64,0,64

[TimingPoints]
2373.10092634989,479.923212286034,4,2,0,100,1,0

[Colours]
Combo1 : 100,28,138
Combo2 : 159,64,255
Combo3 : 46,46,46
Combo4 : 64,79,255

[HitObjects]
224,160,1533,1,0
288,224,1813,1,0
224,224,3452,5,0
288,160,3732,1,0
224,192,5372,5,0
288,192,5652,1,0
256,256,7332,5,0
256,128,7572,1,0
64,64,8292,5,0
128,320,8852,1,0
192,64,9411,1,0
192,128,9691,1,0
448,320,10211,5,0
384,64,10771,1,0
320,320,11371,1,0
320,256,11611,1,0
64,320,12131,5,0
128,64,12691,1,0
192,320,13291,1,0
192,256,13531,1,0
448,64,14051,5,0
384,320,14691,1,0
320,64,15211,1,0
320,128,15491,1,0
416,192,15810,6,0,B|96:192|96:192,1,315
160,160,17850,5,0
192,128,17970,1,0
256,192,18690,12,0,23369
128,192,23569,6,0,B|160:256|352:256|384:192|384:192,1,280
288,192,25289,6,0,B|160:160|96:64|96:0|256:0|288:96|192:160|32:192|0:192,1,490
256,192,28208,5,4
256,192,28448,1,4
256,192,28688,1,4
256,192,28928,1,4
256,192,29248,12,0,30608
64,128,31088,5,0
128,96,32288,5,0
192,160,32768,1,0
224,96,33488,5,0
288,160,33888,1,0
352,128,34927,6,0,B|512:192|512:320|352:384|160:384|0:320|0:192|160:128|160:128,1,723.333333333333
145,135,37487,6,0,B|192:96|320:96|352:128|352:128,1,210
288,160,38767,5,0
224,224,39967,1,0
224,160,41646,1,0
288,224,41966,1,0
224,160,42606,5,0
288,224,43486,1,0
224,224,44526,1,0
288,160,45406,1,0
224,192,46286,5,0
288,192,46466,1,0
192,160,48445,6,0,L|256:320|336:144|336:144,1,350
256,192,50365,12,0,52845
192,352,53244,6,0,L|192:192|192:192,1,140
256,192,54204,2,0,L|256:352,1,140
320,352,55164,2,0,L|320:192,1,140
256,192,81960,5,8
256,192,82360,1,8
416,224,82920,5,0
384,256,83080,1,0
352,224,84919,5,0
272,304,85719,1,0
128,176,86519,5,0
160,144,86759,1,0
256,192,89719,5,0
256,192,90199,1,0
64,320,90838,5,0
128,64,91478,1,0
192,320,91958,1,0
192,256,92278,1,0
448,64,92838,5,0
384,320,93398,1,0
320,64,93878,1,0
320,128,94198,1,0
288,192,110835,5,0
256,192,111235,1,0
224,192,111555,1,0
