osu file format v5

[General]
AudioFilename: Climax Jump (Hip Hop Re-Mix).mp3
AudioLeadIn: 0
PreviewTime: -1
Countdown: 0
SampleSet: Soft
StackLeniency: 0.7
Mode: 0
LetterboxInBreaks: 1

[Metadata]
Title:Climax Jump HIPHOP ver.
Artist:AAA Den-O form
Creator:Ultimate Carl
Version:Climax Form (Insane)
Source:Kamen Rider Den-O
Tags:kamen mask rider den-o den o japanese rap hiphop hip hop tokusatsu remix

[Difficulty]
HPDrainRate:6
CircleSize:6
OverallDifficulty:6
SliderMultiplier:1.4
SliderTickRate:2

[Events]
//Background and Video events
1,0,"Sequence 01.avi"
0,0,"Gun Form.png"
//Break Periods
2,56163,70082
2,94318,109515
//Storyboard Layer 0 (Background)
//Storyboard Layer 1 (Failing)
//Storyboard Layer 2 (Passing)
//Storyboard Layer 3 (Foreground)
//Storyboard Sound Samples
//Background Colour Transformations
3,100,64,0,64

[TimingPoints]
2373.10092634989,479.923212286034,4,2,0,100,1,0

[Colours]
Combo1 : 100,28,138
Combo2 : 159,64,255
Combo3 : 46,46,46
Combo4 : 64,79,255

[HitObjects]
176,112,1533,1,0
336,272,1813,1,0
176,272,3452,5,0
336,112,3732,1,0
176,192,5372,5,0
336,192,5652,1,0
256,304,7332,5,0
256,80,7572,1,0
16,16,8292,5,0
16,80,8532,1,0
128,368,8852,1,0
128,304,9092,1,0
240,16,9411,1,0
240,80,9691,1,0
496,368,10211,5,0
496,304,10411,1,0
384,16,10771,1,0
384,80,11011,1,0
272,368,11371,1,0
272,304,11611,1,0
16,16,12131,5,0
16,80,12331,1,0
128,368,12691,1,0
128,304,12931,1,0
240,16,13291,1,0
240,80,13531,1,0
496,368,14051,5,0
496,304,14251,1,0
384,16,14691,1,0
384,80,14851,1,0
272,368,15211,1,0
272,304,15491,1,0
96,192,15730,6,0,B|416:192|416:192,1,303.333333333333
416,192,17650,5,0
336,144,17890,1,0
288,96,18010,1,0
256,192,18690,12,0,23249
128,192,23569,6,0,B|160:256|352:256|384:192|384:192,1,280
384,192,24609,5,0
352,192,24849,1,0
320,192,25089,1,0
288,192,25329,2,0,B|160:160|96:64|96:0|256:0|288:96|192:160|32:192|0:192,1,513.333333333333
224,144,27489,5,2
288,144,27729,1,2
224,144,27809,1,2
256,192,28208,5,4
256,192,28448,1,4
256,192,28688,1,4
256,192,28928,1,4
256,192,29248,12,0,30848
64,128,31088,5,0
96,160,31168,1,0
128,192,31408,1,0
160,224,31648,1,0
192,256,31888,1,0
128,96,32288,5,0
160,128,32528,1,0
192,160,32768,1,0
224,192,33008,1,0
224,96,33488,5,0
256,128,33568,1,0
288,160,33888,1,0
320,96,34687,5,0
352,128,34927,2,0,B|512:192|512:320|352:384|160:384|0:320|0:192|160:128|160:128,1,723.333333333333
145,135,37487,6,0,B|192:96|320:96|352:128|352:128,1,210
512,0,38767,5,0
512,0,38847,1,0
512,0,38927,1,0
0,384,39967,5,0
0,384,40207,1,0
0,384,40367,1,0
176,112,41646,1,0
336,272,41966,1,0
0,0,42606,5,0
0,0,42766,1,0
0,0,42926,1,0
512,384,43246,5,0
512,384,43486,1,0
0,384,44286,5,0
0,384,44526,1,0
480,32,45006,5,0
480,32,45166,1,0
480,32,45406,1,0
224,80,46226,5,0
240,80,46326,1,0
272,80,46446,1,0
288,160,47645,5,0
256,160,47885,1,0
224,160,48125,1,0
192,160,48445,2,0,L|256:320|336:144|336:144,1,350
256,192,50365,12,0,52845
96,352,53244,5,0
96,256,53724,2,0,L|96:192,1,46.6666666666667
256,192,54204,1,0
256,288,54684,2,0,L|256:352,1,46.6666666666667
416,352,55164,1,0
416,288,55644,2,0,L|416:192,1,93.3333333333333
240,192,71402,5,8
272,192,71562,1,8
240,192,71801,1,8
272,192,72041,1,8
240,192,72281,1,8
272,192,72601,1,8
240,192,72841,1,8
272,192,73081,1,8
240,192,73321,1,8
272,192,73801,1,8
240,192,73961,1,8
272,192,74201,1,8
272,192,75001,5,8
240,192,75241,1,8
272,192,75641,1,8
240,192,75801,1,8
272,192,76121,1,8
240,192,76441,1,8
272,192,76681,1,8
240,192,76921,1,8
272,192,77161,1,8
240,192,77641,1,8
272,192,78120,1,8
240,192,78600,1,8
256,192,78920,12,0,81640
0,0,81960,5,0
512,384,82280,1,0
416,224,82920,5,0
384,256,83080,1,0
336,304,83560,1,0
336,304,83800,1,0
352,224,84919,5,0
320,256,85319,1,0
304,272,85479,1,0
272,304,85719,1,0
128,176,86519,5,0
144,160,86679,1,0
160,144,86759,1,0
176,128,87159,2,0,B|256:64|256:192|352:128|352:128,1,186.666666666667
256,128,88759,5,0
256,256,89239,1,0
256,192,89639,5,0
256,192,90119,1,0
16,368,90838,5,0
16,304,91078,1,0
128,16,91478,1,0
128,80,91718,1,0
240,368,92038,1,0
240,304,92278,1,0
496,16,92758,5,0
496,80,92998,1,0
384,368,93398,1,0
384,304,93638,1,0
272,16,93878,1,0
272,80,94118,1,0
272,192,110835,5,0
272,192,110915,1,0
256,192,111235,1,0
256,192,111315,1,0
240,192,111555,1,0
240,192,111635,1,0
