osu file format v5

[General]
AudioFilename: World_Destruction_-_ZERO (TV Size).mp3
AudioLeadIn: 1963
PreviewTime: -1
Countdown: 0
SampleSet: Soft
StackLeniency: 0.4
Mode: 0
LetterboxInBreaks: 1
EditorBookmarks: 420,14593,64553,68726,70281,72407

[Metadata]
Title:Zero
Artist:AAA
Creator:Rampage202
Version:Normal+
Source:
Tags:

[Difficulty]
HPDrainRate:7
CircleSize:5
OverallDifficulty:7
SliderMultiplier:1.3
SliderTickRate:0.5

[Events]
//Background and Video events
1,10,"AAA - Zero.avi"
//Break Periods
2,7352,13779
//Storyboard Layer 0 (Background)
//Storyboard Layer 1 (Failing)
//Storyboard Layer 2 (Passing)
//Storyboard Layer 3 (Foreground)
//Storyboard Sound Samples
//Background Colour Transformations
3,100,0,0,0

[TimingPoints]
657,472.432057999999,4,2,0,100,1
15700,472.432058,4,1,0,100,1

[HitObjects]
96,287,657,2,0,B|96:141,1,130
96,143,1247,1,0
159,40,1601,6,0,B|307:40,1,130
306,39,2192,1,4
407,128,2546,6,0,B|406:272,1,130
405,272,3137,1,4
273,255,3432,5,4
275,171,3845,1,4
273,166,3964,1,4
272,164,4082,1,4
265,120,4318,6,4,B|200:-30|197:103|172:148|143:108,1,195
202,208,5263,6,2,B|54:187|164:160|216:130|136:105,1,162.5
229,210,6208,6,4,B|325:146|261:167|193:122|319:84,1,178.75
352,86,7152,5,0
254,54,14829,5,0
257,59,14948,1,0
260,61,15066,1,0
263,64,15184,1,0
264,65,15302,1,0
264,67,15420,1,0
382,64,15995,6,4,B|382:133,1,65
338,106,16467,1,2
294,117,16703,2,4,B|294:43,1,65
245,54,17428,1,0
194,54,17664,1,0
143,56,17900,1,0
140,60,18018,1,4
121,105,18239,1,0
128,113,18357,1,0
163,147,18534,1,0
198,176,18766,1,2
231,205,19003,1,0
267,232,19239,1,4
314,238,19479,6,0,B|405:238,1,87.5
401,238,19951,1,4
401,238,20188,2,0,B|401:152,1,75
401,163,20719,2,0,B|359:212|278:216|227:337|162:225,1,275
136,180,22077,5,4
194,166,22314,2,4,B|336:124,1,130
275,94,23022,2,4,B|192:62,1,65
119,41,23495,6,0,B|119:111,1,65
120,131,23967,1,0
162,122,24199,1,2
199,111,24436,1,0
200,100,24593,1,0
202,53,24869,1,4
248,52,25183,1,0
296,52,25420,1,4
310,53,25577,1,0
347,52,25798,2,0,B|384:74,1,32.5
325,90,26089,1,0
295,135,26329,1,0
260,171,26565,1,2
227,204,26798,1,0
195,243,27038,6,0,B|93:246,1,97.5
73,246,27747,2,0,B|52:69|338:302|188:11|378:129,1,375
248,271,30109,5,0
284,211,30404,1,0
238,167,30640,1,0
230,112,31054,5,0
262,66,31290,1,0
311,58,31526,2,0,B|380:59,1,65
411,66,31998,1,0
410,80,32117,1,2
410,144,32506,5,0
408,192,32782,1,4
410,214,32943,1,4
410,240,33120,2,0,B|411:172|347:186,1,100
305,190,33711,1,0
260,210,33947,1,0
234,167,34183,1,0
284,254,34420,1,2
243,272,34656,1,0
331,231,34892,1,0
335,286,35128,6,0,B|270:299|245:269,1,81.25
223,266,35601,1,0
194,239,35778,2,0,B|140:202|224:128,1,130
259,133,36487,1,0
293,47,37018,2,2,B|197:47,3,87.5
245,77,38553,6,4,B|312:77,1,65
330,82,39042,1,4
366,85,39356,1,0
371,131,39616,2,2,B|251:142|351:169|388:193|332:230,1,162.5
321,247,40561,6,0,B|287:224,1,32.5
264,189,41034,1,0
230,172,41211,6,0,B|194:172,1,32.5
155,184,41565,1,0
194,226,41742,1,0
138,232,41979,6,2,B|63:199|97:279,1,100
63,306,42628,2,2,B|135:353|191:242,1,162.5
256,188,43750,5,2
205,115,44104,1,4
262,48,44459,1,2
230,132,45262,5,0
234,204,45498,1,4
308,129,45734,1,0
313,207,45892,2,4,B|359:254,1,62.5
328,264,46467,6,4,B|388:207,1,75
334,172,47057,6,0,B|335:82,1,87.5
256,192,48002,12,0,49006
366,59,49715,1,0
322,60,49907,1,4
315,123,50222,1,0
260,127,50458,1,4
258,179,50719,2,4,B|301:211,1,50
358,212,51191,1,4
396,210,51368,1,4
396,147,51604,1,4
300,151,52786,5,0
225,154,53022,1,4
297,221,53258,1,0
224,223,53494,2,4,B|178:270,1,62.5
124,267,53991,6,4,B|64:210,1,75
156,193,54640,6,0,B|156:100,1,81.25
256,192,55526,12,0,56530
86,50,57318,1,0
86,89,57510,1,4
87,127,57766,1,0
131,125,58002,1,4
213,124,58277,2,4,B|172:179,1,50
184,206,58750,1,4
148,208,58927,1,4
117,173,59163,1,4
98,140,59399,5,4
172,50,60144,5,2
206,90,60380,1,2
242,49,60640,1,4
281,91,60876,1,4
316,48,61112,1,0
349,93,61324,1,0
312,139,61561,1,4
270,179,61797,1,0
268,232,62190,1,4
256,192,62588,12,0,64419
165,205,64832,1,0
198,170,65025,1,4
227,207,65261,1,2
259,170,65498,1,4
283,208,65734,1,0
313,172,65970,1,4
335,211,66206,2,2,C|420:216|348:271|306:299,1,225
255,335,67938,6,0,C|219:318|196:304|182:295,1,75
217,269,68435,1,0
257,251,68671,1,4
284,241,68907,2,0,B|338:239,1,48.75
359,240,69277,2,0,C|416:214|382:133,1,146.25
256,192,70147,12,2,71978
366,142,72450,1,0
346,170,72663,1,0
316,202,72899,1,4
285,171,73135,1,0
259,198,73371,1,4
202,147,73608,1,0
145,198,73844,1,4
116,172,74045,1,4
94,150,74222,1,0
66,218,74552,1,4
47,302,75182,2,0,C|201:263|356:185|477:89,2,483.333333333333
256,192,82903,12,0,86446
274,68,87273,1,2
362,72,87450,2,0,B|361:215,1,137.5
278,214,88336,5,0
191,209,88513,2,2,C|192:69,1,137.5
276,51,89399,5,4
275,50,89576,1,2
