osu file format v5

[General]
AudioFilename: World_Destruction_-_ZERO (TV Size).mp3
AudioLeadIn: 1963
PreviewTime: -1
Countdown: 0
SampleSet: Soft
StackLeniency: 0.4
Mode: 0
LetterboxInBreaks: 1
EditorBookmarks: 420,14593,64553,68726,70281,72407

[Metadata]
Title:Zero
Artist:AAA
Creator:Rampage202
Version:Insane
Source:
Tags:

[Difficulty]
HPDrainRate:8
CircleSize:6
OverallDifficulty:9
SliderMultiplier:1.7
SliderTickRate:1

[Events]
//Background and Video events
1,10,"AAA - Zero.avi"
//Break Periods
//Storyboard Layer 0 (Background)
//Storyboard Layer 1 (Failing)
//Storyboard Layer 2 (Passing)
//Storyboard Layer 3 (Foreground)
//Storyboard Sound Samples
//Background Colour Transformations
3,100,0,0,0

[TimingPoints]
657,472.432057999999,4,2,0,100,1
15700,472.432058,4,1,0,100,1

[HitObjects]
105,160,538,1,0
111,170,657,1,0
181,157,893,1,0
255,136,1070,1,0
255,142,1188,1,4
384,225,1483,5,0
372,216,1601,1,0
317,228,1838,1,0
251,227,2015,1,0
254,221,2133,1,4
255,302,2428,5,0
245,290,2546,1,0
226,230,2782,1,0
223,152,2960,1,0
229,143,3078,1,4
249,84,3373,5,0
264,88,3491,1,0
292,149,3727,1,0
302,217,3905,1,0
295,222,4023,1,4
243,267,4200,5,0
237,262,4318,2,4,B|203:171|188:241|163:286|147:234|166:173,1,170
143,215,5145,5,2
142,201,5263,2,2,B|148:122|179:120|240:230|268:109,1,191.25
275,145,6089,5,4
297,150,6208,2,4,B|231:171|299:216|327:181|249:267,1,148.75
258,192,7034,5,0
252,192,7152,1,0
264,192,7271,1,0
256,248,7507,5,0
228,263,7684,2,0,B|102:308|171:227,1,127.5
192,193,8215,5,0
206,179,8393,1,0
229,140,8629,2,0,B|169:99|219:84,1,63.75
253,65,9042,1,4
273,55,9160,2,4,B|323:54|332:136,1,106.25
364,147,9751,1,0
378,160,9869,1,0
392,183,9987,2,0,B|336:230|312:198,1,85
291,174,10459,1,0
278,148,10578,2,0,B|212:135|234:233,1,106.25
265,241,11168,1,0
292,256,11286,2,0,B|346:312|381:211,1,127.5
381,197,11877,1,0
381,180,11995,2,0,B|365:115|269:162,1,127.5
217,133,12585,1,0
194,137,12704,2,0,B|114:216|261:205,1,148.75
293,207,13412,1,0
311,203,13530,1,0
337,199,13648,2,0,B|409:180|319:106,1,127.5
285,116,14239,1,0
228,115,14534,1,0
259,68,14829,5,0
259,68,14948,1,0
258,68,15066,1,0
260,68,15184,1,0
259,68,15302,1,0
261,67,15420,1,0
408,45,15759,5,0
408,80,15995,1,4
408,112,16172,1,4
353,90,16467,1,2
300,112,16703,2,4,B|302:14,1,85
245,54,17412,1,0
174,56,17648,1,0
101,54,17884,1,0
102,78,18003,1,4
170,88,18255,1,0
196,88,18357,1,2
260,88,18593,1,0
217,143,18770,1,2
304,143,19007,1,0
260,200,19243,1,4
249,259,19538,6,0,B|329:259,1,63.75
362,273,19951,1,2
401,238,20129,2,0,B|401:152,1,75
378,140,20660,1,0
343,134,20837,2,0,B|336:222|255:226|204:347|176:252,1,255
158,206,21664,1,2
157,176,21782,1,2
159,143,21900,1,2
214,145,22254,1,2
214,200,22373,1,2
266,202,22609,1,2
268,147,22727,1,2
311,178,23022,2,2,B|196:177,1,106.25
119,41,23495,6,0,B|117:140,1,85
143,127,23967,1,0
162,122,24203,1,2
199,111,24439,1,0
200,100,24558,1,0
202,53,24853,1,4
248,52,25148,1,0
296,52,25384,1,4
310,53,25562,1,0
361,54,25798,1,0
388,61,25916,1,0
333,98,26152,1,0
295,135,26388,1,0
260,171,26624,1,2
227,204,26802,1,0
195,243,27038,6,0,B|62:244,1,127.5
66,247,27687,2,0,B|52:69|338:302|188:11|378:129,1,382.5
335,161,28987,1,0
335,198,29105,1,0
169,199,29459,1,2
170,160,29577,1,2
252,206,29872,1,2
248,271,30109,5,0
284,211,30404,1,0
238,167,30640,1,0
258,103,31113,5,0
278,92,31349,1,0
311,84,31561,1,0
358,85,31797,1,4
409,87,32034,1,0
409,97,32191,1,2
410,144,32506,5,0
445,187,32782,1,4
443,213,32943,1,4
404,224,33120,2,0,B|405:156|341:170,1,100
324,173,33711,1,0
323,193,33947,1,0
323,213,34183,1,4
323,231,34420,1,2
322,248,34656,1,0
321,264,34892,1,0
320,286,35069,6,0,B|255:299|196:248,1,127.5
171,236,35601,1,0
140,214,35778,2,0,B|87:150|173:111,1,127.5
223,72,36487,5,0
284,36,36723,1,0
338,74,36959,1,0
283,133,37195,2,2,B|237:133,8,42.5
227,77,38612,6,4,B|292:77,1,63.75
330,82,39042,1,4
366,85,39356,1,0
371,131,39616,2,2,B|251:142|351:169|388:193|311:237,1,170
395,196,40325,1,0
339,225,40502,5,0
334,231,40679,1,0
287,203,40931,1,4
233,201,41167,1,0
224,202,41325,1,4
173,204,41561,1,0
151,204,41718,1,0
127,205,41994,6,2,B|52:172|86:280,1,106.25
96,266,42628,2,2,B|168:313|186:124,1,191.25
131,155,43455,1,0
256,188,43750,5,2
205,115,44104,1,4
262,48,44459,1,2
210,149,44931,5,0
271,161,45227,1,0
273,162,45345,1,0
274,168,45463,1,4
256,191,45699,1,0
271,221,45876,2,4,B|313:344,1,127.5
339,341,46408,1,4
365,343,46644,6,4,B|415:220,1,127.5
405,186,47234,6,0,B|275:96,1,148.75
196,169,47884,5,0
226,124,48120,1,0
303,156,48356,1,0
200,262,48711,1,0
160,259,48829,1,0
130,165,49065,1,0
128,126,49183,1,0
211,75,49419,1,0
312,49,49715,1,0
300,75,49907,1,4
288,100,50222,1,0
278,122,50458,1,4
265,147,50719,2,4,B|291:210,1,63.75
325,194,51191,1,4
352,213,51427,1,4
381,230,51545,1,4
289,283,51841,5,0
256,283,51959,1,0
165,265,52195,1,0
164,231,52313,1,0
167,199,52431,1,0
283,180,52844,5,0
246,179,53081,1,4
280,211,53258,1,0
244,214,53494,2,4,B|180:347,1,127.5
164,327,53991,6,4,B|135:188,1,127.5
117,186,54640,6,0,B|310:119,1,191.25
102,140,55384,5,4
102,108,55502,1,0
259,203,55797,1,0
367,109,56033,1,0
430,232,56270,1,0
482,151,56388,1,0
114,56,57318,1,0
131,72,57510,1,4
148,87,57766,1,0
169,110,58002,1,4
186,131,58277,2,4,B|104:176,1,85
143,189,58750,1,4
124,210,58927,1,4
106,231,59163,1,4
105,147,59459,1,4
154,38,60144,5,2
202,97,60380,1,2
247,37,60640,1,4
285,101,60876,1,4
331,35,61112,1,0
365,101,61324,1,0
328,156,61561,1,4
272,188,61797,1,0
271,263,62190,1,4
256,192,62588,12,0,64419
165,205,64832,1,0
198,170,65025,1,4
227,207,65261,1,2
259,170,65498,1,4
283,208,65734,1,0
313,172,65970,1,4
343,211,66191,1,2
285,259,66427,2,2,B|212:259,1,63.75
193,256,66958,5,2
170,181,67136,1,2
178,162,67254,2,2,B|233:162,4,42.5
255,335,67938,6,0,C|220:320|174:298|138:264,1,127.5
217,269,68553,1,0
257,251,68805,1,4
281,250,69041,1,4
318,248,69277,2,0,C|358:181|276:148,1,170
256,192,70147,12,2,71978
376,133,72391,1,4
346,170,72663,1,0
316,202,72899,1,4
285,171,73135,1,0
259,198,73371,1,4
202,147,73608,1,0
145,198,73844,1,4
116,172,74045,1,4
94,150,74222,1,0
66,218,74552,1,4
68,294,75226,1,0
120,294,75403,2,0,B|249:295,1,127.5
260,294,75994,1,0
261,246,76171,2,0,B|177:269|140:183|230:6|336:132|433:311|111:256|100:95|350:112,1,488.75
364,112,77706,2,0,B|440:72|488:244|360:375|325:322|248:35|375:71|532:193|551:326|449:348|224:288|-40:158|233:63|372:158|436:220|362:257|160:288|160:224,1,658.75
150,224,79773,2,0,B|86:185|126:133|199:144|251:173|290:247|212:355|45:322|2:241|12:112|73:32|168:12|280:36|280:37,1,616.25
256,192,82903,12,0,85265
256,192,85442,12,0,86033
256,192,86151,12,0,86564
289,98,86801,1,0
299,87,86919,1,0
337,50,87096,1,0
383,36,87332,1,2
385,74,87568,2,0,B|384:217,1,137.5
225,209,88218,5,0
202,199,88336,1,0
177,188,88513,2,2,C|178:48,1,137.5
243,48,89163,5,0
243,68,89281,1,2
243,92,89399,1,2
