osu file format v13

[General]
AudioFilename: We are!.mp3
AudioLeadIn: 2500
PreviewTime: 90621
Countdown: 0
SampleSet: Soft
StackLeniency: 0.4
Mode: 0
LetterboxInBreaks: 0
WidescreenStoryboard: 0

[Editor]
Bookmarks: 5119,163748,232938,239501
DistanceSpacing: 1.5
BeatDivisor: 4
GridSize: 4
TimelineZoom: 0.9

[Metadata]
Title:We are!
TitleUnicode:We are!
Artist:AAA
ArtistUnicode:AAA
Creator:Atsuro
Version:Hard Collab
Source:One piece
Tags:Kin
BeatmapID:525895
BeatmapSetID:222910

[Difficulty]
HPDrainRate:6
CircleSize:4
OverallDifficulty:6
ApproachRate:7.5
SliderMultiplier:1.49999990463257
SliderTickRate:1

[Events]
//Background and Video events
0,0,"One-Piece-Mugiwara-Team.jpg",0,0
//Break Periods
2,45069,49669
2,142194,145669
//Storyboard Layer 0 (Background)
//Storyboard Layer 1 (Fail)
//Storyboard Layer 2 (Pass)
//Storyboard Layer 3 (Foreground)
//Storyboard Sound Samples

[TimingPoints]
994,375,4,2,1,75,1,0
19556,-100,4,2,1,60,0,0
20494,-100,4,2,1,75,0,0
26025,-100,4,2,1,50,0,0
26494,-100,4,2,1,75,0,0
32119,-111.111111111111,4,2,1,75,0,0
37744,-111.111111111111,4,2,1,60,0,0
38494,-111.111111111111,4,2,1,75,0,0
50494,-125,4,2,1,70,0,0
61931,-125,4,2,1,60,0,0
62306,-125,4,2,1,70,0,0
75994,-153.846153846154,4,2,1,75,0,0
86494,-111.111111111111,4,2,1,75,0,0
89119,-111.111111111111,4,2,1,60,0,0
89494,-111.111111111111,4,2,1,75,0,0
90056,-99.9999999999999,4,2,1,75,0,0
90994,-99.9999999999999,4,2,1,75,0,1
96994,-99.9999999999999,4,2,1,75,0,1
116119,-99.9999999999999,4,2,1,60,0,1
116494,-99.9999999999999,4,2,1,75,0,1
117994,-111.111111111111,4,2,1,75,0,0
135994,-111.111111111111,4,2,1,75,0,0
141056,-111.111111111111,4,2,1,60,0,0
141994,-125,4,2,1,75,0,0
159525,-125,4,2,1,60,0,0
159994,-125,4,2,1,75,0,0
173494,-153.846153846154,4,2,1,75,0,0
183994,-111.111111111111,4,2,1,75,0,0
186244,-111.111111111111,4,2,1,60,0,0
186994,-111.111111111111,4,2,1,75,0,0
188494,-99.9999999999999,4,2,1,75,0,1
193931,-99.9999999999999,4,2,1,60,0,1
194494,-99.9999999999999,4,2,1,75,0,1
194499,-99.9999999999999,4,2,1,75,0,1
213056,-99.9999999999999,4,2,1,55,0,1
213994,-99.9999999999999,4,2,1,75,0,1
214556,-76.9230769230769,4,2,1,75,0,1
215119,-99.9999999999999,4,2,1,75,0,0
215494,-99.9999999999999,4,2,1,75,0,1
220931,-99.9999999999999,4,2,1,60,0,1
221494,-99.9999999999999,4,2,1,75,0,1
226556,-99.9999999999999,4,2,1,60,0,1
227494,-99.9999999999999,4,2,1,75,0,1
245494,-99.9999999999999,4,2,1,75,0,0

[Colours]
Combo1 : 244,250,33
Combo2 : 77,242,105
Combo3 : 64,191,253
Combo4 : 250,65,120

[HitObjects]
193,161,618,6,0,P|138:192|197:217,1,149.999990463257,2|6,0:0|0:0,0:0:0:0:
92,119,1369,1,0,0:0:0:0:
92,119,1556,2,0,P|65:193|110:276,1,149.999990463257,2|0,0:0|0:0,0:0:0:0:
162,309,2119,2,0,P|239:295|288:214,1,149.999990463257,2|0,0:0|0:0,0:0:0:0:
316,158,2681,6,0,P|334:126|363:103,1,74.9999952316285,2|0,0:0|0:0,0:0:0:0:
408,96,2962,1,0,0:0:0:0:
451,104,3056,2,0,P|480:126|498:159,1,74.9999952316285,2|0,0:0|0:0,0:0:0:0:
408,184,3431,1,2,0:0:0:0:
407,274,3619,2,0,P|388:306|359:329,1,74.9999952316285,2|0,0:0|0:0,0:0:0:0:
269,330,3994,6,0,P|240:306|206:193,1,149.999990463257,2|0,0:0|0:0,0:0:0:0:
163,122,4556,2,0,P|197:108|313:135,1,149.999990463257,2|0,0:0|0:0,0:0:0:0:
395,135,5119,2,0,P|388:171|307:258,1,149.999990463257,2|0,0:0|0:0,0:0:0:0:
316,254,5587,5,0,0:0:0:0:
316,254,5681,1,2,0:0:0:0:
236,213,5869,2,0,L|194:163,2,37.4999976158143,0|0|2,0:0|0:0|0:0,0:0:0:0:
236,300,6244,2,0,L|194:350,2,37.4999976158143,0|0|2,0:0|0:0|0:0,0:0:0:0:
156,254,6619,2,0,L|68:254,1,74.9999952316285,2|0,0:0|0:0,0:0:0:0:
60,172,6994,5,6,0:0:0:0:
112,100,7181,1,0,0:0:0:0:
168,172,7369,1,0,0:0:0:0:
248,216,7556,2,0,P|320:248|412:252,2,149.999990463257,2|0|4,0:0|0:0|0:0,0:0:0:0:
168,172,8494,6,0,P|132:136|120:96,1,74.9999952316285,0|6,0:0|0:0,0:0:0:0:
212,88,8869,2,0,P|225:38|253:8,1,74.9999952316285,0|6,0:0|0:0,0:0:0:0:
388,120,9431,1,0,0:0:0:0:
448,188,9619,2,0,P|458:249|421:354,1,149.999990463257,2|4,0:0|0:0,0:0:0:0:
279,243,10369,5,0,0:0:0:0:
279,243,10556,2,0,L|127:235,1,149.999990463257,2|0,0:0|0:0,0:0:0:0:
89,154,11119,2,0,L|238:161,1,149.999990463257,2|0,0:0|0:0,0:0:0:0:
238,161,11587,5,0,0:0:0:0:
238,161,11681,1,2,0:0:0:0:
199,80,11869,2,0,L|161:78,2,37.4999976158143,0|0|2,0:0|0:0|0:0,0:0:0:0:
268,22,12244,2,0,L|306:24,2,37.4999976158143,0|0|2,0:0|0:0|0:0,0:0:0:0:
199,80,12619,2,0,L|123:76,1,74.9999952316285,2|0,0:0|0:0,0:0:0:0:
92,160,12994,5,6,0:0:0:0:
156,224,13181,1,0,0:0:0:0:
224,164,13369,1,0,0:0:0:0:
292,104,13556,2,0,P|356:80|448:80,2,149.999990463257,2|0|6,0:0|0:0|0:0,0:0:0:0:
224,164,14494,6,0,L|252:260,1,74.9999952316285,0|6,0:0|0:0,0:0:0:0:
156,224,14869,2,0,L|156:320,1,74.9999952316285,0|6,0:0|0:0,0:0:0:0:
92,160,15431,1,0,0:0:0:0:
92,160,15619,2,0,L|64:256,1,74.9999952316285,2|0,0:0|0:0,0:0:0:0:
12,300,15994,6,0,P|48:320|112:316,1,74.9999952316285,6|0,0:0|0:0,0:0:0:0:
160,280,16369,1,0,0:0:0:0:
236,328,16556,2,0,P|275:316|318:268,1,74.9999952316285,6|0,0:0|0:0,0:0:0:0:
326,209,16931,1,0,0:0:0:0:
308,120,17119,2,0,P|278:97|242:87,1,74.9999952316285,6|0,0:0|0:0,0:0:0:0:
240,176,17494,5,0,0:0:0:0:
326,209,17681,2,0,P|355:231|391:241,1,74.9999952316285,6|0,0:0|0:0,0:0:0:0:
393,150,18056,1,0,0:0:0:0:
308,120,18244,1,6,0:0:0:0:
241,176,18431,1,0,0:0:0:0:
172,236,18619,1,0,0:0:0:0:
104,176,18806,1,6,0:0:0:0:
256,192,18900,12,4,20494,0:0:0:0:
232,111,20869,5,8,0:0:0:0:
231,111,21244,1,2,0:0:0:0:
191,30,21431,1,8,0:0:0:0:
134,99,21619,2,0,P|139:146|153:171,1,74.9999952316285,0|0,0:0|0:0,0:0:0:0:
92,237,21994,6,0,P|125:253|162:256,1,74.9999952316285,2|0,0:0|0:0,0:0:0:0:
232,199,22369,1,8,0:0:0:0:
300,257,22556,1,0,0:0:0:0:
337,147,22744,2,0,L|290:201,2,37.4999976158143,0|0|8,0:0|0:0|0:0,0:0:0:0:
342,61,23119,2,0,L|389:7,2,37.4999976158143,0|0|8,0:0|0:0|0:0,0:0:0:0:
264,93,23494,6,0,P|205:117|168:123,1,74.9999952316285,4|0,0:0|0:0,0:0:0:0:
104,115,23869,2,0,P|125:178|212:209,1,149.999990463257,8|2,0:0|0:0,0:0:0:0:
279,172,24431,1,8,0:0:0:0:
353,222,24619,1,0,0:0:0:0:
428,172,24806,1,0,0:0:0:0:
352,121,24994,6,0,P|322:100|295:74,1,74.9999952316285,2|0,0:0|0:0,0:0:0:0:
205,74,25369,2,0,P|178:100|147:121,1,74.9999952316285,8|0,0:0|0:0,0:0:0:0:
147,120,25650,1,0,0:0:0:0:
147,120,25744,1,2,0:0:0:0:
251,180,25931,2,0,L|251:118,4,37.4999976158143,0|8|8|8|8,0:0|0:0|0:0|0:0|0:0,0:0:0:0:
251,269,26494,6,0,L|251:349,1,74.9999952316285,4|0,0:0|0:0,0:0:0:0:
172,332,26869,2,0,P|124:304|80:216,1,149.999990463257,8|2,0:0|0:0,0:0:0:0:
72,132,27431,1,8,0:0:0:0:
140,72,27619,2,0,P|188:44|286:50,1,149.999990463257,0|2,0:0|0:0,0:0:0:0:
352,104,28181,5,0,0:0:0:0:
408,172,28369,1,8,0:0:0:0:
408,264,28556,1,0,0:0:0:0:
314,332,28744,2,0,L|352:332,2,37.4999976158143,0|0|8,0:0|0:0|0:0,0:0:0:0:
248,268,29119,2,0,L|210:268,2,37.4999976158143,0|0|8,0:0|0:0|0:0,0:0:0:0:
316,212,29494,6,0,L|420:212,1,74.9999952316285,4|0,0:0|0:0,0:0:0:0:
352,128,29869,2,0,L|202:128,1,149.999990463257,8|2,0:0|0:0,0:0:0:0:
158,52,30431,1,8,0:0:0:0:
110,128,30619,1,0,0:0:0:0:
158,200,30806,1,0,0:0:0:0:
256,212,30994,5,8,0:0:0:0:
340,84,31275,1,8,0:0:0:0:
172,80,31556,2,0,B|88:108|60:192|60:192|80:256,1,224.999985694886,12|2,0:0|0:0,0:0:0:0:
228,308,32494,6,0,L|197:219,1,67.4999936485293,4|0,0:0|0:0,0:0:0:0:
197,156,32869,2,0,P|256:127|314:156,1,134.999987297059,8|2,0:0|0:0,0:0:0:0:
306,244,33431,2,0,L|284:308,1,67.4999936485293,0|8,0:0|0:0,0:0:0:0:
202,341,33806,1,0,0:0:0:0:
119,305,33994,6,0,P|67:258|33:179,1,134.999987297059,2|8,0:0|0:0,0:0:0:0:
44,106,34556,2,0,L|2:67,2,33.7499968242647,0|0|2,0:0|0:0|0:0,0:0:0:0:
110,47,34931,2,0,L|96:-9,2,33.7499968242647,0|0|8,0:0|0:0|0:0,0:0:0:0:
130,132,35306,1,0,0:0:0:0:
176,208,35494,6,0,P|200:272|216:296,1,67.4999936485293,6|0,0:0|0:0,0:0:0:0:
256,340,35869,1,8,0:0:0:0:
312,271,36056,2,0,P|326:240|340:132,1,134.999987297059
256,120,36619,1,8,0:0:0:0:
256,120,36712,1,0,0:0:0:0:
256,120,36806,1,0,0:0:0:0:
208,196,36994,6,0,P|168:236|136:252,1,67.4999936485293,2|0,0:0|0:0,0:0:0:0:
89,281,37369,2,0,L|45:280,2,33.7499968242647,8|0|0,0:0|0:0|0:0,0:0:0:0:
160,320,37744,2,0,P|187:339|209:365,1,67.4999936485293,8|8,0:0|0:0,0:0:0:0:
256,284,38119,1,8,0:0:0:0:
304,364,38306,1,8,0:0:0:0:
352,280,38494,6,0,P|397:230|416:166,1,134.999987297059,4|8,0:0|0:0,0:0:0:0:
368,56,39244,2,0,P|416:44|464:52,2,67.4999936485293,2|0|8,0:0|0:0|0:0,0:0:0:0:
310,119,39806,1,0,0:0:0:0:
252,184,39994,6,0,P|204:220|124:240,1,134.999987297059,2|8,0:0|0:0,0:0:0:0:
44,244,40556,1,0,0:0:0:0:
100,312,40744,2,0,P|152:328|192:324,1,67.4999936485293,2|0,0:0|0:0,0:0:0:0:
258,253,41119,2,0,P|206:237|166:241,1,67.4999936485293,8|0,0:0|0:0,0:0:0:0:
113,197,41494,6,0,P|73:159|56:123,1,67.4999936485293,6|0,0:0|0:0,0:0:0:0:
106,13,41869,2,0,P|145:50|162:86,1,67.4999936485293,8|0,0:0|0:0,0:0:0:0:
200,130,42244,1,2,0:0:0:0:
256,198,42431,1,0,0:0:0:0:
312,130,42619,2,0,P|329:97|363:75,1,67.4999936485293,8|0,0:0|0:0,0:0:0:0:
395,158,42994,6,0,P|397:208|363:302,1,134.999987297059,6|8,0:0|0:0,0:0:0:0:
320,359,43556,1,0,0:0:0:0:
256,299,43744,1,2,0:0:0:0:
192,359,43931,1,0,0:0:0:0:
256,299,44119,2,0,L|256:211,1,67.4999936485293,8|0,0:0|0:0,0:0:0:0:
195,167,44494,6,0,P|257:142|320:174,1,134.999987297059,4|8,0:0|0:0,0:0:0:0:
312,92,50494,6,0,P|257:64|200:107,1,119.999992370606,4|8,0:0|0:0,0:0:0:0:
108,212,51244,1,2,0:0:0:0:
140,288,51431,1,0,0:0:0:0:
188,220,51619,2,0,B|232:260|300:268,1,119.999992370606,8|2,0:0|0:0,0:0:0:0:
381,151,52369,6,0,P|376:122|366:94,1,59.9999961853028,8|0,0:0|0:0,0:0:0:0:
236,141,52744,2,0,P|265:143|295:140,1,59.9999961853028,2|0,0:0|0:0,0:0:0:0:
167,94,53119,2,0,P|157:122|152:151,1,59.9999961853028,8|0,0:0|0:0,0:0:0:0:
69,176,53494,6,0,P|75:242|105:311,1,119.999992370606,2|8,0:0|0:0,0:0:0:0:
170,327,54056,1,0,0:0:0:0:
248,299,54244,2,0,P|268:242|271:220,1,59.9999961853028,2|0,0:0|0:0,0:0:0:0:
352,237,54619,2,0,P|351:177|335:119,1,119.999992370606,8|2,0:0|0:0,0:0:0:0:
175,67,55369,5,8,0:0:0:0:
90,62,55556,1,0,0:0:0:0:
97,145,55744,2,0,P|105:197|116:221,1,59.9999961853028,2|0,0:0|0:0,0:0:0:0:
48,263,56119,2,0,P|92:286|176:261,1,119.999992370606,8|2,0:0|0:0,0:0:0:0:
323,238,56869,6,0,L|394:211,1,59.9999961853028,8|0,0:0|0:0,0:0:0:0:
391,133,57244,2,0,L|319:159,1,59.9999961853028,2|0,0:0|0:0,0:0:0:0:
335,67,57619,2,0,L|465:19,1,119.999992370606,8|2,0:0|0:0,0:0:0:0:
391,133,58369,2,0,L|319:159,1,59.9999961853028,8|0,0:0|0:0,0:0:0:0:
254,126,58744,2,0,P|181:107|130:75,2,119.999992370606,2|8|2,0:0|0:0|0:0,0:0:0:0:
335,154,59681,5,0,0:0:0:0:
280,217,59869,2,0,P|236:253|209:267,1,59.9999961853028,8|0,0:0|0:0,0:0:0:0:
174,314,60244,1,2,0:0:0:0:
91,334,60431,1,0,0:0:0:0:
103,247,60619,1,8,0:0:0:0:
189,228,60806,1,0,0:0:0:0:
249,285,60994,6,0,P|296:312|373:331,1,119.999992370606,2|8,0:0|0:0,0:0:0:0:
439,182,61744,2,0,L|422:114,1,59.9999961853028,2|2,0:0|0:0,0:0:0:0:
421,113,62025,1,2,0:0:0:0:
418,103,62119,1,8,0:0:0:0:
415,93,62212,1,2,0:0:0:0:
412,83,62306,1,2,0:0:0:0:
334,140,62494,6,0,P|296:188|276:199,1,59.9999961853028,4|0,0:0|0:0,0:0:0:0:
235,243,62869,2,0,P|212:186|212:163,1,59.9999961853028,8|0,0:0|0:0,0:0:0:0:
195,105,63244,2,0,P|255:113|275:125,1,59.9999961853028,2|0,0:0|0:0,0:0:0:0:
289,36,63619,2,0,P|359:85|396:126,1,119.999992370606,8|2,0:0|0:0,0:0:0:0:
382,274,64369,6,0,P|339:315|320:328,1,59.9999961853028,8|0,0:0|0:0,0:0:0:0:
308,236,64744,1,2,0:0:0:0:
256,304,64931,1,0,0:0:0:0:
204,236,65119,1,8,0:0:0:0:
256,168,65306,1,0,0:0:0:0:
311,104,65494,6,0,P|257:82|202:103,1,119.999992370606,2|8,0:0|0:0,0:0:0:0:
302,283,66244,2,0,P|348:246|360:189,1,119.999992370606,2|8,0:0|0:0,0:0:0:0:
152,185,66994,6,0,P|161:243|205:283,1,119.999992370606,2|8,0:0|0:0,0:0:0:0:
256,124,67744,1,2,0:0:0:0:
256,40,67931,1,0,0:0:0:0:
184,80,68119,2,0,L|112:80,1,59.9999961853028,8|0,0:0|0:0,0:0:0:0:
64,140,68494,6,0,P|80:200|132:256,1,119.999992370606,4|8,0:0|0:0,0:0:0:0:
396,244,69244,2,0,P|433:197|448:140,1,119.999992370606,2|8,0:0|0:0,0:0:0:0:
256,114,69994,6,0,L|256:194,2,59.9999961853028,4|0|8,0:0|0:0|0:0,0:0:0:0:
202,49,70556,2,0,P|258:29|324:64,1,119.999992370606,4|0,0:0|0:0,0:0:0:0:
256,114,71119,1,8,0:0:0:0:
169,226,71494,6,0,P|196:258|231:281,1,59.9999961853028,4|0,0:0|0:0,0:0:0:0:
151,329,71869,2,0,P|189:347|230:353,1,59.9999961853028,8|0,0:0|0:0,0:0:0:0:
305,351,72244,2,0,P|334:343|361:329,1,59.9999961853028,2|0,0:0|0:0,0:0:0:0:
302,269,72619,2,0,P|325:249|343:226,1,59.9999961853028,8|0,0:0|0:0,0:0:0:0:
256,156,72994,6,0,L|256:76,2,59.9999961853028,4|0|8,0:0|0:0|0:0,0:0:0:0:
204,224,73556,2,0,P|172:256|96:278,1,119.999992370606,2|2,0:0|0:0,0:0:0:0:
101,278,74119,1,8,0:0:0:0:
280,260,74494,6,0,P|320:280|352:284,1,59.9999961853028,4|0,0:0|0:0,0:0:0:0:
412,248,74869,1,8,0:0:0:0:
476,196,75056,1,0,0:0:0:0:
412,136,75244,2,0,L|412:96,2,29.9999980926514,2|2|8,0:0|0:0|0:0,0:0:0:0:
348,192,75619,1,2,0:0:0:0:
348,192,75712,1,0,0:0:0:0:
348,192,75806,1,0,0:0:0:0:
284,248,75994,6,0,P|236:276|192:292,1,97.4999893379217,6|0,0:0|0:0,0:0:0:0:
144,232,76556,2,0,P|90:217|47:198,1,97.4999893379217,2|0,0:0|0:0,0:0:0:0:
36,124,77119,1,8,0:0:0:0:
180,68,77494,6,0,L|292:32,1,97.4999893379217,2|0,0:0|0:0,0:0:0:0:
300,112,78056,2,0,L|188:148,1,97.4999893379217,2|0,0:0|0:0,0:0:0:0:
236,216,78619,2,0,L|300:196,2,48.7499946689609,8|0|2,0:0|0:0|0:0,0:0:0:0:
392,232,79369,5,0,0:0:0:0:
392,232,79556,2,0,P|360:276|324:304,1,97.4999893379217,2|0,0:0|0:0,0:0:0:0:
248,304,80119,2,0,P|210:273|198:261,1,48.7499946689609,8|0,0:0|0:0,0:0:0:0:
132,276,80494,6,0,P|113:292|32:328,1,97.4999893379217,2|0,0:0|0:0,0:0:0:0:
204,228,81244,2,0,P|227:235|299:288,1,97.4999893379217,0|8,0:0|0:0,0:0:0:0:
128,188,81994,6,0,P|123:164|132:75,1,97.4999893379217,6|0,0:0|0:0,0:0:0:0:
204,92,82556,2,0,P|210:140|203:188,1,97.4999893379217,2|0,0:0|0:0,0:0:0:0:
168,260,83119,2,0,L|168:328,1,48.7499946689609,8|0,0:0|0:0,0:0:0:0:
244,328,83494,6,0,P|276:340|344:352,1,97.4999893379217,6|0,0:0|0:0,0:0:0:0:
444,300,84244,2,0,P|438:266|428:236,1,48.7499946689609,2|0,0:0|0:0,0:0:0:0:
467,84,84806,1,0,0:0:0:0:
467,84,84994,6,0,P|419:51|376:35,1,97.4999893379217,6|0,0:0|0:0,0:0:0:0:
317,79,85556,2,0,P|269:112|226:128,1,97.4999893379217,2|0,0:0|0:0,0:0:0:0:
232,126,86119,1,8,0:0:0:0:
44,144,86494,5,4,0:0:0:0:
68,236,86681,1,0,0:0:0:0:
144,292,86869,2,0,P|192:316|224:320,1,67.4999936485293,8|0,0:0|0:0,0:0:0:0:
306,318,87244,2,0,P|339:309|368:292,1,67.4999936485293,8|0,0:0|0:0,0:0:0:0:
444,236,87619,1,8,0:0:0:0:
468,144,87806,1,0,0:0:0:0:
424,60,87994,6,0,P|380:24|360:16,1,67.4999936485293,12|0,0:0|0:0,0:0:0:0:
340,108,88369,2,0,P|296:144|276:152,1,67.4999936485293,8|0,0:0|0:0,0:0:0:0:
192,148,88744,2,0,L|156:120,2,33.7499968242647,2|2|2,0:0|0:0|0:0,0:0:0:0:
236,232,89119,1,8,0:0:0:0:
236,248,89212,1,8,0:0:0:0:
236,265,89306,1,8,0:0:0:0:
236,282,89400,1,8,0:0:0:0:
236,299,89494,5,8,0:0:0:0:
384,192,89775,1,8,0:0:0:0:
210,102,90056,2,0,P|101:124|25:208,1,224.999985694886,8|2,0:0|0:0,0:0:0:0:
198,291,90994,6,0,P|269:321|342:281,1,149.999990463257,4|8,0:0|0:0,0:0:0:0:
266,231,91556,1,0,0:0:0:0:
223,152,91744,1,2,0:0:0:0:
313,153,91931,1,0,0:0:0:0:
267,75,92119,2,0,P|233:30|213:15,1,74.9999952316285,8|0,0:0|0:0,0:0:0:0:
160,86,92494,6,0,P|132:152|167:224,1,149.999990463257,2|8,0:0|0:0,0:0:0:0:
223,152,93056,1,0,0:0:0:0:
223,152,93150,1,0,0:0:0:0:
223,152,93244,1,2,0:0:0:0:
311,136,93431,1,0,0:0:0:0:
339,221,93619,1,8,0:0:0:0:
427,201,93806,1,0,0:0:0:0:
461,117,93994,6,0,P|423:44|351:31,1,149.999990463257,6|8,0:0|0:0,0:0:0:0:
372,118,94556,1,0,0:0:0:0:
326,195,94744,2,0,P|286:235|245:250,1,74.9999952316285,2|0,0:0|0:0,0:0:0:0:
270,243,95025,1,0,0:0:0:0:
270,243,95119,1,8,0:0:0:0:
200,300,95306,1,0,0:0:0:0:
129,244,95494,6,0,P|97:224|73:195,1,74.9999952316285,2|0,0:0|0:0,0:0:0:0:
85,105,95869,2,0,L|24:105,2,37.4999976158143,8|0|0,0:0|0:0|0:0,0:0:0:0:
212,107,96244,1,8,0:0:0:0:
212,107,96431,1,8,0:0:0:0:
212,107,96994,6,0,P|276:75|384:82,1,149.999990463257,4|8,0:0|0:0,0:0:0:0:
435,110,97556,1,0,0:0:0:0:
487,182,97744,2,0,P|482:253|471:287,2,74.9999952316285,2|0|8,0:0|0:0|0:0,0:0:0:0:
435,110,98306,1,0,0:0:0:0:
398,191,98494,6,0,P|357:237|272:278,1,149.999990463257,2|8,0:0|0:0,0:0:0:0:
188,271,99056,1,0,0:0:0:0:
115,217,99244,2,0,P|79:183|48:131,1,74.9999952316285,2|0,0:0|0:0,0:0:0:0:
86,44,99619,2,0,P|122:78|153:130,1,74.9999952316285,8|0,0:0|0:0,0:0:0:0:
235,230,99994,6,0,P|262:205|285:175,1,74.9999952316285,6|0,0:0|0:0,0:0:0:0:
264,57,100369,2,0,P|236:81|213:111,1,74.9999952316285,8|0,0:0|0:0,0:0:0:0:
235,230,100744,1,2,0:0:0:0:
301,291,100931,1,0,0:0:0:0:
364,227,101119,2,0,P|387:190|399:82,1,149.999990463257,8|2,0:0|0:0,0:0:0:0:
320,42,101681,5,0,0:0:0:0:
256,105,101869,2,0,P|223:144|184:173,1,74.9999952316285,8|0,0:0|0:0,0:0:0:0:
204,159,102150,1,0,0:0:0:0:
204,159,102244,1,2,0:0:0:0:
138,220,102431,2,0,L|80:220,2,37.4999976158143,0|0|8,0:0|0:0|0:0,0:0:0:0:
205,280,102806,1,8,0:0:0:0:
286,319,102994,6,0,P|339:338|452:333,1,149.999990463257,4|8,0:0|0:0,0:0:0:0:
433,220,103556,2,0,P|358:217|287:239,1,149.999990463257,2|2,0:0|0:0,0:0:0:0:
205,280,104119,2,0,L|112:280,1,74.9999952316285,8|0,0:0|0:0,0:0:0:0:
94,195,104494,6,0,P|138:136|201:96,1,149.999990463257,2|8,0:0|0:0,0:0:0:0:
308,97,105056,2,0,P|372:137|417:197,1,149.999990463257,2|2,0:0|0:0,0:0:0:0:
448,280,105619,2,0,P|408:292|360:296,1,74.9999952316285,8|0,0:0|0:0,0:0:0:0:
292,340,105994,5,6,0:0:0:0:
212,296,106181,1,0,0:0:0:0:
292,256,106369,1,8,0:0:0:0:
216,212,106556,1,2,0:0:0:0:
296,168,106744,2,0,P|323:142|344:111,1,74.9999952316285,0|2,0:0|0:0,0:0:0:0:
216,128,107119,2,0,P|188:102|167:71,1,74.9999952316285,8|0,0:0|0:0,0:0:0:0:
72,104,107494,6,0,P|19:161|25:235,1,149.999990463257,2|8,0:0|0:0,0:0:0:0:
109,193,108056,2,0,P|168:245|235:242,1,149.999990463257,2|2,0:0|0:0,0:0:0:0:
198,152,108619,2,0,L|220:64,1,74.9999952316285,8|0,0:0|0:0,0:0:0:0:
292,140,108994,6,0,P|326:200|261:275,1,149.999990463257,4|8,0:0|0:0,0:0:0:0:
216,324,109556,1,2,0:0:0:0:
128,284,109744,1,0,0:0:0:0:
100,192,109931,1,2,0:0:0:0:
128,100,110119,2,0,P|156:72|192:48,1,74.9999952316285,8|0,0:0|0:0,0:0:0:0:
220,140,110494,6,0,P|185:200|250:275,1,149.999990463257,4|8,0:0|0:0,0:0:0:0:
296,324,111056,1,2,0:0:0:0:
384,284,111244,1,0,0:0:0:0:
412,192,111431,1,2,0:0:0:0:
384,100,111619,2,0,P|356:72|320:48,1,74.9999952316285,8|0,0:0|0:0,0:0:0:0:
204,64,111994,6,0,P|152:80|104:108,1,74.9999952316285,12|0,0:0|0:0,0:0:0:0:
132,196,112369,2,0,P|166:178|201:167,1,74.9999952316285,8|0,0:0|0:0,0:0:0:0:
312,167,112744,2,0,P|347:178|380:196,1,74.9999952316285,8|0,0:0|0:0,0:0:0:0:
379,88,113119,2,0,P|345:73|308:64,1,74.9999952316285,8|0,0:0|0:0,0:0:0:0:
256,136,113494,5,8,0:0:0:0:
172,212,113681,1,8,0:0:0:0:
256,288,113869,1,8,0:0:0:0:
340,212,114056,1,8,0:0:0:0:
256,60,114431,1,2,0:0:0:0:
256,60,114525,1,2,0:0:0:0:
256,60,114619,1,8,0:0:0:0:
256,224,114994,6,0,P|285:270|319:286,1,74.9999952316285,4|0,0:0|0:0,0:0:0:0:
400,245,115369,1,8,0:0:0:0:
392,140,115556,2,0,L|432:119,2,37.4999976158143,0|0|2,0:0|0:0|0:0,0:0:0:0:
299,76,115931,2,0,L|302:37,2,37.4999976158143,0|0|8,0:0|0:0|0:0,0:0:0:0:
292,184,116306,1,2,0:0:0:0:
292,184,116400,1,2,0:0:0:0:
292,184,116494,5,8,0:0:0:0:
136,180,116775,1,8,0:0:0:0:
216,44,117056,1,8,0:0:0:0:
214,223,117431,2,0,L|214:299,1,74.9999952316285,2|8,0:0|0:0,0:0:0:0:
368,348,117994,6,0,P|429:309|436:241,1,134.999987297059,6|8,0:0|0:0,0:0:0:0:
357,265,118556,2,0,P|322:207|253:177,2,134.999987297059,2|0|0,0:0|0:0|0:0,0:0:0:0:
281,302,119494,6,0,P|325:346|402:333,1,134.999987297059,2|0,0:0|0:0,0:0:0:0:
357,265,120056,2,0,P|380:206|342:136,1,134.999987297059
303,208,120619,1,8,0:0:0:0:
303,208,120806,2,0,P|267:228|227:231,1,67.4999936485293,0|4,0:0|0:0,0:0:0:0:
165,203,121181,6,0,L|130:168,2,33.7499968242647,0|0|8,0:0|0:0|0:0,0:0:0:0:
169,286,121556,2,0,L|145:309,2,33.7499968242647,0|0|0,0:0|0:0|0:0,0:0:0:0:
241,246,121931,1,0,0:0:0:0:
321,246,122119,1,0,0:0:0:0:
321,246,122212,1,0,0:0:0:0:
321,246,122306,1,2,0:0:0:0:
358,174,122494,6,0,P|331:137|311:120,1,67.4999936485293,0|2,0:0|0:0,0:0:0:0:
245,79,122869,1,0,0:0:0:0:
180,136,123056,2,0,P|120:108|52:92,1,134.999987297059
53,92,123619,1,8,0:0:0:0:
24,168,123806,1,0,0:0:0:0:
56,244,123994,6,0,P|121:228|182:200,1,134.999987297059,4|8,0:0|0:0,0:0:0:0:
264,200,124556,2,0,P|325:228|390:243,1,134.999987297059
424,168,125119,1,0,0:0:0:0:
392,92,125306,1,0,0:0:0:0:
392,92,125400,1,0,0:0:0:0:
392,92,125494,6,0,P|326:107|265:135,1,134.999987297059,0|8,0:0|0:0,0:0:0:0:
192,172,126056,2,0,L|56:172,1,134.999987297059
28,264,126619,2,0,L|0:292,2,33.7499968242647,8|0|0,0:0|0:0|0:0,0:0:0:0:
113,251,126994,1,2,0:0:0:0:
113,251,127087,1,0,0:0:0:0:
113,251,127181,1,0,0:0:0:0:
180,312,127369,2,0,B|220:328|232:352|232:352|244:328|292:312,1,134.999987297059,8|0,0:0|0:0,0:0:0:0:
372,324,127931,1,0,0:0:0:0:
432,260,128119,1,0,0:0:0:0:
400,172,128306,1,0,0:0:0:0:
400,172,128400,1,0,0:0:0:0:
400,172,128494,6,0,P|361:117|300:89,1,134.999987297059,2|8,0:0|0:0,0:0:0:0:
260,160,129056,2,0,L|296:180,2,33.7499968242647,0|8|0,0:0|0:0|0:0,0:0:0:0:
188,124,129431,1,0,0:0:0:0:
108,116,129619,2,0,B|102:161|132:190|160:200|160:200|160:236,1,134.999987297059,8|6,0:0|0:0,0:0:0:0:
140,308,130181,5,0,0:0:0:0:
208,352,130369,1,8,0:0:0:0:
280,312,130556,2,0,P|324:280|372:208,1,134.999987297059,2|2,0:0|0:0,0:0:0:0:
408,144,131119,1,8,0:0:0:0:
485,116,131306,6,0,P|449:74|371:72,1,134.999987297059,2|2,0:0|0:0,0:0:0:0:
408,144,131869,1,8,0:0:0:0:
442,219,132056,2,0,P|376:220|331:173,1,134.999987297059,2|2,0:0|0:0,0:0:0:0:
295,97,132619,1,8,0:0:0:0:
295,97,132712,1,0,0:0:0:0:
295,97,132806,1,0,0:0:0:0:
223,59,132994,6,0,P|150:43|97:83,1,134.999987297059,4|8,0:0|0:0,0:0:0:0:
171,123,133556,1,0,0:0:0:0:
171,123,133650,1,0,0:0:0:0:
171,123,133744,2,2,L|193:214,1,67.4999936485293,2|0,0:0|0:0,0:0:0:0:
176,268,134119,1,8,0:0:0:0:
132,336,134306,6,0,B|200:376|252:324|256:288|256:272|256:272|256:288|260:324|312:376|380:336,1,337.499968242647,2|2,0:0|0:0,0:0:0:0:
336,268,135431,1,0,0:0:0:0:
288,204,135619,2,0,P|256:195|224:204,1,67.4999936485293,8|0,0:0|0:0,0:0:0:0:
256,120,135994,6,0,L|256:56,2,33.7499968242647,6|0|0,0:0|0:0|0:0,0:0:0:0:
336,136,136369,2,0,P|440:116|457:20,1,202.499980945588,8|2,0:0|0:0,0:0:0:0:
376,56,137119,1,8,0:0:0:0:
295,62,137306,6,0,P|255:114|270:186,1,134.999987297059,6|2,0:0|0:0,0:0:0:0:
324,234,137869,2,0,P|311:305|256:342,1,134.999987297059,8|2,0:0|0:0,0:0:0:0:
237,254,138431,1,0,0:0:0:0:
237,254,138525,1,0,0:0:0:0:
237,254,138619,1,8,0:0:0:0:
265,171,138806,1,0,0:0:0:0:
354,155,138994,6,0,P|397:188|408:228,1,67.4999936485293,4|8,0:0|0:0,0:0:0:0:
488,158,139369,2,0,L|487:90,1,67.4999936485293
421,22,139744,1,8,0:0:0:0:
357,91,139931,1,2,0:0:0:0:
291,22,140119,1,2,0:0:0:0:
227,91,140306,1,8,0:0:0:0:
227,91,140494,6,0,P|192:129|165:145,1,67.4999936485293,2|0,0:0|0:0,0:0:0:0:
88,192,140869,1,0,0:0:0:0:
179,246,141056,2,0,P|205:266|227:293,1,67.4999936485293,8|8,0:0|0:0,0:0:0:0:
227,293,141337,1,8,0:0:0:0:
227,293,141431,1,8,0:0:0:0:
324,356,141619,1,8,0:0:0:0:
387,261,141806,1,8,0:0:0:0:
287,202,141994,1,4,0:0:0:0:
256,192,146494,12,6,147994,0:0:0:0:
84,112,148369,6,0,P|128:132|212:116,1,119.999992370606,8|0,0:0|0:0,0:0:0:0:
268,80,148931,1,2,0:0:0:0:
300,208,149119,2,0,B|308:268|308:268|292:328,2,119.999992370606,8|2|8,0:0|0:0|0:0,0:0:0:0:
336,132,150056,1,0,0:0:0:0:
404,80,150244,2,0,P|448:76|472:80,1,59.9999961853028,2|0,0:0|0:0,0:0:0:0:
512,200,150619,2,0,P|468:204|444:200,1,59.9999961853028,8|0,0:0|0:0,0:0:0:0:
368,196,150994,6,0,P|328:240|264:252,1,119.999992370606,2|8,0:0|0:0,0:0:0:0:
196,216,151556,1,0,0:0:0:0:
196,216,151744,2,0,B|176:160|176:160|172:100,1,119.999992370606,2|8,0:0|0:0,0:0:0:0:
340,100,152494,2,0,B|336:160|336:160|316:216,1,119.999992370606,2|8,0:0|0:0,0:0:0:0:
256,276,153056,1,0,0:0:0:0:
184,320,153244,2,0,P|148:328|104:320,1,59.9999961853028,2|2,0:0|0:0,0:0:0:0:
28,236,153619,2,0,P|64:228|108:236,1,59.9999961853028,8|0,0:0|0:0,0:0:0:0:
172,240,153994,6,0,B|184:212|184:212|188:176,1,59.9999961853028,6|0,0:0|0:0,0:0:0:0:
200,100,154369,2,0,P|256:80|312:100,2,119.999992370606,8|2|8,0:0|0:0|0:0,0:0:0:0:
200,268,155494,2,0,P|256:288|312:268,1,119.999992370606,2|8,0:0|0:0,0:0:0:0:
392,120,156244,5,2,0:0:0:0:
444,56,156431,1,2,0:0:0:0:
472,136,156619,2,0,B|476:196,1,59.9999961853028,8|0,0:0|0:0,0:0:0:0:
480,280,156994,2,0,B|424:264|416:300|360:288,1,119.999992370606,2|8,0:0|0:0,0:0:0:0:
220,200,157744,6,0,P|200:180|184:144,1,59.9999961853028,2|2,0:0|0:0,0:0:0:0:
164,256,158119,2,0,P|111:256|39:211,1,119.999992370606,8|2,0:0|0:0,0:0:0:0:
220,200,158869,2,0,P|240:240|236:280,1,59.9999961853028,8|0,0:0|0:0,0:0:0:0:
204,328,159244,5,4,0:3:0:0:
120,340,159431,2,0,L|68:332,1,29.9999980926514,2|8,0:0|0:0,0:0:0:0:
8,232,159712,2,0,L|37:236,1,29.9999980926514,8|2,0:0|0:0,0:0:0:0:
152,168,159994,6,0,P|200:132|208:48,1,119.999992370606,6|8,0:0|0:0,0:0:0:0:
297,76,160556,2,0,P|312:132|360:168,1,119.999992370606,0|2,0:0|0:0,0:0:0:0:
312,236,161119,2,0,P|256:216|200:236,2,119.999992370606,8|2|8,0:0|0:0|0:0,0:0:0:0:
432,352,162244,1,2,0:0:0:0:
432,352,162431,1,2,0:0:0:0:
472,276,162619,6,0,L|464:208,1,59.9999961853028,8|0,0:0|0:0,0:0:0:0:
452,132,162994,1,6,0:0:0:0:
256,224,163369,1,8,0:0:0:0:
60,132,163744,2,0,P|40:188|60:256,1,119.999992370606,6|8,0:0|0:0,0:0:0:0:
104,312,164306,1,0,0:0:0:0:
104,312,164494,2,0,B|160:292|160:292|232:296,1,119.999992370606,6|8,0:0|0:0,0:0:0:0:
388,312,165244,5,2,0:0:0:0:
456,260,165431,1,2,0:0:0:0:
380,224,165619,2,0,L|368:152,1,59.9999961853028,8|0,0:0|0:0,0:0:0:0:
236,156,165994,2,0,L|255:274,2,119.999992370606,6|8|2,0:0|0:0|0:0,0:0:0:0:
92,68,167119,1,8,0:0:0:0:
32,224,167494,2,0,P|24:264|80:332,1,119.999992370606,6|8,0:0|0:0,0:0:0:0:
148,332,168056,2,0,B|204:308|204:308|272:316,1,119.999992370606,6|2,0:0|0:0,0:0:0:0:
344,332,168619,5,8,0:0:0:0:
408,276,168806,1,0,0:0:0:0:
468,332,168994,2,0,P|488:264|456:208,1,119.999992370606,6|8,0:0|0:0,0:0:0:0:
340,116,169744,2,0,P|320:184|352:240,1,119.999992370606,2|8,0:0|0:0,0:0:0:0:
408,276,170306,1,0,0:0:0:0:
469,221,170494,2,0,P|488:276|468:332,1,119.999992370606,6|8,0:0|0:0,0:0:0:0:
388,352,171056,2,0,L|256:364,1,119.999992370606,2|2,0:0|0:0,0:0:0:0:
184,372,171619,1,8,0:0:0:0:
92,232,171994,6,0,P|76:184|88:116,1,119.999992370606,6|8,0:0|0:0,0:0:0:0:
140,52,172556,1,0,0:0:0:0:
204,108,172744,2,0,L|244:112,2,29.9999980926514,2|8|8,0:0|0:0|0:0,0:0:0:0:
160,180,173119,1,8,0:0:0:0:
256,272,173306,1,2,0:0:0:0:
256,272,173494,6,0,B|288:252|324:280|364:260,1,97.4999893379217,6|0,0:0|0:0,0:0:0:0:
420,224,174056,1,2,0:0:0:0:
488,84,174431,2,0,L|480:32,1,48.7499946689609,2|8,0:0|0:0,0:0:0:0:
376,152,174994,6,0,P|332:164|268:148,1,97.4999893379217,2|0,0:0|0:0,0:0:0:0:
208,128,175556,2,0,B|184:172|184:172|180:224,1,97.4999893379217,2|0,0:0|0:0,0:0:0:0:
176,296,176119,1,8,0:0:0:0:
328,332,176494,6,0,P|364:284|420:284,1,97.4999893379217,6|0,0:0|0:0,0:0:0:0:
400,356,177056,1,2,0:0:0:0:
316,224,177431,2,0,L|288:172,1,48.7499946689609,2|8,0:0|0:0,0:0:0:0:
144,224,177994,6,0,P|104:232|56:224,2,73.1249920034413,2|2|2,0:0|0:0|0:0,0:0:0:0:
220,200,178744,2,0,L|224:140,1,48.7499946689609,0|2,0:0|0:0,0:0:0:0:
296,60,179119,1,8,0:0:0:0:
296,60,179494,6,0,L|302:157,1,97.4999893379217,6|0,0:0|0:0,0:0:0:0:
304,236,180056,2,0,P|296:280|260:316,1,97.4999893379217,2|0,0:0|0:0,0:0:0:0:
180,320,180619,1,8,0:0:0:0:
60,220,180994,6,0,P|40:148|76:76,1,146.249984006883,6|2,0:0|0:0,0:0:0:0:
152,164,181744,2,0,P|182:95|256:63,1,146.249984006883,6|2,0:0|0:0,0:0:0:0:
258,180,182494,2,0,P|325:147|402:170,2,146.249984006883,6|2|8,0:0|0:0|0:0,0:0:0:0:
200,344,183994,5,4,0:0:0:0:
148,276,184181,1,0,0:0:0:0:
92,344,184369,2,0,P|64:304|64:264,1,67.4999936485293,8|0,0:0|0:0,0:0:0:0:
64,200,184744,2,0,L|68:132,1,67.4999936485293,8|0,0:0|0:0,0:0:0:0:
148,60,185119,2,0,L|152:128,1,67.4999936485293,8|0,0:0|0:0,0:0:0:0:
228,204,185494,6,0,L|235:69,1,134.999987297059,12|8,0:0|0:0,0:0:0:0:
312,116,186056,1,2,0:0:0:0:
364,48,186244,2,0,L|366:14,2,33.7499968242647,8|8|2,0:0|0:0|0:0,0:0:0:0:
424,108,186619,1,8,0:0:0:0:
434,127,186712,1,8,0:0:0:0:
441,149,186806,1,4,0:3:0:0:
443,171,186900,1,4,0:3:0:0:
441,193,186994,6,0,B|428:236|456:256|432:304,2,101.249990472794,6|12|14,0:0|0:0|0:0,0:0:0:0:
296,76,188494,5,6,0:0:0:0:
296,76,188681,2,0,P|260:92|152:76,1,149.999990463257
76,28,189244,2,0,L|72:104,1,74.9999952316285,2|2,0:0|0:0,0:0:0:0:
64,192,189619,1,8,0:0:0:0:
128,256,189806,2,0,B|176:280|232:236|280:256,1,149.999990463257,2|2,0:0|0:0,0:0:0:0:
360,284,190369,2,0,P|416:280|440:200,1,149.999990463257,8|2,0:0|0:0,0:0:0:0:
364,152,190931,2,0,P|360:112|368:64,1,74.9999952316285,2|8,0:0|0:0,0:0:0:0:
416,4,191306,1,0,0:0:0:0:
468,128,191494,6,0,P|472:165|468:202,1,74.9999952316285,6|0,0:0|0:0,0:0:0:0:
424,280,191869,1,8,0:0:0:0:
424,280,192056,2,0,P|352:260|284:288,1,149.999990463257,2|2,0:0|0:0,0:0:0:0:
256,372,192619,1,8,0:0:0:0:
124,252,192994,6,0,L|120:176,1,74.9999952316285,2|0,0:0|0:0,0:0:0:0:
120,88,193369,2,0,P|168:104|240:92,1,112.499992847443,8|0,0:0|0:0,0:0:0:0:
256,88,193744,1,12,0:0:0:0:
344,192,193931,2,0,L|348:248,5,37.4999976158143,12|8|8|8|8|8,0:0|0:0|0:0|0:0|0:0|0:0,0:0:0:0:
348,260,194494,6,0,P|344:304|312:352,1,74.9999952316285,6|0,0:0|0:0,0:0:0:0:
256,276,194869,1,8,0:0:0:0:
181,331,195056,2,0,P|166:297|164:260,1,74.9999952316285,0|0,0:0|0:0,0:0:0:0:
212,184,195431,1,0,0:0:0:0:
300,184,195619,1,8,0:0:0:0:
347,259,195806,2,0,P|417:284|487:260,1,149.999990463257,2|0,0:0|0:0,0:0:0:0:
488,108,196369,6,0,P|418:83|348:107,1,149.999990463257,8|2,0:0|0:0,0:0:0:0:
300,184,196931,1,2,0:0:0:0:
256,104,197119,2,0,L|248:24,1,74.9999952316285,8|0,0:0|0:0,0:0:0:0:
192,168,197494,2,0,L|184:242,1,74.9999952316285,2|0,0:0|0:0,0:0:0:0:
164,332,197869,2,0,P|88:352|4:324,2,149.999990463257,8|2|8,0:0|0:0|0:0,0:0:0:0:
240,280,198806,1,0,0:0:0:0:
256,192,198994,6,0,L|248:112,1,74.9999952316285,6|0,0:0|0:0,0:0:0:0:
180,56,199369,1,8,0:0:0:0:
128,132,199556,2,0,L|135:206,1,74.9999952316285,2|4,0:0|0:3,0:0:0:0:
204,268,199931,2,0,L|200:312,2,37.4999976158143,8|8|8,0:0|0:0|0:0,0:0:0:0:
256,192,200306,1,2,0:0:0:0:
328,308,200494,6,0,P|400:332|468:308,1,149.999990463257,6|8,0:0|0:0,0:0:0:0:
500,224,201056,2,0,B|504:184|504:184|492:116|492:116|496:76,1,149.999990463257,2|2,0:0|0:0,0:0:0:0:
420,28,201619,2,0,L|411:108,1,74.9999952316285,8|0,0:0|0:0,0:0:0:0:
400,192,201994,2,0,P|324:176|252:192,1,149.999990463257,2|8,0:0|0:0,0:0:0:0:
116,304,202744,5,2,0:0:0:0:
64,376,202931,1,2,0:0:0:0:
24,296,203119,2,0,L|20:212,1,74.9999952316285,8|0,0:0|0:0,0:0:0:0:
128,140,203494,2,0,L|124:214,1,74.9999952316285,6|0,0:0|0:0,0:0:0:0:
116,304,203869,1,8,0:0:0:0:
236,256,204056,2,0,P|308:236|380:256,1,149.999990463257,2|2,0:0|0:0,0:0:0:0:
448,316,204619,1,8,0:0:0:0:
504,248,204806,1,0,0:0:0:0:
412,148,204994,6,0,P|388:72|416:8,1,149.999990463257,6|8,0:0|0:0,0:0:0:0:
500,168,205744,2,0,P|476:212|448:228,1,74.9999952316285,2|2,0:0|0:0,0:0:0:0:
364,220,206119,1,8,0:0:0:0:
348,308,206306,1,0,0:0:0:0:
256,304,206494,6,0,P|200:340|116:324,1,149.999990463257,6|8,0:0|0:0,0:0:0:0:
60,260,207056,2,0,B|44:188|44:188|56:104,1,149.999990463257,2|2,0:0|0:0,0:0:0:0:
68,24,207619,1,8,0:0:0:0:
228,104,207994,6,0,P|300:84|372:104,1,149.999990463257,2|8,0:0|0:0,0:0:0:0:
372,192,208556,2,0,P|300:211|229:192,1,149.999990463257,2|2,0:0|0:0,0:0:0:0:
152,144,209119,1,8,0:0:0:0:
144,232,209306,1,0,0:0:0:0:
144,232,209494,6,0,P|80:196|68:116,1,149.999990463257,6|8,0:0|0:0,0:0:0:0:
128,60,210056,1,0,0:0:0:0:
216,80,210244,2,0,L|304:72,1,74.9999952316285,8|0,0:0|0:0,0:0:0:0:
396,160,210619,2,0,L|308:152,1,74.9999952316285,8|0,0:0|0:0,0:0:0:0:
216,240,210994,5,8,0:0:0:0:
88,192,211181,1,8,0:0:0:0:
128,60,211369,1,8,0:0:0:0:
256,108,211556,1,8,0:0:0:0:
256,288,211931,2,0,L|256:344,2,37.4999976158143,2|2|8,0:0|0:0|0:0,0:0:0:0:
416,204,212494,6,0,P|428:160|424:124,1,74.9999952316285,6|0,0:0|0:0,0:0:0:0:
372,60,212869,1,8,0:0:0:0:
300,112,213056,2,0,L|304:152,2,37.4999976158143,2|2|8,0:0|0:0|0:0,0:0:0:0:
228,60,213431,2,0,L|231:22,2,37.4999976158143,2|2|8,0:0|0:0|0:0,0:0:0:0:
212,148,213806,1,2,0:0:0:0:
210,166,213900,1,2,0:0:0:0:
208,185,213994,6,0,B|200:224|200:224|212:256|212:256|204:304,2,112.499992847443,12|6|12,0:0|0:0|0:0,0:0:0:0:
448,60,215119,5,8,0:0:0:0:
448,60,215494,6,0,P|456:104|444:144,1,74.9999952316285,6|0,0:0|0:0,0:0:0:0:
396,208,215869,1,8,0:0:0:0:
328,152,216056,1,0,0:0:0:0:
312,240,216244,2,0,B|300:312|300:312|248:372,1,149.999990463257,2|8,0:0|0:0,0:0:0:0:
172,328,216806,2,0,B|184:256|184:256|236:196,1,149.999990463257,2|2,0:0|0:0,0:0:0:0:
304,140,217369,1,8,0:0:0:0:
476,192,217744,5,2,0:0:0:0:
508,276,217931,1,2,0:0:0:0:
420,264,218119,2,0,P|380:260|328:272,1,74.9999952316285,8|0,0:0|0:0,0:0:0:0:
232,340,218494,2,0,B|164:304|164:304|84:292,1,149.999990463257,6|8,0:0|0:0,0:0:0:0:
4,288,219056,2,0,P|-12:212|4:140,1,149.999990463257,2|2,0:0|0:0,0:0:0:0:
48,64,219619,1,8,0:0:0:0:
208,148,219994,5,2,0:0:0:0:
256,72,220181,1,0,0:0:0:0:
304,148,220369,2,0,P|360:164|420:156,1,112.499992847443,8|0,0:0|0:0,0:0:0:0:
440,148,220744,1,12,0:0:0:0:
512,264,220931,1,12,0:0:0:0:
456,336,221119,2,0,L|460:376,2,37.4999976158143,4|8|2,0:3|0:0|0:0,0:0:0:0:
380,284,221494,5,6,0:0:0:0:
380,284,221681,2,0,P|332:304|232:284,1,149.999990463257,2|0,0:0|0:0,0:0:0:0:
176,224,222244,2,0,L|172:140,1,74.9999952316285,2|2,0:0|0:0,0:0:0:0:
280,68,222619,1,8,0:0:0:0:
280,68,222806,2,0,L|272:217,1,149.999990463257,2|2,0:0|0:0,0:0:0:0:
228,296,223369,5,8,0:0:0:0:
176,224,223556,1,0,0:0:0:0:
132,304,223744,2,0,P|88:248|88:220,1,74.9999952316285,2|2,0:0|0:0,0:0:0:0:
80,156,224119,2,0,L|84:80,1,74.9999952316285,8|0,0:0|0:0,0:0:0:0:
196,8,224494,2,0,L|199:82,1,74.9999952316285,6|0,0:0|0:0,0:0:0:0:
316,156,224869,2,0,P|388:176|468:152,2,149.999990463257,8|2|8,0:0|0:0|0:0,0:0:0:0:
256,88,225806,1,0,0:0:0:0:
196,156,225994,6,0,L|200:236,1,74.9999952316285,2|0,0:0|0:0,0:0:0:0:
208,320,226369,1,12,0:0:0:0:
284,272,226556,2,0,P|324:264|376:272,1,74.9999952316285,0|2,0:0|0:0,0:0:0:0:
432,320,226931,2,0,L|436:360,2,37.4999976158143,8|8|8,0:0|0:0|0:0,0:0:0:0:
488,196,227306,1,8,0:0:0:0:
432,68,227494,6,6,P|360:84|276:64,1,149.999990463257,6|8,0:0|0:0,0:0:0:0:
200,92,228056,2,0,P|180:156|204:244,1,149.999990463257,2|2,0:0|0:0,0:0:0:0:
256,304,228619,1,8,0:0:0:0:
332,192,228806,2,0,P|400:160|468:192,1,149.999990463257,2|2,0:0|0:0,0:0:0:0:
400,252,229369,1,8,0:0:0:0:
464,316,229556,2,0,P|396:344|331:312,1,149.999990463257,2|2,0:0|0:0,0:0:0:0:
264,252,230119,5,8,0:0:0:0:
240,340,230306,1,0,0:0:0:0:
116,284,230494,2,0,L|28:292,1,74.9999952316285,6|0,0:0|0:0,0:0:0:0:
140,200,230869,1,8,0:0:0:0:
140,200,231056,2,0,P|200:252|192:328,1,149.999990463257,2|2,0:0|0:0,0:0:0:0:
116,284,231619,1,8,0:0:0:0:
60,212,231806,2,0,P|64:172|156:124,1,149.999990463257,2|2,0:0|0:0,0:0:0:0:
220,180,232369,1,8,0:0:0:0:
256,356,232744,6,0,L|332:360,1,74.9999952316285,2|2,0:0|0:0,0:0:0:0:
420,364,233119,1,8,0:0:0:0:
380,284,233306,1,0,0:0:0:0:
468,288,233494,6,0,P|432:212|360:200,1,149.999990463257,6|8,0:0|0:0,0:0:0:0:
288,232,234056,2,0,P|216:248|136:232,1,149.999990463257,2|2,0:0|0:0,0:0:0:0:
60,200,234619,1,8,0:0:0:0:
184,68,234994,6,0,B|236:44|280:92|332:68,1,149.999990463257,6|8,0:0|0:0,0:0:0:0:
412,28,235556,2,0,P|480:40|496:112,1,149.999990463257,2|2,0:0|0:0,0:0:0:0:
440,180,236119,1,8,0:0:0:0:
512,296,236306,1,0,0:0:0:0:
376,300,236494,6,0,P|296:280|264:220,1,149.999990463257,6|8,0:0|0:0,0:0:0:0:
268,136,237056,1,0,0:0:0:0:
328,68,237244,2,0,P|368:64|412:72,1,74.9999952316285,8|0,0:0|0:0,0:0:0:0:
404,204,237619,2,0,P|364:208|320:200,1,74.9999952316285,8|0,0:0|0:0,0:0:0:0:
268,136,237994,5,8,0:0:0:0:
140,176,238181,1,8,0:0:0:0:
168,308,238369,1,8,0:0:0:0:
296,268,238556,1,8,0:0:0:0:
196,120,238931,2,0,L|184:80,2,37.4999976158143,2|2|8,0:0|0:0|0:0,0:0:0:0:
296,268,239494,6,0,P|344:292|444:264,1,149.999990463257,6|8,0:0|0:0,0:0:0:0:
484,196,240056,1,0,0:0:0:0:
484,196,240244,2,0,P|488:152|476:108,1,74.9999952316285,8|0,0:0|0:0,0:0:0:0:
428,48,240619,2,0,B|392:56|392:56|332:52,1,74.9999952316285,8|0,0:0|0:0,0:0:0:0:
264,36,240994,6,0,P|200:56|200:136,1,149.999990463257,6|8,0:0|0:0,0:0:0:0:
256,196,241556,1,0,0:0:0:0:
196,264,241744,2,0,P|160:280|104:268,1,74.9999952316285,8|0,0:0|0:0,0:0:0:0:
56,216,242119,2,0,L|48:136,1,74.9999952316285,8|0,0:0|0:0,0:0:0:0:
132,36,242494,6,0,L|147:190,1,149.999990463257,12|0,0:0|0:0,0:0:0:0:
196,264,243056,1,0,0:0:0:0:
268,208,243244,2,0,P|312:200|360:208,1,74.9999952316285,8|0,0:0|0:0,0:0:0:0:
368,288,243619,2,0,P|400:300|448:292,1,74.9999952316285,8|0,0:0|0:0,0:0:0:0:
476,212,243994,2,0,P|484:136|432:80,1,149.999990463257,8|8,0:0|0:0,0:0:0:0:
400,164,244556,5,8,0:0:0:0:
336,104,244744,1,8,0:0:0:0:
256,140,244931,1,8,0:0:0:0:
176,104,245119,1,8,0:0:0:0:
112,164,245306,1,8,0:0:0:0:
73,83,245494,2,0,P|26:139|36:212,1,149.999990463257,0|0,0:0|0:0,0:0:0:0:
