osu file format v5

[General]
AudioFilename: AA-Chino - Mighty Buddy.mp3
AudioLeadIn: 0
AudioHash: ed1706bb59890d1aa3cef8daff68d2dc
PreviewTime: -1
Countdown: 1
SampleSet: Normal
EditorBookmarks: 6649,43201,43454,43708,43961,44214,44468,52562,53575

[Metadata]
Title:Mighty Buddy
Artist:AA-Chino
Creator:EiJi
Version:Normal+

[Difficulty]
HPDrainRate:4
CircleSize:5
OverallDifficulty:4
SliderMultiplier:0.8
SliderTickRate:2

[Events]
//Background and Video events
1,24,"yua.op.avi"
//Break Periods
2,52141,64423
//Storyboard Layer 0 (Background)
//Storyboard Layer 1 (Failing)
//Storyboard Layer 2 (Passing)
//Storyboard Layer 3 (Foreground)
//Storyboard Sound Samples
//Background Colour Transformations
3,148,163,162,255

[TimingPoints]
5624,405.405405405405,4,1,0,100

[HitObjects]
88,112,7245,2,0,B|88:112|264:112,1,160
248,208,8867,2,0,B|248:208|72:208,1,160
88,160,10083,2,0,B|88:160|88:256,1,80
88,336,11299,2,0,B|88:336|264:336,2,160
96,240,13732,5,0
96,144,14542,1,0
192,144,15353,1,0
240,144,15759,1,0
288,144,16164,1,0
288,240,16975,5,0
192,240,17786,1,0
192,144,18596,2,0,B|192:144|360:144,1,160
256,192,20218,12,0,26705
256,200,27515,1,0
256,104,28326,1,0
208,104,28732,2,0,B|208:104|208:200,3,80
208,280,30759,1,0
112,280,31569,2,0,B|112:280|16:280|32:168,1,160
32,72,33191,6,0,B|32:72|96:72,1,53.3333333333333
120,72,33732,2,0,B|120:72|184:72,1,53.3333333333333
176,168,34813,6,0,B|176:168|112:168,1,53.3333333333333
88,168,35354,2,0,B|88:168|24:168,1,53.3333333333333
32,264,36434,6,0,B|32:264|96:264,9,53.3333333333333
176,240,39678,6,0,B|176:240|176:328,2,80
176,200,40792,2,0,B|176:200|176:120,1,60
176,136,41299,1,0
208,136,41569,2,0,B|208:136|272:136,2,53.3333333333333
208,184,42515,1,0
208,208,42718,2,0,B|208:208|208:232,2,20
208,240,43225,2,0,B|208:240|264:240,5,50
200,120,46164,6,0,B|200:120|296:120,1,80
328,120,46975,1,0
328,216,47786,6,0,B|328:216|232:216,1,80
200,216,48596,1,0
200,312,49407,5,0
296,312,50218,1,0
392,312,51029,2,0,B|392:312|464:312,3,60
256,200,65623,5,0
160,200,66434,1,0
160,104,67245,1,0
208,104,67651,1,0
208,152,68056,1,0
208,248,68867,5,0
304,248,69678,1,0
304,344,70488,5,0
264,344,70792,1,0
224,344,71096,1,0
200,344,71299,1,0
200,248,72110,5,0
232,248,72414,1,0
264,248,72718,1,0
288,248,72921,1,0
320,248,73225,5,0
352,248,73529,1,0
376,248,73732,1,0
408,248,74036,5,0
440,248,74340,1,0
464,248,74542,1,0
456,152,75353,6,0,B|456:152|552:152|352:152,1,160
376,248,76975,6,0,B|376:248|280:248|488:248,1,160
256,192,78596,12,0,85083
