osu file format v4

[General]
AudioFilename: AA-Chino - Mighty Buddy.mp3
AudioLeadIn: 0
AudioHash: ed1706bb59890d1aa3cef8daff68d2dc
PreviewTime: -1
Countdown: 1
SampleSet: Normal
EditorBookmarks: 6649,52562,53575

[Metadata]
Title:Mighty Buddy
Artist:AA-Chino
Creator:EiJi
Version:Hard

[Difficulty]
HPDrainRate:4
CircleSize:5
OverallDifficulty:4
SliderMultiplier: 1.4
SliderTickRate: 2

[Events]
//Background and Video events
1,0,"yua.op.avi"
//Break Periods
//Storyboard Layer 0 (Background)
//Storyboard Layer 1 (Failing)
//Storyboard Layer 2 (Passing)
//Storyboard Layer 3 (Foreground)
//Storyboard Sound Samples
//Background Colour Transformations
3,100,163,162,255

[TimingPoints]
5600,405.405405405405,4,1,0,100

[HitObjects]
40,128,7018,1,0
96,128,7221,2,0,B|96:128|392:128,2,280
96,40,9147,6,0,B|96:40|208:40,1,105
256,40,9654,1,0
264,152,10059,5,0
264,152,10262,1,0
320,152,10464,2,0,B|320:152|16:152,2,280
400,152,12390,1,0
400,64,12694,1,0
344,64,12897,1,0
176,64,13505,5,0
176,64,13606,1,0
176,64,13708,1,0
176,144,14012,6,0,B|176:144|176:264,1,105
176,304,14518,2,0,B|176:304|312:304,1,105
368,304,15127,1,0
424,304,15329,1,0
424,216,15633,2,0,B|424:216|424:88,1,105
368,112,16140,1,0
256,112,16545,5,0
200,112,16748,5,0
200,112,16850,1,0
200,112,16951,1,0
112,112,17255,5,0
112,192,17559,1,0
112,248,17762,1,0
280,248,18370,5,0
280,248,18471,1,0
280,248,18572,1,0
360,248,18877,5,0
440,248,19181,1,0
440,192,19383,1,0
256,192,20194,12,0,25870
80,144,26681,1,0
160,144,26985,1,0
240,144,27289,1,0
296,144,27491,1,0
376,144,27795,1,0
376,224,28100,1,0
376,280,28302,1,0
288,280,28606,1,0
200,280,28910,1,0
144,280,29113,1,0
152,168,29518,5,0
152,80,29822,5,0
152,80,29924,1,0
232,80,30228,5,0
312,80,30532,1,0
368,80,30735,1,0
448,80,31039,1,0
448,160,31343,1,0
392,160,31545,2,0,B|392:160|96:160,1,280
104,328,32964,5,0
104,328,33066,1,0
104,328,33167,1,0
184,328,33471,5,0
264,328,33775,1,0
264,328,33978,1,0
264,160,34586,5,0
264,160,34687,1,0
264,160,34789,1,0
176,160,35093,5,0
88,160,35397,1,0
88,160,35600,1,0
224,64,36208,5,0
224,64,36309,1,0
224,64,36410,1,0
224,144,36714,5,0
224,224,37018,1,0
224,280,37221,1,0
224,360,37525,1,0
304,360,37829,5,0
304,360,37931,1,0
304,360,38032,1,0
384,360,38336,5,0
464,360,38640,1,0
464,304,38843,1,0
464,80,39654,6,0,B|464:80|344:80,1,105
272,80,40262,2,0,B|272:80|192:80,1,70
120,80,40768,2,0,B|120:80|-8:80,1,105
16,136,41275,2,0,B|16:136|16:256,1,105
16,320,41883,2,0,B|16:320|104:320,1,70
200,328,42491,6,0,B|200:328|200:248,1,70
200,258,42795,5,0
200,258,42897,1,0
200,176,43201,6,0,B|200:176|200:56,1,105
256,72,43708,2,0,B|256:72|256:208,1,105
336,176,44316,2,0,B|336:176|336:80,1,70
304,56,44721,5,0
360,56,44924,5,0
360,56,45127,1,0
304,56,45329,5,0
304,56,45532,1,0
360,56,45735,5,0
360,56,45937,2,0,B|360:56|400:56,2,35
360,136,46444,5,0
360,216,46748,1,0
360,272,46951,1,0
192,272,47559,5,0
192,272,47660,1,0
192,272,47762,1,0
192,184,48066,5,0
192,96,48370,2,0,B|192:96|296:96,1,70
432,96,49181,5,0
432,152,49383,2,0,B|432:152|432:288,1,105
344,256,49991,1,0
288,256,50194,2,0,B|288:256|160:256,1,105
184,168,50802,5,0
184,168,50904,1,0
184,168,51005,2,0,B|184:168|56:168,3,105
56,80,52627,6,0,B|56:80|248:80|240:88|8:224,1,350
80,224,53843,1,0
136,224,54045,1,0
192,224,54248,2,0,B|192:224|320:224|312:216|200:128,1,210
208,80,55059,2,0,B|208:80|360:80,1,140
456,88,55870,2,0,B|456:88|456:272|448:272|432:272|232:272,1,350
208,272,57086,2,0,B|208:272|112:272,1,70
80,272,57491,2,0,B|80:272|80:152|80:144|96:144|192:144,1,210
232,144,58302,1,0
328,64,59113,6,0,B|328:64|360:128|352:128|336:128|264:128|264:136|264:152|264:224|272:224|296:224|368:224|368:232|368:256|368:304|360:304|352:304|304:304,1,350
256,304,60329,2,0,B|256:304|160:304,2,70
88,304,61343,1,0
88,248,61545,2,0,B|88:248|88:80,2,140
168,248,62660,5,0
248,248,62964,1,0
360,248,63370,5,0
360,192,63572,1,0
360,136,63775,1,0
360,80,63978,1,0
272,80,64282,1,0
272,160,64586,1,0
272,216,64789,1,0
128,96,65397,6,0,B|128:96|128:128,2,35
208,96,65904,1,0
288,96,66208,2,0,B|288:96|368:96,1,70
440,96,66714,1,0
440,176,67018,2,0,B|440:176|440:248,1,70
352,248,67525,1,0
264,248,67829,2,0,B|264:248|168:248,1,70
80,248,68437,5,0
80,192,68640,2,0,B|80:192|80:160,2,35
80,104,69147,1,0
160,104,69451,1,0
216,104,69654,1,0
216,184,69958,1,0
216,264,70262,1,0
160,264,70464,1,0
160,176,70768,1,0
160,88,71072,1,0
216,88,71275,1,0
352,184,71883,5,0
352,184,71985,1,0
352,184,72086,1,0
264,184,72390,6,0,B|264:184|144:184,1,105
160,128,72897,2,0,B|160:128|282:128|298:128,2,105
160,72,73708,2,0,B|160:72|280:72,2,105
104,72,74518,1,0
104,184,74924,5,0
104,240,75127,2,0,B|104:240|104:272,2,35
184,240,75633,2,0,B|184:240|312:240,1,105
288,184,76140,2,0,B|288:184|288:112|296:112|312:112|456:112,1,210
440,112,76850,5,0
440,112,76951,2,0,B|440:112|441:237,1,105
352,216,77559,2,0,B|352:216|272:216,1,70
