osu file format v13

[General]
AudioFilename: 62..mp3
AudioLeadIn: 0
PreviewTime: 16919
Countdown: 0
SampleSet: None
StackLeniency: 0.7
Mode: 3
LetterboxInBreaks: 0
SpecialStyle: 0
WidescreenStoryboard: 1

[Editor]
Bookmarks: 22500
DistanceSpacing: 1.2
BeatDivisor: 4
GridSize: 4
TimelineZoom: 1.6

[Metadata]
Title:Nanatsu Issenzakura
TitleUnicode:七つ一旋桜
Artist:A.SAKA
ArtistUnicode:A.SAKA
Creator:richardfeder
Version:Normal
Source:
Tags:pending cup 木製みゅーと 神楽ノ花 Mokuse Mute C85
BeatmapID:515839
BeatmapSetID:220432

[Difficulty]
HPDrainRate:8
CircleSize:7
OverallDifficulty:8
ApproachRate:5
SliderMultiplier:1.4
SliderTickRate:1

[Events]
//Background and Video events
0,0,"BG0.JPG",0,0
//Break Periods
//Storyboard Layer 0 (Background)
//Storyboard Layer 1 (Fail)
//Storyboard Layer 2 (Pass)
//Storyboard Layer 3 (Foreground)
//Storyboard Sound Samples
//Background Colour Transformations
3,100,163,162,255

[TimingPoints]
175,348.837209302326,4,2,0,20,1,0
19709,-100,4,3,0,30,0,0
44826,-100,4,2,0,20,0,0
61570,-100,4,3,0,25,0,0
67151,-100,4,3,0,30,0,0

[HitObjects]
256,192,175,5,0,0:0:0:0:
329,192,1570,1,0,0:0:0:0:
36,192,1570,1,0,0:0:0:0:
402,192,2965,1,0,0:0:0:0:
36,192,4361,1,0,0:0:0:0:
182,192,4361,1,0,0:0:0:0:
475,192,5756,1,0,0:0:0:0:
256,192,5756,1,4,0:0:0:0:
329,192,7151,1,0,0:0:0:0:
109,192,7151,1,0,0:0:0:0:
402,192,8547,1,0,0:0:0:0:
36,192,9942,1,0,0:0:0:0:
329,192,9942,1,0,0:0:0:0:
182,192,10814,1,0,0:0:0:0:
256,192,10988,1,0,0:0:0:0:
329,192,11163,1,0,0:0:0:0:
402,192,11337,1,0,0:0:0:0:
109,192,11512,1,0,0:0:0:0:
182,192,11686,1,0,0:0:0:0:
256,192,11861,1,0,0:0:0:0:
329,192,12035,1,0,0:0:0:0:
182,192,12209,1,0,0:0:0:0:
402,192,12384,1,0,0:0:0:0:
256,192,12558,1,0,0:0:0:0:
475,192,12733,1,0,0:0:0:0:
329,192,12907,1,0,0:0:0:0:
256,192,12994,1,0,0:0:0:0:
182,192,13081,1,0,0:0:0:0:
36,192,13256,1,0,0:0:0:0:
109,192,13430,1,0,0:0:0:0:
182,192,13605,1,0,0:0:0:0:
329,192,13779,1,0,0:0:0:0:
402,192,13954,1,0,0:0:0:0:
475,192,14128,1,0,0:0:0:0:
329,192,14302,1,0,0:0:0:0:
36,192,14477,1,0,0:0:0:0:
182,192,14651,1,0,0:0:0:0:
475,192,14826,1,0,0:0:0:0:
329,192,15000,1,0,0:0:0:0:
36,192,15175,1,0,0:0:0:0:
182,192,15349,1,0,0:0:0:0:
329,192,15523,1,0,0:0:0:0:
475,192,15698,1,0,0:0:0:0:
256,192,15872,1,0,0:0:0:0:
402,192,16047,1,0,0:0:0:0:
182,192,16221,1,0,0:0:0:0:
329,192,16395,1,0,0:0:0:0:
182,192,16570,1,0,0:0:0:0:
36,192,16744,1,0,0:0:0:0:
329,192,16919,1,4,0:0:0:0:
475,192,16919,1,0,0:0:0:0:
182,192,17268,1,0,0:0:0:0:
329,192,17442,1,0,0:0:0:0:
109,192,17616,1,0,0:0:0:0:
256,192,17791,1,0,0:0:0:0:
402,192,17965,1,0,0:0:0:0:
256,192,18140,1,0,0:0:0:0:
182,192,18314,1,0,0:0:0:0:
36,192,18314,1,0,0:0:0:0:
109,192,18663,1,0,0:0:0:0:
329,192,18837,1,0,0:0:0:0:
182,192,19012,1,0,0:0:0:0:
402,192,19186,1,0,0:0:0:0:
109,192,19361,1,0,0:0:0:0:
329,192,19535,1,0,0:0:0:0:
36,192,19709,1,8,0:0:0:0:
475,192,20407,1,8,0:0:0:0:
36,192,21105,1,8,0:0:0:0:
475,192,21454,1,8,0:0:0:0:
36,192,21802,1,8,0:0:0:0:
182,192,21977,1,8,0:0:0:0:
256,192,22064,1,8,0:0:0:0:
329,192,22151,1,8,0:0:0:0:
182,192,22326,1,8,0:0:0:0:
36,192,22500,1,0,0:0:0:0:
475,192,22500,1,0,0:0:0:0:
109,192,22675,1,0,0:0:0:0:
402,192,22762,1,0,0:0:0:0:
256,192,22849,1,8,0:0:0:0:
182,192,23023,1,0,0:0:0:0:
329,192,23198,1,0,0:0:0:0:
36,192,23372,1,0,0:0:0:0:
182,192,23459,1,0,0:0:0:0:
329,192,23547,1,8,0:0:0:0:
475,192,23721,1,0,0:0:0:0:
256,192,23895,1,0,0:0:0:0:
109,192,24070,1,0,0:0:0:0:
402,192,24157,1,0,0:0:0:0:
329,192,24244,1,8,0:0:0:0:
182,192,24419,1,0,0:0:0:0:
256,192,24593,1,0,0:0:0:0:
109,192,24768,1,0,0:0:0:0:
329,192,24855,1,0,0:0:0:0:
182,192,24942,1,8,0:0:0:0:
329,192,25116,1,0,0:0:0:0:
402,192,25291,1,0,0:0:0:0:
36,192,25465,1,0,0:0:0:0:
329,192,25552,1,0,0:0:0:0:
182,192,25640,1,8,0:0:0:0:
256,192,25814,1,0,0:0:0:0:
329,192,25988,1,0,0:0:0:0:
109,192,26163,1,0,0:0:0:0:
256,192,26250,1,0,0:0:0:0:
402,192,26337,1,0,0:0:0:0:
182,192,26512,1,0,0:0:0:0:
475,192,26686,1,0,0:0:0:0:
256,192,26861,1,0,0:0:0:0:
402,192,27035,1,8,0:0:0:0:
182,192,27209,1,0,0:0:0:0:
329,192,27384,1,0,0:0:0:0:
109,192,27558,1,0,0:0:0:0:
256,192,27733,1,8,0:0:0:0:
36,192,27907,1,8,0:0:0:0:
475,192,28081,1,0,0:0:0:0:
182,192,28081,1,0,0:0:0:0:
109,192,28256,1,0,0:0:0:0:
402,192,28343,1,0,0:0:0:0:
256,192,28430,1,8,0:0:0:0:
182,192,28605,1,0,0:0:0:0:
329,192,28779,1,0,0:0:0:0:
36,192,28954,1,0,0:0:0:0:
182,192,29041,1,0,0:0:0:0:
329,192,29128,1,8,0:0:0:0:
475,192,29302,1,0,0:0:0:0:
256,192,29477,1,0,0:0:0:0:
109,192,29651,1,0,0:0:0:0:
402,192,29738,1,0,0:0:0:0:
329,192,29826,1,8,0:0:0:0:
182,192,30000,1,0,0:0:0:0:
256,192,30175,1,0,0:0:0:0:
109,192,30349,1,0,0:0:0:0:
329,192,30436,1,0,0:0:0:0:
182,192,30523,1,8,0:0:0:0:
256,192,30698,1,8,0:0:0:0:
329,192,30872,1,8,0:0:0:0:
36,192,31047,1,0,0:0:0:0:
329,192,31134,1,0,0:0:0:0:
182,192,31221,1,8,0:0:0:0:
256,192,31395,1,0,0:0:0:0:
329,192,31570,1,8,0:0:0:0:
109,192,31744,1,0,0:0:0:0:
256,192,31831,1,0,0:0:0:0:
402,192,31919,1,0,0:0:0:0:
182,192,32093,1,0,0:0:0:0:
475,192,32268,1,8,0:0:0:0:
329,192,32442,1,0,0:0:0:0:
182,192,32616,1,8,0:0:0:0:
402,192,32791,1,8,0:0:0:0:
256,192,32965,1,8,0:0:0:0:
109,192,33140,1,8,0:0:0:0:
329,192,33314,1,8,0:0:0:0:
182,192,33488,1,8,0:0:0:0:
36,192,33663,128,0,34012:0:0:0:0:
475,192,33663,1,0,0:0:0:0:
329,192,34012,128,0,34186:0:0:0:0:
182,192,34012,1,8,0:0:0:0:
109,192,34186,128,0,34361:0:0:0:0:
475,192,34361,128,0,34535:0:0:0:0:
256,192,34535,128,0,34709:0:0:0:0:
36,192,34709,128,0,35058:0:0:0:0:
329,192,34709,1,8,0:0:0:0:
402,192,35058,128,0,35407:0:0:0:0:
109,192,35407,128,0,35581:0:0:0:0:
475,192,35407,1,8,0:0:0:0:
329,192,35581,128,0,35756:0:0:0:0:
182,192,35756,128,0,35930:0:0:0:0:
402,192,35930,128,0,36105:0:0:0:0:
256,192,36105,128,0,36454:0:0:0:0:
36,192,36105,1,0,0:0:0:0:
475,192,36454,128,0,36802:0:0:0:0:
36,192,36802,128,8,36977:0:0:0:0:
329,192,36802,1,0,0:0:0:0:
256,192,36977,128,0,37151:0:0:0:0:
109,192,37151,128,0,37326:0:0:0:0:
329,192,37326,128,0,37500:0:0:0:0:
182,192,37500,128,0,37849:0:0:0:0:
36,192,37500,1,8,0:0:0:0:
402,192,37849,128,0,38198:0:0:0:0:
256,192,38198,128,0,38372:0:0:0:0:
36,192,38198,1,8,0:0:0:0:
475,192,38372,128,0,38547:0:0:0:0:
256,192,38547,128,0,38721:0:0:0:0:
36,192,38721,128,0,38895:0:0:0:0:
329,192,38895,128,0,39244:0:0:0:0:
182,192,38895,1,8,0:0:0:0:
109,192,39244,128,0,40640:0:0:0:0:
475,192,39244,1,0,0:0:0:0:
329,192,39593,1,8,0:0:0:0:
475,192,39593,1,8,0:0:0:0:
256,192,39942,1,0,0:0:0:0:
329,192,40291,1,8,0:0:0:0:
475,192,40291,1,8,0:0:0:0:
402,192,40640,128,0,42035:0:0:0:0:
256,192,40640,1,0,0:0:0:0:
182,192,40988,1,8,0:0:0:0:
36,192,40988,1,0,0:0:0:0:
256,192,41337,1,0,0:0:0:0:
182,192,41686,1,8,0:0:0:0:
36,192,41686,1,0,0:0:0:0:
36,192,42035,128,0,42384:0:0:0:0:
475,192,42384,1,8,0:0:0:0:
182,192,42384,128,0,42558:0:0:0:0:
329,192,42558,128,0,42733:0:0:0:0:
475,192,42733,128,0,43081:0:0:0:0:
182,192,43081,128,0,43430:0:0:0:0:
36,192,43081,1,8,0:0:0:0:
256,192,43430,1,8,0:0:0:0:
475,192,43605,1,8,0:0:0:0:
182,192,43779,1,8,0:0:0:0:
402,192,43954,1,8,0:0:0:0:
109,192,44128,1,8,0:0:0:0:
329,192,44302,1,8,0:0:0:0:
36,192,44477,1,8,0:0:0:0:
256,192,44651,1,8,0:0:0:0:
475,192,44826,1,4,0:0:0:0:
329,192,46221,1,2,0:0:0:0:
256,192,47616,1,2,0:0:0:0:
182,192,49012,1,2,0:0:0:0:
109,192,50407,1,2,0:0:0:0:
182,192,51802,1,2,0:0:0:0:
256,192,53198,1,2,0:0:0:0:
329,192,54593,1,2,0:0:0:0:
36,192,55988,1,0,0:0:0:0:
475,192,55988,1,0,0:0:0:0:
182,192,56163,1,0,0:0:0:0:
329,192,56250,1,0,0:0:0:0:
182,192,56512,1,0,0:0:0:0:
329,192,56686,1,0,0:0:0:0:
109,192,56861,1,0,0:0:0:0:
402,192,57035,1,0,0:0:0:0:
182,192,57209,1,0,0:0:0:0:
475,192,57384,1,2,0:0:0:0:
256,192,57558,1,0,0:0:0:0:
402,192,57645,1,0,0:0:0:0:
109,192,57907,1,0,0:0:0:0:
329,192,58081,128,0,58430:0:0:0:0:
182,192,58430,128,0,58779:0:0:0:0:
475,192,58779,1,2,0:0:0:0:
256,192,58954,1,0,0:0:0:0:
402,192,59041,1,0,0:0:0:0:
182,192,59302,1,0,0:0:0:0:
475,192,59477,1,0,0:0:0:0:
329,192,59651,1,0,0:0:0:0:
182,192,59826,1,0,0:0:0:0:
36,192,60000,1,0,0:0:0:0:
329,192,60175,1,2,0:0:0:0:
182,192,60349,1,0,0:0:0:0:
329,192,60436,1,0,0:0:0:0:
109,192,60698,1,0,0:0:0:0:
475,192,60872,128,0,61221:0:0:0:0:
256,192,61047,1,0,0:0:0:0:
36,192,61221,128,0,61570:0:0:0:0:
256,192,61395,1,0,0:0:0:0:
256,192,61570,1,4,0:0:0:0:
475,192,62268,1,8,0:0:0:0:
256,192,62965,1,4,0:0:0:0:
36,192,63663,1,8,0:0:0:0:
256,192,64361,1,4,0:0:0:0:
475,192,64709,1,4,0:0:0:0:
256,192,65058,1,4,0:0:0:0:
36,192,65407,1,4,0:0:0:0:
475,192,65756,1,4,0:0:0:0:
256,192,65930,1,4,0:0:0:0:
36,192,66105,1,4,0:0:0:0:
256,192,66279,1,4,0:0:0:0:
475,192,66454,1,4,0:0:0:0:
36,192,66628,1,4,0:0:0:0:
475,192,66802,1,4,0:0:0:0:
329,192,66890,1,4,0:0:0:0:
182,192,66977,1,4,0:0:0:0:
36,192,67064,1,4,0:0:0:0:
329,192,67151,1,4,0:0:0:0:
475,192,67151,1,0,0:0:0:0:
256,192,67413,1,0,0:0:0:0:
182,192,67675,1,0,0:0:0:0:
109,192,68023,1,0,0:0:0:0:
182,192,68198,1,8,0:0:0:0:
256,192,68372,1,0,0:0:0:0:
329,192,68547,1,0,0:0:0:0:
475,192,68808,1,0,0:0:0:0:
402,192,69070,1,0,0:0:0:0:
182,192,69419,1,0,0:0:0:0:
256,192,69506,1,0,0:0:0:0:
329,192,69593,1,8,0:0:0:0:
182,192,69768,1,0,0:0:0:0:
329,192,69942,1,0,0:0:0:0:
109,192,70116,1,0,0:0:0:0:
256,192,70204,1,0,0:0:0:0:
402,192,70291,1,8,0:0:0:0:
182,192,70465,1,0,0:0:0:0:
329,192,70640,1,0,0:0:0:0:
36,192,70814,1,0,0:0:0:0:
182,192,70901,1,0,0:0:0:0:
329,192,70988,1,8,0:0:0:0:
475,192,71163,1,0,0:0:0:0:
329,192,71250,1,0,0:0:0:0:
182,192,71337,1,0,0:0:0:0:
109,192,71512,1,0,0:0:0:0:
402,192,71686,1,8,0:0:0:0:
256,192,71861,1,0,0:0:0:0:
402,192,72209,1,0,0:0:0:0:
329,192,72384,1,8,0:0:0:0:
256,192,72558,1,0,0:0:0:0:
182,192,72733,1,0,0:0:0:0:
36,192,72733,1,0,0:0:0:0:
329,192,72907,1,0,0:0:0:0:
329,192,73256,1,0,0:0:0:0:
402,192,73605,1,0,0:0:0:0:
256,192,73779,1,8,0:0:0:0:
402,192,73954,1,0,0:0:0:0:
329,192,74302,1,0,0:0:0:0:
182,192,74390,1,0,0:0:0:0:
329,192,74477,1,8,0:0:0:0:
182,192,74651,1,0,0:0:0:0:
36,192,74826,1,0,0:0:0:0:
182,192,75000,1,0,0:0:0:0:
329,192,75175,1,8,0:0:0:0:
475,192,75349,1,0,0:0:0:0:
256,192,75523,1,8,0:0:0:0:
329,192,75698,1,0,0:0:0:0:
182,192,75785,1,0,0:0:0:0:
36,192,75872,1,0,0:0:0:0:
256,192,76047,1,8,0:0:0:0:
475,192,76395,1,8,0:0:0:0:
329,192,76483,1,0,0:0:0:0:
182,192,76570,1,8,0:0:0:0:
256,192,76744,1,8,0:0:0:0:
256,192,77093,1,0,0:0:0:0:
256,192,77442,1,8,0:0:0:0:
256,192,77791,1,8,0:0:0:0:
109,192,77965,1,8,0:0:0:0:
256,192,78140,1,8,0:0:0:0:
402,192,78314,1,0,0:0:0:0:
475,192,78576,1,0,0:0:0:0:
329,192,78837,1,0,0:0:0:0:
329,192,79186,1,0,0:0:0:0:
182,192,79273,1,0,0:0:0:0:
36,192,79361,1,8,0:0:0:0:
256,192,79535,1,0,0:0:0:0:
402,192,79709,1,0,0:0:0:0:
182,192,79971,1,0,0:0:0:0:
475,192,80233,1,0,0:0:0:0:
329,192,80581,1,0,0:0:0:0:
182,192,80756,1,8,0:0:0:0:
256,192,80930,1,0,0:0:0:0:
329,192,81105,1,0,0:0:0:0:
109,192,81279,1,0,0:0:0:0:
256,192,81366,1,0,0:0:0:0:
402,192,81454,1,8,0:0:0:0:
256,192,81628,1,0,0:0:0:0:
182,192,81802,1,0,0:0:0:0:
329,192,81890,1,0,0:0:0:0:
182,192,81977,1,0,0:0:0:0:
329,192,82151,1,8,0:0:0:0:
36,192,82326,1,0,0:0:0:0:
182,192,82413,1,0,0:0:0:0:
329,192,82500,1,0,0:0:0:0:
402,192,82675,1,0,0:0:0:0:
256,192,82849,1,8,0:0:0:0:
475,192,83023,1,0,0:0:0:0:
182,192,83198,1,0,0:0:0:0:
402,192,83372,1,0,0:0:0:0:
109,192,83547,1,8,0:0:0:0:
329,192,83721,1,8,0:0:0:0:
36,192,83895,1,8,0:0:0:0:
256,192,84070,1,0,0:0:0:0:
36,192,84419,1,0,0:0:0:0:
256,192,84593,1,0,0:0:0:0:
182,192,84768,1,0,0:0:0:0:
256,192,84855,1,0,0:0:0:0:
329,192,84942,1,8,0:0:0:0:
402,192,85116,1,0,0:0:0:0:
256,192,85291,1,0,0:0:0:0:
475,192,85465,1,0,0:0:0:0:
256,192,85814,1,0,0:0:0:0:
475,192,85988,1,0,0:0:0:0:
182,192,86163,1,0,0:0:0:0:
329,192,86250,1,0,0:0:0:0:
182,192,86337,1,8,0:0:0:0:
36,192,86512,1,8,0:0:0:0:
329,192,86686,1,8,0:0:0:0:
475,192,86686,1,0,0:0:0:0:
182,192,86861,1,0,0:0:0:0:
256,192,86948,1,0,0:0:0:0:
329,192,87035,1,0,0:0:0:0:
402,192,87209,1,0,0:0:0:0:
182,192,87384,1,8,0:0:0:0:
36,192,87384,1,8,0:0:0:0:
329,192,87558,1,0,0:0:0:0:
256,192,87645,1,0,0:0:0:0:
182,192,87733,1,0,0:0:0:0:
402,192,87907,1,0,0:0:0:0:
182,192,88081,1,0,0:0:0:0:
36,192,88081,1,8,0:0:0:0:
36,192,89477,1,0,0:0:0:0:
475,192,89477,1,0,0:0:0:0:
109,192,89651,1,0,0:0:0:0:
402,192,89738,1,0,0:0:0:0:
256,192,89826,1,8,0:0:0:0:
182,192,90000,1,0,0:0:0:0:
329,192,90175,1,0,0:0:0:0:
109,192,90349,1,0,0:0:0:0:
182,192,90436,1,0,0:0:0:0:
256,192,90523,1,8,0:0:0:0:
329,192,90698,1,0,0:0:0:0:
402,192,90872,1,0,0:0:0:0:
182,192,91047,1,0,0:0:0:0:
329,192,91134,1,0,0:0:0:0:
256,192,91221,1,8,0:0:0:0:
109,192,91395,1,0,0:0:0:0:
402,192,91570,1,0,0:0:0:0:
182,192,91744,1,0,0:0:0:0:
329,192,91831,1,0,0:0:0:0:
182,192,91919,1,8,0:0:0:0:
256,192,92093,1,0,0:0:0:0:
475,192,92268,1,0,0:0:0:0:
36,192,92442,1,0,0:0:0:0:
329,192,92529,1,0,0:0:0:0:
182,192,92616,1,8,0:0:0:0:
109,192,92791,1,0,0:0:0:0:
402,192,92965,1,0,0:0:0:0:
182,192,93140,1,0,0:0:0:0:
329,192,93227,1,0,0:0:0:0:
475,192,93314,1,8,0:0:0:0:
109,192,93488,1,0,0:0:0:0:
475,192,93663,1,0,0:0:0:0:
256,192,93837,1,0,0:0:0:0:
402,192,94012,1,8,0:0:0:0:
182,192,94186,1,0,0:0:0:0:
329,192,94361,1,0,0:0:0:0:
109,192,94535,1,0,0:0:0:0:
256,192,94709,1,8,0:0:0:0:
36,192,94884,1,0,0:0:0:0:
329,192,95058,1,0,0:0:0:0:
475,192,95058,1,0,0:0:0:0:
109,192,95233,1,0,0:0:0:0:
402,192,95320,1,0,0:0:0:0:
256,192,95407,1,8,0:0:0:0:
182,192,95581,1,0,0:0:0:0:
329,192,95756,1,0,0:0:0:0:
36,192,95930,1,0,0:0:0:0:
182,192,96018,1,0,0:0:0:0:
329,192,96105,1,8,0:0:0:0:
402,192,96279,1,0,0:0:0:0:
475,192,96454,1,0,0:0:0:0:
182,192,96628,1,0,0:0:0:0:
329,192,96715,1,0,0:0:0:0:
256,192,96802,1,8,0:0:0:0:
109,192,96977,1,0,0:0:0:0:
402,192,97151,1,0,0:0:0:0:
182,192,97326,1,0,0:0:0:0:
329,192,97413,1,0,0:0:0:0:
182,192,97500,1,8,0:0:0:0:
256,192,97675,1,0,0:0:0:0:
475,192,97849,1,0,0:0:0:0:
36,192,98023,1,0,0:0:0:0:
329,192,98111,1,0,0:0:0:0:
182,192,98198,1,8,0:0:0:0:
109,192,98372,1,0,0:0:0:0:
36,192,98547,1,0,0:0:0:0:
182,192,98721,1,0,0:0:0:0:
329,192,98808,1,0,0:0:0:0:
475,192,98895,1,8,0:0:0:0:
109,192,99070,1,0,0:0:0:0:
182,192,99244,1,8,0:0:0:0:
256,192,99419,1,0,0:0:0:0:
329,192,99593,1,8,0:0:0:0:
109,192,99768,1,0,0:0:0:0:
256,192,99942,1,0,0:0:0:0:
402,192,100116,1,8,0:0:0:0:
256,192,100291,1,8,0:0:0:0:
109,192,100465,1,8,0:0:0:0:
329,192,100640,128,0,100988:0:0:0:0:
36,192,100640,1,0,0:0:0:0:
182,192,100640,1,0,0:0:0:0:
182,192,100988,128,8,101163:0:0:0:0:
402,192,101163,128,0,101337:0:0:0:0:
36,192,101337,128,0,101512:0:0:0:0:
256,192,101512,128,0,101686:0:0:0:0:
475,192,101686,128,0,102035:0:0:0:0:
182,192,101686,1,8,0:0:0:0:
109,192,102035,128,0,102384:0:0:0:0:
402,192,102384,128,0,102558:0:0:0:0:
36,192,102384,1,8,0:0:0:0:
182,192,102558,128,0,102733:0:0:0:0:
329,192,102733,128,0,102907:0:0:0:0:
109,192,102907,128,0,103081:0:0:0:0:
256,192,103081,128,0,103430:0:0:0:0:
475,192,103081,1,8,0:0:0:0:
36,192,103430,128,0,103779:0:0:0:0:
182,192,103779,1,8,0:0:0:0:
475,192,103779,128,0,103954:0:0:0:0:
256,192,103954,128,0,104128:0:0:0:0:
402,192,104128,128,0,104302:0:0:0:0:
182,192,104302,128,0,104477:0:0:0:0:
329,192,104477,128,0,104826:0:0:0:0:
475,192,104477,1,8,0:0:0:0:
109,192,104826,128,0,105175:0:0:0:0:
256,192,105175,128,0,105349:0:0:0:0:
475,192,105175,1,8,0:0:0:0:
36,192,105349,128,0,105523:0:0:0:0:
256,192,105523,128,0,105698:0:0:0:0:
475,192,105698,128,0,105872:0:0:0:0:
182,192,105872,128,0,106221:0:0:0:0:
329,192,105872,1,8,0:0:0:0:
402,192,106221,128,0,107616:0:0:0:0:
36,192,106221,1,8,0:0:0:0:
182,192,106570,1,8,0:0:0:0:
36,192,106570,1,0,0:0:0:0:
256,192,106919,1,0,0:0:0:0:
182,192,107268,1,8,0:0:0:0:
36,192,107268,1,0,0:0:0:0:
109,192,107616,128,0,109012:0:0:0:0:
256,192,107616,1,0,0:0:0:0:
329,192,107965,1,8,0:0:0:0:
475,192,107965,1,0,0:0:0:0:
256,192,108314,1,0,0:0:0:0:
329,192,108663,1,8,0:0:0:0:
475,192,108663,1,0,0:0:0:0:
402,192,109012,128,0,109361:0:0:0:0:
182,192,109361,128,0,109535:0:0:0:0:
36,192,109361,1,8,0:0:0:0:
329,192,109535,128,0,109709:0:0:0:0:
475,192,109709,128,0,110058:0:0:0:0:
182,192,110058,128,0,110407:0:0:0:0:
329,192,110058,1,8,0:0:0:0:
36,192,110407,1,8,0:0:0:0:
256,192,110581,1,8,0:0:0:0:
109,192,110756,1,8,0:0:0:0:
329,192,110930,1,8,0:0:0:0:
182,192,111105,1,8,0:0:0:0:
402,192,111279,1,8,0:0:0:0:
256,192,111454,1,8,0:0:0:0:
475,192,111628,1,8,0:0:0:0:
182,192,112326,1,0,0:0:0:0:
329,192,112369,1,0,0:0:0:0:
