osu file format v14

[General]
AudioFilename: nanatsu issenzakura.mp3
AudioLeadIn: 0
PreviewTime: 22413
Countdown: 0
SampleSet: Normal
StackLeniency: 0.7
Mode: 1
LetterboxInBreaks: 0
WidescreenStoryboard: 0

[Editor]
DistanceSpacing: 0.9
BeatDivisor: 2
GridSize: 8
TimelineZoom: 2.2

[Metadata]
Title:Nanatsu Issenzakura
TitleUnicode:七つ一旋桜
Artist:A.SAKA
ArtistUnicode:A.SAKA
Creator:Nofool
Version:Oni
Source:
Tags:tasuke912 木製みゅーと 神楽ノ花
BeatmapID:713307
BeatmapSetID:320555

[Difficulty]
HPDrainRate:6
CircleSize:5
OverallDifficulty:5
ApproachRate:5
SliderMultiplier:1.4
SliderTickRate:1

[Events]
//Background and Video events
0,0,"BG.jpg",0,0
//Break Periods
2,45026,54788
//Storyboard Layer 0 (Background)
//Storyboard Layer 1 (Fail)
//Storyboard Layer 2 (Pass)
//Storyboard Layer 3 (Foreground)
//Storyboard Sound Samples

[TimingPoints]
175,348.837209302326,4,1,0,80,1,0
175,-125,4,1,0,80,0,0
20407,-120.481927710843,4,1,0,80,0,0
21105,-117.647058823529,4,1,0,80,0,0
21454,-111.111111111111,4,1,0,80,0,0
21802,-105.263157894737,4,1,0,80,0,0
21977,-104.166666666667,4,1,0,80,0,0
22064,-103.092783505155,4,1,0,80,0,0
22151,-102.040816326531,4,1,0,80,0,0
22326,-101.010101010101,4,1,0,80,0,0
22500,-100,4,1,0,80,0,1
44826,-100,4,1,0,80,0,0
46221,-125,4,1,0,80,0,0
65756,-123.456790123457,4,1,0,80,0,0
65930,-121.951219512195,4,1,0,80,0,0
66105,-120.481927710843,4,1,0,80,0,0
66279,-119.047619047619,4,1,0,80,0,0
66454,-117.647058823529,4,1,0,80,0,0
66628,-113.636363636364,4,1,0,80,0,0
66802,-111.111111111111,4,1,0,80,0,0
66890,-107.52688172043,4,1,0,80,0,0
66977,-105.263157894737,4,1,0,80,0,0
67151,-100,4,1,0,80,0,0
89477,-100,4,1,0,80,0,1
111802,-100,4,1,0,80,0,0
112326,-50,4,1,0,80,0,0

[HitObjects]
257,193,175,5,0,0:0:0:0:
257,193,1570,1,8,0:0:0:0:
257,193,2965,1,0,0:0:0:0:
257,193,4361,1,8,0:0:0:0:
257,193,5756,1,4,0:0:0:0:
257,193,7151,1,8,0:0:0:0:
257,193,8547,1,0,0:0:0:0:
257,193,9942,1,8,0:0:0:0:
257,193,11337,1,0,0:0:0:0:
257,193,12035,1,0,0:0:0:0:
257,193,12733,1,8,0:0:0:0:
257,193,14128,1,0,0:0:0:0:
257,193,14826,1,0,0:0:0:0:
257,193,15523,1,8,0:0:0:0:
257,193,16919,1,4,0:0:0:0:
257,193,18314,1,8,0:0:0:0:
257,193,19709,1,0,0:0:0:0:
257,193,20407,1,0,0:0:0:0:
257,193,21105,1,0,0:0:0:0:
257,193,21454,1,0,0:0:0:0:
257,193,21802,1,0,0:0:0:0:
257,193,21977,1,0,0:0:0:0:
257,193,22064,1,0,0:0:0:0:
257,193,22151,1,0,0:0:0:0:
257,193,22326,1,8,0:0:0:0:
257,193,22500,1,4,0:0:0:0:
257,193,22675,1,8,0:0:0:0:
257,193,22762,1,8,0:0:0:0:
257,193,22849,1,0,0:0:0:0:
257,193,23023,1,8,0:0:0:0:
257,193,23198,1,0,0:0:0:0:
257,193,23372,1,0,0:0:0:0:
257,193,23459,1,0,0:0:0:0:
257,193,23547,1,8,0:0:0:0:
257,193,23721,1,8,0:0:0:0:
257,193,23895,1,0,0:0:0:0:
257,193,24070,1,8,0:0:0:0:
257,193,24157,1,0,0:0:0:0:
257,193,24244,1,8,0:0:0:0:
257,193,24419,1,0,0:0:0:0:
257,193,24593,1,8,0:0:0:0:
257,193,24768,1,0,0:0:0:0:
257,193,24855,1,8,0:0:0:0:
257,193,24942,1,0,0:0:0:0:
257,193,25116,1,8,0:0:0:0:
257,193,25291,1,0,0:0:0:0:
257,193,25465,1,8,0:0:0:0:
257,193,25552,1,8,0:0:0:0:
257,193,25640,1,0,0:0:0:0:
257,193,25814,1,8,0:0:0:0:
257,193,25988,1,0,0:0:0:0:
257,193,26163,1,0,0:0:0:0:
257,193,26250,1,0,0:0:0:0:
257,193,26337,1,8,0:0:0:0:
257,193,26512,1,0,0:0:0:0:
257,193,26686,1,8,0:0:0:0:
257,193,27035,1,0,0:0:0:0:
257,193,27384,1,8,0:0:0:0:
257,193,27558,1,0,0:0:0:0:
257,193,27733,1,8,0:0:0:0:
257,193,27820,1,0,0:0:0:0:
257,193,27907,1,8,0:0:0:0:
257,193,28081,1,4,0:0:0:0:
257,193,28256,1,8,0:0:0:0:
257,193,28343,1,8,0:0:0:0:
257,193,28430,1,0,0:0:0:0:
257,193,28605,1,8,0:0:0:0:
257,193,28779,1,0,0:0:0:0:
257,193,28954,1,0,0:0:0:0:
257,193,29041,1,0,0:0:0:0:
257,193,29128,1,8,0:0:0:0:
257,193,29302,1,8,0:0:0:0:
257,193,29477,1,0,0:0:0:0:
257,193,29651,1,8,0:0:0:0:
257,193,29738,1,0,0:0:0:0:
257,193,29826,1,8,0:0:0:0:
257,193,30000,1,0,0:0:0:0:
257,193,30175,1,8,0:0:0:0:
257,193,30349,1,0,0:0:0:0:
257,193,30436,1,8,0:0:0:0:
257,193,30523,1,0,0:0:0:0:
257,193,30698,1,8,0:0:0:0:
257,193,30872,1,0,0:0:0:0:
257,193,31047,1,0,0:0:0:0:
257,193,31134,1,8,0:0:0:0:
257,193,31221,1,0,0:0:0:0:
257,193,31395,1,8,0:0:0:0:
257,193,31570,1,0,0:0:0:0:
257,193,31744,1,8,0:0:0:0:
257,193,31831,1,8,0:0:0:0:
257,193,31919,1,0,0:0:0:0:
257,193,32093,1,0,0:0:0:0:
257,193,32268,1,8,0:0:0:0:
257,193,32616,1,0,0:0:0:0:
257,193,32791,1,8,0:0:0:0:
257,193,32878,1,8,0:0:0:0:
257,193,32965,1,0,0:0:0:0:
257,193,33140,1,8,0:0:0:0:
257,193,33227,1,8,0:0:0:0:
257,193,33314,1,8,0:0:0:0:
257,193,33401,1,0,0:0:0:0:
257,193,33488,1,8,0:0:0:0:
257,193,33663,1,4,0:0:0:0:
257,193,33837,1,8,0:0:0:0:
257,193,33925,1,8,0:0:0:0:
257,193,34012,1,0,0:0:0:0:
257,193,34186,1,8,0:0:0:0:
257,193,34361,1,0,0:0:0:0:
257,193,34535,1,8,0:0:0:0:
257,193,34622,1,0,0:0:0:0:
257,193,34709,1,8,0:0:0:0:
257,193,34884,1,8,0:0:0:0:
257,193,35058,1,0,0:0:0:0:
257,193,35233,1,8,0:0:0:0:
257,193,35320,1,8,0:0:0:0:
257,193,35407,1,0,0:0:0:0:
257,193,35581,1,8,0:0:0:0:
257,193,35756,1,0,0:0:0:0:
257,193,35930,1,8,0:0:0:0:
257,193,36018,1,0,0:0:0:0:
257,193,36105,1,0,0:0:0:0:
257,193,36279,1,8,0:0:0:0:
257,193,36454,1,0,0:0:0:0:
257,193,36628,1,8,0:0:0:0:
257,193,36715,1,8,0:0:0:0:
257,193,36802,1,0,0:0:0:0:
257,193,36977,1,8,0:0:0:0:
257,193,37151,1,0,0:0:0:0:
257,193,37326,1,8,0:0:0:0:
257,193,37413,1,0,0:0:0:0:
257,193,37500,1,8,0:0:0:0:
257,193,37675,1,0,0:0:0:0:
257,193,37849,1,8,0:0:0:0:
257,193,38198,1,0,0:0:0:0:
257,193,38547,1,8,0:0:0:0:
257,193,38721,1,0,0:0:0:0:
257,193,38895,1,8,0:0:0:0:
257,193,38983,1,0,0:0:0:0:
257,193,39070,1,8,0:0:0:0:
257,193,39244,1,4,0:0:0:0:
257,193,39419,1,8,0:0:0:0:
257,193,39506,1,8,0:0:0:0:
257,193,39593,1,0,0:0:0:0:
257,193,39768,1,8,0:0:0:0:
257,193,39942,1,0,0:0:0:0:
257,193,40116,1,8,0:0:0:0:
257,193,40204,1,0,0:0:0:0:
257,193,40291,1,8,0:0:0:0:
257,193,40465,1,8,0:0:0:0:
257,193,40640,1,0,0:0:0:0:
257,193,40814,1,8,0:0:0:0:
257,193,40901,1,8,0:0:0:0:
257,193,40988,1,0,0:0:0:0:
257,193,41163,1,8,0:0:0:0:
257,193,41337,1,0,0:0:0:0:
257,193,41512,1,8,0:0:0:0:
257,193,41599,1,0,0:0:0:0:
257,193,41686,1,0,0:0:0:0:
257,193,41861,1,8,0:0:0:0:
257,193,42035,1,0,0:0:0:0:
257,193,42209,1,8,0:0:0:0:
257,193,42297,1,8,0:0:0:0:
257,193,42384,1,0,0:0:0:0:
257,193,42558,1,8,0:0:0:0:
257,193,42733,1,0,0:0:0:0:
257,193,42907,1,0,0:0:0:0:
257,193,42994,1,0,0:0:0:0:
257,193,43081,1,8,0:0:0:0:
257,193,43256,1,8,0:0:0:0:
257,193,43430,1,0,0:0:0:0:
257,193,43605,1,0,0:0:0:0:
257,193,43779,1,8,0:0:0:0:
257,193,43954,1,8,0:0:0:0:
257,193,44128,1,0,0:0:0:0:
257,193,44302,1,8,0:0:0:0:
257,193,44390,1,0,0:0:0:0:
257,193,44477,1,8,0:0:0:0:
257,193,44651,1,8,0:0:0:0:
257,193,44826,1,4,0:0:0:0:
257,193,55988,5,0,0:0:0:0:
257,193,57384,5,8,0:0:0:0:
257,193,58779,5,0,0:0:0:0:
257,193,60175,5,8,0:0:0:0:
257,193,61047,5,0,0:0:0:0:
257,193,61395,1,0,0:0:0:0:
257,193,61570,1,0,0:0:0:0:
257,193,62268,1,8,0:0:0:0:
257,193,62965,1,0,0:0:0:0:
257,193,63663,1,8,0:0:0:0:
257,193,64361,1,0,0:0:0:0:
257,193,64709,1,8,0:0:0:0:
257,193,65058,1,0,0:0:0:0:
257,193,65407,1,8,0:0:0:0:
257,193,65756,1,0,0:0:0:0:
257,193,65930,1,0,0:0:0:0:
257,193,66105,1,8,0:0:0:0:
257,193,66279,1,0,0:0:0:0:
257,193,66454,1,8,0:0:0:0:
257,193,66628,1,8,0:0:0:0:
257,193,66802,1,0,0:0:0:0:
257,193,66890,1,0,0:0:0:0:
257,193,66977,1,8,0:0:0:0:
257,193,67151,1,4,0:0:0:0:
257,193,67413,1,0,0:0:0:0:
257,193,67500,1,8,0:0:0:0:
257,193,67675,1,8,0:0:0:0:
257,193,67849,1,0,0:0:0:0:
257,193,68023,1,0,0:0:0:0:
257,193,68111,1,0,0:0:0:0:
257,193,68198,1,8,0:0:0:0:
257,193,68372,1,8,0:0:0:0:
257,193,68547,1,0,0:0:0:0:
257,193,68808,1,0,0:0:0:0:
257,193,68895,1,8,0:0:0:0:
257,193,69070,1,8,0:0:0:0:
257,193,69244,1,0,0:0:0:0:
257,193,69419,1,8,0:0:0:0:
257,193,69506,1,8,0:0:0:0:
257,193,69593,1,0,0:0:0:0:
257,193,69768,1,8,0:0:0:0:
257,193,69942,1,0,0:0:0:0:
257,193,70116,1,0,0:0:0:0:
257,193,70204,1,0,0:0:0:0:
257,193,70291,1,8,0:0:0:0:
257,193,70465,1,0,0:0:0:0:
257,193,70640,1,8,0:0:0:0:
257,193,70814,1,0,0:0:0:0:
257,193,70901,1,8,0:0:0:0:
257,193,70988,1,8,0:0:0:0:
257,193,71163,1,0,0:0:0:0:
257,193,71250,1,8,0:0:0:0:
257,193,71337,1,8,0:0:0:0:
257,193,71512,1,0,0:0:0:0:
257,193,71686,1,8,0:0:0:0:
257,193,71861,1,0,0:0:0:0:
257,193,72209,1,8,0:0:0:0:
257,193,72384,1,0,0:0:0:0:
257,193,72471,1,0,0:0:0:0:
257,193,72558,1,8,0:0:0:0:
257,193,72733,1,4,0:0:0:0:
257,193,72907,1,0,0:0:0:0:
257,193,73081,1,8,0:0:0:0:
257,193,73256,1,0,0:0:0:0:
257,193,73343,1,0,0:0:0:0:
257,193,73430,1,0,0:0:0:0:
257,193,73605,1,0,0:0:0:0:
257,193,73779,1,8,0:0:0:0:
257,193,74128,1,0,0:0:0:0:
257,193,74302,1,8,0:0:0:0:
257,193,74390,1,8,0:0:0:0:
257,193,74477,1,0,0:0:0:0:
257,193,74651,1,8,0:0:0:0:
257,193,74826,1,0,0:0:0:0:
257,193,75000,1,0,0:0:0:0:
257,193,75175,1,8,0:0:0:0:
257,193,75349,1,8,0:0:0:0:
257,193,75523,1,0,0:0:0:0:
257,193,75872,1,8,0:0:0:0:
257,193,76047,1,0,0:0:0:0:
257,193,76395,1,8,0:0:0:0:
257,193,76570,1,0,0:0:0:0:
257,193,76744,1,8,0:0:0:0:
257,193,77093,1,8,0:0:0:0:
257,193,77268,1,0,0:0:0:0:
257,193,77442,1,8,0:0:0:0:
257,193,77529,1,8,0:0:0:0:
257,193,77616,1,0,0:0:0:0:
257,193,77791,1,8,0:0:0:0:
257,193,77878,1,8,0:0:0:0:
257,193,77965,1,0,0:0:0:0:
257,193,78052,1,0,0:0:0:0:
257,193,78140,1,8,0:0:0:0:
257,193,78314,1,4,0:0:0:0:
257,193,78576,1,0,0:0:0:0:
257,193,78663,1,8,0:0:0:0:
257,193,78838,1,8,0:0:0:0:
257,193,79012,1,0,0:0:0:0:
257,193,79186,1,0,0:0:0:0:
257,193,79274,1,0,0:0:0:0:
257,193,79361,1,8,0:0:0:0:
257,193,79535,1,8,0:0:0:0:
257,193,79710,1,0,0:0:0:0:
257,193,79971,1,0,0:0:0:0:
257,193,80058,1,8,0:0:0:0:
257,193,80233,1,8,0:0:0:0:
257,193,80407,1,0,0:0:0:0:
257,193,80582,1,8,0:0:0:0:
257,193,80669,1,8,0:0:0:0:
257,193,80756,1,0,0:0:0:0:
257,193,80931,1,8,0:0:0:0:
257,193,81105,1,0,0:0:0:0:
257,193,81279,1,0,0:0:0:0:
257,193,81366,1,8,0:0:0:0:
257,193,81454,1,0,0:0:0:0:
257,193,81628,1,8,0:0:0:0:
257,193,81802,1,0,0:0:0:0:
257,193,81890,1,0,0:0:0:0:
257,193,81977,1,8,0:0:0:0:
257,193,82151,1,0,0:0:0:0:
257,193,82326,1,8,0:0:0:0:
257,193,82500,1,4,0:0:0:0:
257,193,82849,1,0,0:0:0:0:
257,193,83198,1,8,0:0:0:0:
257,193,83372,1,8,0:0:0:0:
257,193,83547,1,4,0:0:0:0:
257,193,83896,1,4,0:0:0:0:
257,193,84070,1,0,0:0:0:0:
257,193,84244,1,8,0:0:0:0:
257,193,84419,1,0,0:0:0:0:
257,193,84506,1,0,0:0:0:0:
257,193,84593,1,0,0:0:0:0:
257,193,84768,1,0,0:0:0:0:
257,193,84855,1,0,0:0:0:0:
257,193,84942,1,8,0:0:0:0:
257,193,85116,1,8,0:0:0:0:
257,193,85291,1,0,0:0:0:0:
257,193,85465,1,8,0:0:0:0:
257,193,85814,1,0,0:0:0:0:
257,193,85988,1,8,0:0:0:0:
257,193,86163,1,0,0:0:0:0:
257,193,86250,1,8,0:0:0:0:
257,193,86338,1,0,0:0:0:0:
257,193,86512,1,8,0:0:0:0:
257,193,86686,1,0,0:0:0:0:
257,193,86861,1,8,0:0:0:0:
257,193,86948,1,8,0:0:0:0:
257,193,87035,1,0,0:0:0:0:
257,193,87209,1,8,0:0:0:0:
257,193,87384,1,0,0:0:0:0:
257,193,87558,1,0,0:0:0:0:
257,193,87645,1,0,0:0:0:0:
257,193,87733,1,8,0:0:0:0:
257,193,87907,1,8,0:0:0:0:
257,193,88081,1,0,0:0:0:0:
257,193,88256,1,8,0:0:0:0:
257,193,88431,1,0,0:0:0:0:
257,193,88605,1,8,0:0:0:0:
257,193,88692,1,8,0:0:0:0:
257,193,88779,1,0,0:0:0:0:
257,193,88954,1,8,0:0:0:0:
257,193,89041,1,8,0:0:0:0:
257,193,89128,1,0,0:0:0:0:
257,193,89215,1,0,0:0:0:0:
257,193,89303,1,8,0:0:0:0:
257,193,89477,1,4,0:0:0:0:
257,193,89651,1,8,0:0:0:0:
257,193,89738,1,8,0:0:0:0:
257,193,89825,1,0,0:0:0:0:
257,193,89999,1,8,0:0:0:0:
257,193,90174,1,0,0:0:0:0:
257,193,90348,1,0,0:0:0:0:
257,193,90435,1,0,0:0:0:0:
257,193,90523,1,8,0:0:0:0:
257,193,90697,1,8,0:0:0:0:
257,193,90871,1,0,0:0:0:0:
257,193,91046,1,8,0:0:0:0:
257,193,91133,1,0,0:0:0:0:
257,193,91220,1,8,0:0:0:0:
257,193,91395,1,0,0:0:0:0:
257,193,91569,1,8,0:0:0:0:
257,193,91744,1,0,0:0:0:0:
257,193,91831,1,8,0:0:0:0:
257,193,91918,1,0,0:0:0:0:
257,193,92092,1,8,0:0:0:0:
257,193,92267,1,0,0:0:0:0:
257,193,92441,1,8,0:0:0:0:
257,193,92528,1,8,0:0:0:0:
257,193,92616,1,0,0:0:0:0:
257,193,92790,1,8,0:0:0:0:
257,193,92964,1,0,0:0:0:0:
257,193,93139,1,0,0:0:0:0:
257,193,93226,1,0,0:0:0:0:
257,193,93313,1,8,0:0:0:0:
257,193,93488,1,0,0:0:0:0:
257,193,93662,1,8,0:0:0:0:
257,193,94011,1,0,0:0:0:0:
257,193,94360,1,8,0:0:0:0:
257,193,94534,1,0,0:0:0:0:
257,193,94709,1,8,0:0:0:0:
257,193,94796,1,0,0:0:0:0:
257,193,94883,1,8,0:0:0:0:
257,193,95057,1,4,0:0:0:0:
257,193,95232,1,8,0:0:0:0:
257,193,95319,1,8,0:0:0:0:
257,193,95406,1,0,0:0:0:0:
257,193,95581,1,8,0:0:0:0:
257,193,95755,1,0,0:0:0:0:
257,193,95930,1,0,0:0:0:0:
257,193,96017,1,0,0:0:0:0:
257,193,96104,1,8,0:0:0:0:
257,193,96278,1,8,0:0:0:0:
257,193,96453,1,0,0:0:0:0:
257,193,96627,1,8,0:0:0:0:
257,193,96714,1,0,0:0:0:0:
257,193,96802,1,8,0:0:0:0:
257,193,96976,1,0,0:0:0:0:
257,193,97151,1,8,0:0:0:0:
257,193,97325,1,0,0:0:0:0:
257,193,97412,1,8,0:0:0:0:
257,193,97499,1,0,0:0:0:0:
257,193,97674,1,8,0:0:0:0:
257,193,97848,1,0,0:0:0:0:
257,193,98023,1,0,0:0:0:0:
257,193,98110,1,8,0:0:0:0:
257,193,98197,1,0,0:0:0:0:
257,193,98371,1,8,0:0:0:0:
257,193,98546,1,0,0:0:0:0:
257,193,98720,1,8,0:0:0:0:
257,193,98807,1,8,0:0:0:0:
257,193,98895,1,0,0:0:0:0:
257,193,99069,1,0,0:0:0:0:
257,193,99244,1,8,0:0:0:0:
257,193,99592,1,0,0:0:0:0:
257,193,99767,1,8,0:0:0:0:
257,193,99854,1,8,0:0:0:0:
257,193,99941,1,0,0:0:0:0:
257,193,100116,1,8,0:0:0:0:
257,193,100203,1,8,0:0:0:0:
257,193,100290,1,8,0:0:0:0:
257,193,100377,1,0,0:0:0:0:
257,193,100464,1,8,0:0:0:0:
257,193,100639,1,4,0:0:0:0:
257,193,100813,1,8,0:0:0:0:
257,193,100901,1,8,0:0:0:0:
257,193,100988,1,0,0:0:0:0:
257,193,101162,1,8,0:0:0:0:
257,193,101337,1,0,0:0:0:0:
257,193,101511,1,8,0:0:0:0:
257,193,101599,1,0,0:0:0:0:
257,193,101685,1,8,0:0:0:0:
257,193,101861,1,8,0:0:0:0:
257,193,102034,1,0,0:0:0:0:
257,193,102209,1,8,0:0:0:0:
257,193,102296,1,8,0:0:0:0:
257,193,102383,1,0,0:0:0:0:
257,193,102557,1,8,0:0:0:0:
257,193,102732,1,0,0:0:0:0:
257,193,102906,1,8,0:0:0:0:
257,193,102994,1,0,0:0:0:0:
257,193,103081,1,0,0:0:0:0:
257,193,103256,1,8,0:0:0:0:
257,193,103430,1,0,0:0:0:0:
257,193,103604,1,8,0:0:0:0:
257,193,103691,1,8,0:0:0:0:
257,193,103778,1,0,0:0:0:0:
257,193,103953,1,8,0:0:0:0:
257,193,104127,1,0,0:0:0:0:
257,193,104302,1,8,0:0:0:0:
257,193,104389,1,0,0:0:0:0:
257,193,104476,1,8,0:0:0:0:
257,193,104651,1,0,0:0:0:0:
257,193,104825,1,8,0:0:0:0:
257,193,105174,1,0,0:0:0:0:
257,193,105523,1,8,0:0:0:0:
257,193,105697,1,0,0:0:0:0:
257,193,105871,1,8,0:0:0:0:
257,193,105959,1,0,0:0:0:0:
257,193,106046,1,8,0:0:0:0:
257,193,106220,1,4,0:0:0:0:
257,193,106395,1,8,0:0:0:0:
257,193,106482,1,8,0:0:0:0:
257,193,106569,1,0,0:0:0:0:
257,193,106744,1,8,0:0:0:0:
257,193,106918,1,0,0:0:0:0:
257,193,107092,1,8,0:0:0:0:
257,193,107180,1,0,0:0:0:0:
257,193,107267,1,8,0:0:0:0:
257,193,107442,1,8,0:0:0:0:
257,193,107616,1,0,0:0:0:0:
257,193,107790,1,8,0:0:0:0:
257,193,107877,1,8,0:0:0:0:
257,193,107964,1,0,0:0:0:0:
257,193,108139,1,8,0:0:0:0:
257,193,108313,1,0,0:0:0:0:
257,193,108488,1,8,0:0:0:0:
257,193,108576,1,0,0:0:0:0:
257,193,108662,1,0,0:0:0:0:
257,193,108837,1,8,0:0:0:0:
257,193,109011,1,0,0:0:0:0:
257,193,109185,1,8,0:0:0:0:
257,193,109273,1,8,0:0:0:0:
257,193,109360,1,0,0:0:0:0:
257,193,109534,1,8,0:0:0:0:
257,193,109709,1,0,0:0:0:0:
257,193,109883,1,0,0:0:0:0:
257,193,109971,1,0,0:0:0:0:
257,193,110057,1,8,0:0:0:0:
257,193,110233,1,8,0:0:0:0:
257,193,110406,1,0,0:0:0:0:
257,193,110581,1,0,0:0:0:0:
257,193,110755,1,8,0:0:0:0:
257,193,110930,1,8,0:0:0:0:
257,193,111104,1,0,0:0:0:0:
257,193,111279,1,8,0:0:0:0:
257,193,111366,1,8,0:0:0:0:
257,193,111454,1,0,0:0:0:0:
257,193,111541,1,0,0:0:0:0:
257,193,111628,1,8,0:0:0:0:
257,193,112326,1,8,0:0:0:0:
