osu file format v14

[General]
AudioFilename: nanatsu issenzakura.mp3
AudioLeadIn: 0
PreviewTime: 22413
Countdown: 0
SampleSet: Normal
StackLeniency: 0.7
Mode: 1
LetterboxInBreaks: 0
WidescreenStoryboard: 0

[Editor]
DistanceSpacing: 0.9
BeatDivisor: 2
GridSize: 8
TimelineZoom: 1.9

[Metadata]
Title:Nanatsu Issenzakura
TitleUnicode:七つ一旋桜
Artist:A.SAKA
ArtistUnicode:A.SAKA
Creator:Nofool
Version:Futsuu
Source:
Tags:tasuke912 木製みゅーと 神楽ノ花
BeatmapID:713304
BeatmapSetID:320555

[Difficulty]
HPDrainRate:7
CircleSize:5
OverallDifficulty:4
ApproachRate:5
SliderMultiplier:1.4
SliderTickRate:1

[Events]
//Background and Video events
0,0,"BG.jpg",0,0
//Break Periods
2,45026,54788
//Storyboard Layer 0 (Background)
//Storyboard Layer 1 (Fail)
//Storyboard Layer 2 (Pass)
//Storyboard Layer 3 (Foreground)
//Storyboard Sound Samples

[TimingPoints]
175,348.837209302326,4,1,0,80,1,0
22500,-100,4,1,0,80,0,1
44826,-100,4,1,0,80,0,0
89477,-100,4,1,0,80,0,1
111802,-100,4,1,0,80,0,0

[HitObjects]
256,192,175,5,0,0:0:0:0:
256,192,2965,1,0,0:0:0:0:
256,192,5756,1,4,0:0:0:0:
256,192,8547,1,0,0:0:0:0:
256,192,11337,1,0,0:0:0:0:
256,192,12733,1,8,0:0:0:0:
256,192,13430,1,0,0:0:0:0:
256,192,14128,1,0,0:0:0:0:
256,192,15523,1,8,0:0:0:0:
256,192,16919,1,4,0:0:0:0:
256,192,18314,1,8,0:0:0:0:
256,192,19709,1,0,0:0:0:0:
256,192,20407,1,0,0:0:0:0:
256,192,21105,1,0,0:0:0:0:
256,192,21454,1,0,0:0:0:0:
256,192,21802,1,0,0:0:0:0:
256,192,21977,1,0,0:0:0:0:
256,192,22151,1,0,0:0:0:0:
256,192,22500,1,4,0:0:0:0:
256,192,23198,1,8,0:0:0:0:
256,192,23895,1,0,0:0:0:0:
256,192,24593,1,0,0:0:0:0:
256,192,24768,1,0,0:0:0:0:
256,192,24942,1,8,0:0:0:0:
256,192,25291,1,0,0:0:0:0:
256,192,25988,1,0,0:0:0:0:
256,192,26686,1,8,0:0:0:0:
256,192,27035,1,0,0:0:0:0:
256,192,27384,1,8,0:0:0:0:
256,192,27558,1,8,0:0:0:0:
256,192,27733,1,8,0:0:0:0:
256,192,28081,1,4,0:0:0:0:
256,192,28779,1,8,0:0:0:0:
256,192,29477,1,0,0:0:0:0:
256,192,30175,1,0,0:0:0:0:
256,192,30349,1,0,0:0:0:0:
256,192,30523,1,8,0:0:0:0:
256,192,30872,1,0,0:0:0:0:
256,192,31570,1,0,0:0:0:0:
256,192,32268,1,8,0:0:0:0:
260,201,32616,1,0,0:0:0:0:
256,192,32965,1,8,0:0:0:0:
256,192,33140,1,8,0:0:0:0:
256,192,33314,1,8,0:0:0:0:
256,192,33663,1,4,0:0:0:0:
256,192,34709,1,8,0:0:0:0:
256,192,35058,1,0,0:0:0:0:
256,192,35756,1,8,0:0:0:0:
256,192,36105,1,8,0:0:0:0:
256,192,36279,1,8,0:0:0:0:
256,192,36454,1,0,0:0:0:0:
256,192,37151,1,0,0:0:0:0:
256,192,37500,1,8,0:0:0:0:
256,192,37849,1,8,0:0:0:0:
256,192,38198,1,0,0:0:0:0:
256,192,38547,1,8,0:0:0:0:
256,192,38721,1,8,0:0:0:0:
256,192,38895,1,8,0:0:0:0:
256,192,39244,1,4,0:0:0:0:
256,192,40291,1,8,0:0:0:0:
256,192,40640,1,0,0:0:0:0:
256,192,41337,1,8,0:0:0:0:
256,192,41686,1,8,0:0:0:0:
256,192,41861,1,8,0:0:0:0:
256,192,42035,1,0,0:0:0:0:
256,192,42733,1,0,0:0:0:0:
256,192,43081,1,0,0:0:0:0:
256,192,43430,1,8,0:0:0:0:
256,192,43779,1,0,0:0:0:0:
256,192,44128,1,8,0:0:0:0:
256,192,44302,1,8,0:0:0:0:
256,192,44477,1,8,0:0:0:0:
256,192,44826,1,4,0:0:0:0:
256,192,55988,5,0,0:0:0:0:
256,192,57384,1,8,0:0:0:0:
256,192,58779,1,0,0:0:0:0:
256,192,60175,1,8,0:0:0:0:
256,192,61570,1,0,0:0:0:0:
256,192,62268,1,8,0:0:0:0:
256,192,62965,1,0,0:0:0:0:
256,192,63663,1,8,0:0:0:0:
256,192,64361,1,0,0:0:0:0:
256,192,64709,1,8,0:0:0:0:
256,192,65058,1,0,0:0:0:0:
256,192,65407,1,8,0:0:0:0:
256,192,65756,1,0,0:0:0:0:
256,192,65930,1,0,0:0:0:0:
256,192,66105,1,0,0:0:0:0:
256,192,66454,1,8,0:0:0:0:
256,192,66628,1,8,0:0:0:0:
256,192,66802,1,8,0:0:0:0:
256,192,67151,1,4,0:0:0:0:
256,192,67675,1,0,0:0:0:0:
256,192,68023,1,0,0:0:0:0:
256,192,68198,1,8,0:0:0:0:
256,192,68547,1,0,0:0:0:0:
256,192,69070,1,0,0:0:0:0:
256,192,69419,1,0,0:0:0:0:
256,192,69593,1,8,0:0:0:0:
256,192,69942,1,0,0:0:0:0:
256,192,70640,1,0,0:0:0:0:
256,192,71337,1,0,0:0:0:0:
256,192,71686,1,8,0:0:0:0:
256,192,72035,1,0,0:0:0:0:
256,192,72209,1,0,0:0:0:0:
256,192,72384,1,8,0:0:0:0:
256,192,72733,1,4,0:0:0:0:
256,192,73779,1,8,0:0:0:0:
256,192,74302,1,0,0:0:0:0:
256,192,74477,1,0,0:0:0:0:
256,192,74826,1,0,0:0:0:0:
256,192,75175,1,8,0:0:0:0:
256,192,75523,1,0,0:0:0:0:
256,192,76047,1,0,0:0:0:0:
256,192,76570,1,0,0:0:0:0:
256,192,77268,1,0,0:0:0:0:
256,192,77616,1,8,0:0:0:0:
256,192,77791,1,8,0:0:0:0:
256,192,77965,1,8,0:0:0:0:
256,192,78314,1,4,0:0:0:0:
256,192,78837,1,0,0:0:0:0:
256,192,79186,1,0,0:0:0:0:
256,192,79361,1,8,0:0:0:0:
256,192,79709,1,0,0:0:0:0:
256,192,80233,1,8,0:0:0:0:
256,192,80581,1,0,0:0:0:0:
256,192,80756,1,8,0:0:0:0:
256,192,81105,1,0,0:0:0:0:
256,192,81628,1,0,0:0:0:0:
256,192,82151,1,8,0:0:0:0:
256,192,82500,1,4,0:0:0:0:
256,192,83547,1,12,0:0:0:0:
256,192,83895,1,4,0:0:0:0:
256,192,84593,1,0,0:0:0:0:
256,192,84942,1,8,0:0:0:0:
256,192,85291,1,0,0:0:0:0:
256,192,85988,1,8,0:0:0:0:
256,192,86337,1,8,0:0:0:0:
256,192,86686,1,0,0:0:0:0:
256,192,87384,1,0,0:0:0:0:
256,192,88081,1,8,0:0:0:0:
256,192,88430,1,0,0:0:0:0:
256,192,88779,1,8,0:0:0:0:
256,192,88954,1,8,0:0:0:0:
256,192,89128,1,8,0:0:0:0:
256,192,89477,1,4,0:0:0:0:
256,192,90175,1,8,0:0:0:0:
256,192,90872,1,0,0:0:0:0:
256,192,91570,1,0,0:0:0:0:
256,192,91744,1,0,0:0:0:0:
256,192,91919,1,8,0:0:0:0:
256,192,92268,1,0,0:0:0:0:
256,192,92965,1,0,0:0:0:0:
256,192,93663,1,8,0:0:0:0:
256,192,94012,1,0,0:0:0:0:
256,192,94361,1,8,0:0:0:0:
256,192,94535,1,8,0:0:0:0:
256,192,94710,1,8,0:0:0:0:
256,192,95058,1,4,0:0:0:0:
256,192,95756,1,8,0:0:0:0:
256,192,96454,1,0,0:0:0:0:
256,192,97152,1,0,0:0:0:0:
256,192,97326,1,0,0:0:0:0:
256,192,97500,1,8,0:0:0:0:
256,192,97849,1,0,0:0:0:0:
256,192,98547,1,0,0:0:0:0:
256,192,99245,1,8,0:0:0:0:
256,192,99593,1,0,0:0:0:0:
256,192,99942,1,8,0:0:0:0:
256,192,100117,1,8,0:0:0:0:
256,192,100291,1,8,0:0:0:0:
256,192,100640,1,4,0:0:0:0:
256,192,101686,1,8,0:0:0:0:
256,192,102035,1,0,0:0:0:0:
256,192,102733,1,8,0:0:0:0:
256,192,103082,1,8,0:0:0:0:
256,192,103256,1,8,0:0:0:0:
256,192,103431,1,0,0:0:0:0:
256,192,104128,1,0,0:0:0:0:
256,192,104477,1,8,0:0:0:0:
256,192,104826,1,8,0:0:0:0:
256,192,105175,1,0,0:0:0:0:
256,192,105524,1,8,0:0:0:0:
256,192,105698,1,8,0:0:0:0:
256,192,105872,1,8,0:0:0:0:
256,192,106221,1,4,0:0:0:0:
256,192,106919,1,0,0:0:0:0:
256,192,107093,1,0,0:0:0:0:
256,192,107268,1,8,0:0:0:0:
256,192,107617,1,0,0:0:0:0:
256,192,108314,1,8,0:0:0:0:
256,192,108488,1,8,0:0:0:0:
256,192,108663,1,8,0:0:0:0:
256,192,109012,1,0,0:0:0:0:
256,192,109710,1,0,0:0:0:0:
256,192,110058,1,0,0:0:0:0:
256,192,110407,1,8,0:0:0:0:
256,192,110756,1,0,0:0:0:0:
256,192,111105,1,8,0:0:0:0:
256,192,111279,1,8,0:0:0:0:
256,192,111454,1,0,0:0:0:0:
256,192,111628,1,8,0:0:0:0:
256,192,112326,1,8,0:0:0:0:
