osu file format v14

[General]
AudioFilename: nanatsu issenzakura.mp3
AudioLeadIn: 0
PreviewTime: 22413
Countdown: 0
SampleSet: Soft
StackLeniency: 0.7
Mode: 0
LetterboxInBreaks: 0
WidescreenStoryboard: 0

[Editor]
DistanceSpacing: 0.5
BeatDivisor: 4
GridSize: 8
TimelineZoom: 1

[Metadata]
Title:Nanatsu Issenzakura
TitleUnicode:七つ一旋桜
Artist:A.SAKA
ArtistUnicode:A.SAKA
Creator:Hollow Wings
Version:Whirl
Source:
Tags:pending cup 木製みゅーと Mokuse Mute 神楽ノ花 Kagura no Hana 1PSA Guu fanzhen0019
BeatmapID:503262
BeatmapSetID:214138

[Difficulty]
HPDrainRate:7
CircleSize:5
OverallDifficulty:8
ApproachRate:9
SliderMultiplier:1.8
SliderTickRate:1

[Events]
//Background and Video events
0,0,"nanatsu issenzakura.jpg",0,0
//Break Periods
2,45025,49458
2,50606,55388
//Storyboard Layer 0 (Background)
//Storyboard Layer 1 (Fail)
//Storyboard Layer 2 (Pass)
//Storyboard Layer 3 (Foreground)
//Storyboard Sound Samples

[TimingPoints]
175,348.837209302326,4,3,17,50,1,0
175,-133.333333333333,4,3,17,50,0,0
11337,-133.333333333333,4,3,17,60,0,0
19709,-133.333333333333,4,3,17,70,0,0
22151,-66.6666666666667,4,3,17,70,0,0
22500,-100,4,2,17,80,0,1
33314,-100,4,2,17,80,0,0
33663,-80,4,2,17,80,0,1
44826,-200,4,2,17,60,0,0
55988,-133.333333333333,4,3,17,70,0,0
65756,-133.333333333333,4,3,17,75,0,0
67151,-100,4,2,17,80,0,1
67326,-100,4,2,17,80,0,0
78314,-100,4,2,17,80,0,1
78488,-100,4,2,17,80,0,0
89477,-80,4,2,17,85,0,1
99244,-66.6666666666667,4,2,17,85,0,1
99942,-80,4,2,17,85,0,1
100291,-80,4,2,17,85,0,0
100640,-66.6666666666667,4,2,17,85,0,1
109186,-57.1428571428571,4,2,17,85,0,1
109884,-50,4,2,17,85,0,1
110581,-66.6666666666667,4,2,17,85,0,1
111802,-100,4,2,17,60,0,0

[Colours]
Combo1 : 233,92,96
Combo2 : 255,117,217
Combo3 : 152,79,251
Combo4 : 255,201,185

[HitObjects]
151,121,175,5,4,0:0:0:0:
111,174,523,5,0,0:0:0:0:
202,166,698,1,0,0:0:0:0:
223,77,872,1,0,0:0:0:0:
76,90,1047,1,0,0:0:0:0:
45,252,1221,2,0,B|20:356|20:356|9:324,1,135.000005149842
164,351,1919,5,0,0:0:0:0:
136,258,2094,1,0,0:0:0:0:
318,269,2268,1,0,0:0:0:0:
273,357,2443,1,0,0:0:0:0:
442,379,2617,2,0,B|459:368|459:368|346:360,1,135.000005149842
427,281,3313,5,0,0:0:0:0:
318,269,3488,1,0,0:0:0:0:
273,357,3663,1,0,0:0:0:0:
164,351,3837,1,0,0:0:0:0:
136,258,4012,2,0,B|119:207|119:207|130:215,1,67.5000025749208
217,308,4361,6,0,P|170:324|120:330,1,101.250003862381
81,326,4709,1,0,0:0:0:0:
28,241,4884,1,0,0:0:0:0:
235,207,5058,1,0,0:0:0:0:
217,308,5233,1,0,0:0:0:0:
454,285,5407,1,0,0:0:0:0:
412,188,5756,6,0,B|375:27|375:27|409:56,1,202.500007724762,4|0,0:0|0:0,0:0:0:0:
461,84,6454,1,0,0:0:0:0:
281,61,6628,1,0,0:0:0:0:
412,188,6802,1,0,0:0:0:0:
381,6,7151,6,0,B|340:106|340:106|376:93,1,135.000005149842
365,96,7675,1,0,0:0:0:0:
303,169,7849,1,0,0:0:0:0:
461,84,8023,1,0,0:0:0:0:
281,61,8198,1,0,0:0:0:0:
59,238,8547,6,0,B|39:255|39:255|63:134,1,135.000005149842
71,51,9070,2,0,L|19:9,1,67.5000025749208
120,203,9593,5,0,0:0:0:0:
140,15,9942,5,0,0:0:0:0:
354,162,10291,1,0,0:0:0:0:
119,274,10640,1,0,0:0:0:0:
44,331,10814,2,0,L|113:345,2,67.5000025749208,0|0|0,0:0|0:0|0:0,0:0:0:0:
186,346,11337,5,4,0:0:0:0:
437,309,11686,1,0,0:0:0:0:
354,321,11861,1,0,0:0:0:0:
269,334,12035,5,4,0:1:0:0:
286,266,12210,1,0,0:0:0:0:
437,177,12384,1,0,0:0:0:0:
457,241,12559,1,0,0:0:0:0:
262,196,12733,5,0,0:0:0:0:
165,144,12908,1,0,0:0:0:0:
142,148,12994,1,0,0:0:0:0:
118,151,13081,1,0,0:0:0:0:
47,232,13256,1,0,0:0:0:0:
187,211,13430,5,0,0:0:0:0:
22,165,13605,1,0,0:0:0:0:
26,298,13779,1,0,0:0:0:0:
89,25,13954,1,0,0:0:0:0:
274,58,14128,5,0,0:0:0:0:
284,127,14303,1,0,0:0:0:0:
379,219,14477,1,0,0:0:0:0:
389,288,14652,1,0,0:0:0:0:
287,65,14826,5,4,0:1:0:0:
297,134,15001,1,0,0:0:0:0:
392,226,15175,1,0,0:0:0:0:
402,295,15350,1,0,0:0:0:0:
242,271,15523,5,0,0:0:0:0:
163,279,15698,1,0,0:0:0:0:
135,114,15872,1,0,0:0:0:0:
60,95,16047,1,0,0:0:0:0:
48,83,16221,5,0,0:0:0:0:
123,102,16396,1,0,0:0:0:0:
151,267,16570,1,0,0:0:0:0:
230,259,16745,1,0,0:0:0:0:
501,156,16919,6,0,L|363:167,1,135.000005149842,4|0,0:0|0:0,0:0:0:0:
296,224,17442,1,0,0:0:0:0:
285,311,17616,1,0,0:0:0:0:
217,186,17791,1,0,0:0:0:0:
199,328,17965,1,0,0:0:0:0:
156,251,18140,1,0,0:0:0:0:
37,318,18314,6,0,L|46:251,1,67.5000025749208
56,188,18576,1,0,0:0:0:0:
85,167,18663,2,0,L|72:121,1,33.7500012874604
47,40,18837,2,0,L|57:73,1,33.7500012874604
155,93,19012,1,0,0:0:0:0:
203,92,19100,1,0,0:0:0:0:
246,71,19187,2,0,L|252:24,1,33.7500012874604
343,55,19361,1,0,0:0:0:0:
390,48,19449,1,0,0:0:0:0:
436,61,19536,2,0,L|463:40,1,33.7500012874604,0|0,0:0|0:0,0:0:0:0:
498,140,19709,5,2,0:0:0:0:
498,140,20058,2,0,L|423:130,1,67.5000025749208,0|0,0:0|0:0,0:0:0:0:
270,165,20407,1,2,0:0:0:0:
270,165,20756,2,0,L|356:151,1,67.5000025749208
495,226,21105,2,0,L|420:216,1,67.5000025749208,2|0,0:0|0:0,0:0:0:0:
263,244,21454,2,0,L|349:230,1,67.5000025749208,2|0,0:0|0:0,0:0:0:0:
452,347,21802,2,0,P|423:325|383:317,1,67.5000025749208,2|8,0:0|0:2,0:0:0:0:
315,351,22064,1,8,0:2:0:0:
267,357,22151,6,0,L|113:335,1,135.000005149842,2|2,0:0|0:2,0:0:0:0:
9,357,22500,6,0,P|11:311|35:263,1,90,6|0,0:0|0:0,0:0:0:0:
85,223,22762,1,0,0:0:0:0:
98,151,22849,2,0,L|81:60,1,90,8|0,0:0|0:0,0:0:0:0:
279,63,23198,1,2,0:0:0:0:
249,217,23372,2,0,L|259:164,1,45,0|0,0:0|0:0,0:0:0:0:
386,125,23547,2,0,B|398:132|398:132|323:138,1,90,8|2,0:0|0:1,0:0:0:0:
279,63,23895,5,2,0:0:0:0:
335,275,24070,1,0,0:0:0:0:
318,208,24157,1,0,0:0:0:0:
365,259,24244,2,0,L|464:256,1,90,8|0,0:0|0:0,0:0:0:0:
490,358,24593,1,2,0:0:0:0:
482,122,24768,1,0,0:0:0:0:
427,191,24855,1,0,0:0:0:0:
451,105,24942,2,0,B|439:33|439:33|457:52,1,90,8|0,0:0|0:0,0:0:0:0:
318,208,25291,5,4,0:3:0:0:
174,218,25465,2,0,L|130:227,1,45
20,215,25640,2,0,L|121:218,1,90,8|0,0:0|0:0,0:0:0:0:
65,345,25988,1,2,0:0:0:0:
48,149,26163,2,0,L|92:149,1,45
125,297,26338,2,0,L|231:275,1,90,8|2,0:0|0:1,0:0:0:0:
360,172,26686,6,0,P|360:127|346:84,1,90,2|0,0:0|0:0,0:0:0:0:
419,212,26948,1,0,0:0:0:0:
419,212,27035,2,0,P|461:198|497:171,1,90,8|0,0:0|0:0,0:0:0:0:
308,216,27384,2,0,P|265:201|221:203,1,90,2|0,0:0|0:0,0:0:0:0:
367,317,27733,2,0,L|369:362,1,45,8|0,0:0|0:0,0:0:0:0:
366,253,27907,1,8,0:0:0:0:
366,253,28081,6,0,B|297:283|297:283|318:287,1,90,6|0,0:0|0:0,0:0:0:0:
369,362,28343,2,0,L|367:317,1,45,0|8,0:0|0:0,0:0:0:0:
494,306,28605,1,0,0:0:0:0:
243,311,28779,1,2,0:0:0:0:
101,284,28954,2,0,L|112:330,1,45
48,245,29128,2,0,B|63:175|63:175|71:198,1,90,8|2,0:0|0:1,0:0:0:0:
144,84,29477,6,0,L|51:69,1,90,2|0,0:0|0:0,0:0:0:0:
173,118,29739,2,0,L|128:122,1,45,0|8,0:0|0:0,0:0:0:0:
230,44,30001,1,0,0:0:0:0:
251,197,30175,1,2,0:0:0:0:
350,87,30349,2,0,L|307:97,1,45
405,14,30524,2,0,L|325:56,1,90,8|0,0:0|0:0,0:0:0:0:
492,243,30872,5,8,0:0:0:0:
349,156,31047,1,0,0:0:0:0:
385,216,31134,1,0,0:0:0:0:
318,175,31221,2,0,B|244:171|244:171|257:163,1,90,2|2,0:0|0:0,0:0:0:0:
105,161,31570,1,8,0:0:0:0:
141,289,31744,1,0,0:0:0:0:
105,349,31831,1,0,0:0:0:0:
212,297,31918,2,0,B|231:306|231:306|151:308,1,90,2|2,0:0|0:0,0:0:0:0:
352,293,32268,6,0,B|425:301|425:301|450:320,1,90,8|0,0:0|0:0,0:0:0:0:
104,227,32616,2,0,L|85:138,1,90,8|0,0:0|0:0,0:0:0:0:
98,64,32878,1,8,0:0:0:0:
146,128,32965,2,0,B|134:136|134:136|59:127,1,90,8|8,0:0|0:0,0:0:0:0:
171,51,33227,1,8,0:0:0:0:
196,38,33314,2,0,L|240:43,1,45,8|8,0:0|0:0,0:0:0:0:
411,57,33488,1,10,0:1:0:0:
477,248,33663,6,0,P|450:296|401:322,1,112.5,6|0,0:0|0:0,0:0:0:0:
330,312,33925,1,0,0:0:0:0:
396,300,34012,1,8,0:0:0:0:
245,363,34186,1,0,0:0:0:0:
325,170,34361,1,2,0:0:0:0:
239,263,34535,1,8,0:1:0:0:
176,250,34622,1,8,0:1:0:0:
241,238,34709,2,0,P|173:281|100:246,1,168.75,8|0,0:0|0:0,0:0:0:0:
73,172,35058,6,0,L|85:51,1,112.5,2|0,0:0|0:0,0:0:0:0:
159,36,35320,1,0,0:0:0:0:
80,35,35407,1,8,0:0:0:0:
176,175,35581,1,0,0:0:0:0:
311,13,35756,1,2,0:0:0:0:
482,154,35930,1,8,0:1:0:0:
469,88,36018,1,8,0:1:0:0:
491,24,36105,2,0,P|503:95|489:156,1,112.5,8|8,0:0|0:1,0:0:0:0:
205,256,36454,6,0,B|196:264|196:264|193:312|222:359,1,112.5,4|0,0:3|0:0,0:0:0:0:
290,350,36715,1,0,0:0:0:0:
357,347,36803,1,8,0:0:0:0:
419,241,36977,1,0,0:0:0:0:
247,164,37151,1,2,0:0:0:0:
423,364,37326,1,8,0:1:0:0:
448,302,37413,1,8,0:1:0:0:
507,270,37500,1,8,0:0:0:0:
507,270,37675,5,2,0:1:0:0:
439,42,37849,1,2,0:0:0:0:
326,217,38023,5,8,0:1:0:0:
319,138,38111,1,8,0:1:0:0:
334,178,38198,1,8,0:0:0:0:
350,60,38372,5,8,0:1:0:0:
148,112,38547,1,2,0:0:0:0:
252,276,38721,1,8,0:1:0:0:
80,105,38895,5,8,0:0:0:0:
41,158,38983,1,8,0:0:0:0:
67,42,39070,1,8,0:0:0:0:
67,42,39244,5,6,0:0:0:0:
72,234,39419,2,0,L|37:283,1,56.25
51,343,39593,1,8,0:0:0:0:
174,171,39768,1,0,0:0:0:0:
263,345,39942,1,2,0:0:0:0:
389,258,40116,2,0,L|402:203,1,56.25,8|8,0:1|0:1,0:0:0:0:
440,333,40291,2,0,B|359:317|359:317|317:325,2,112.5,8|2|2,0:0|0:1|0:0,0:0:0:0:
471,146,40814,6,0,L|478:201,1,56.25
488,269,40988,1,8,0:0:0:0:
487,70,41163,1,0,0:0:0:0:
320,170,41337,1,2,0:0:0:0:
170,38,41512,2,0,L|107:46,1,56.25,8|8,0:1|0:1,0:0:0:0:
106,146,41686,2,0,L|233:156,1,112.5,8|8,0:0|0:1,0:0:0:0:
148,322,42035,6,0,P|96:337|36:333,1,112.5,2|8,0:0|0:1,0:0:0:0:
29,315,42297,1,8,0:1:0:0:
21,296,42384,1,8,0:0:0:0:
78,192,42558,1,8,0:1:0:0:
323,275,42733,2,0,P|267:274|216:251,1,112.5,2|8,0:0|0:1,0:0:0:0:
255,234,42994,1,8,0:1:0:0:
275,201,43081,1,8,0:0:0:0:
315,57,43256,1,8,0:1:0:0:
500,204,43430,5,2,0:0:0:0:
366,247,43605,1,0,0:1:0:0:
384,227,43692,1,0,0:0:0:0:
326,184,43779,2,0,L|213:178,1,112.5,8|8,0:0|0:1,0:0:0:0:
153,145,44041,1,0,0:0:0:0:
131,127,44128,2,0,B|116:33|116:33|130:48,1,112.5,8|8,0:0|0:1,0:0:0:0:
214,179,44390,1,8,0:0:0:0:
153,214,44477,2,0,P|99:226|45:214,2,112.5,8|8|2,0:0|0:0|0:1,0:0:0:0:
216,208,50058,6,0,P|257:190|301:194,1,90
143,176,55988,6,0,L|73:164,1,67.5000025749208
121,276,56250,2,0,L|108:244,1,33.7500012874604
268,191,56512,1,0,0:0:0:0:
291,183,56599,1,0,0:0:0:0:
313,176,56686,5,0,0:0:0:0:
313,81,56860,1,0,0:0:0:0:
404,52,57035,1,0,0:0:0:0:
459,129,57209,1,0,0:0:0:0:
403,210,57384,6,0,L|389:286,1,67.5000025749208,2|0,0:1|0:0,0:0:0:0:
318,341,57645,2,0,B|347:340|347:340|419:349,1,101.250003862381
198,339,58081,5,0,0:0:0:0:
192,322,58168,1,0,0:0:0:0:
187,306,58255,1,0,0:0:0:0:
181,290,58342,1,0,0:0:0:0:
125,257,58430,1,0,0:0:0:0:
130,241,58517,1,0,0:0:0:0:
136,225,58604,1,0,0:0:0:0:
141,208,58691,1,0,0:0:0:0:
209,174,58779,5,0,0:0:0:0:
85,21,58954,1,0,0:0:0:0:
166,14,59041,1,0,0:0:0:0:
166,14,59302,5,0,0:0:0:0:
469,150,59477,1,0,0:0:0:0:
414,73,59651,1,0,0:0:0:0:
323,102,59826,1,0,0:0:0:0:
323,197,60000,1,0,0:0:0:0:
413,226,60175,1,2,0:1:0:0:
323,102,60349,5,0,0:0:0:0:
390,149,60436,1,0,0:0:0:0:
390,149,60698,5,0,0:0:0:0:
222,128,60872,1,0,0:0:0:0:
210,167,60959,1,0,0:0:0:0:
182,197,61047,2,0,L|174:164,1,33.7500012874604,2|0,0:0|0:0,0:0:0:0:
57,73,61221,1,0,0:0:0:0:
69,112,61308,1,0,0:0:0:0:
97,142,61396,2,0,L|104:109,1,33.7500012874604,2|0,0:0|0:0,0:0:0:0:
121,226,61570,5,2,0:0:0:0:
193,274,61744,1,0,0:0:0:0:
261,224,61919,1,0,0:0:0:0:
333,318,62093,1,0,0:0:0:0:
433,265,62268,2,0,B|253:278|253:278|283:293,1,202.500007724762,8|0,0:0|0:0,0:0:0:0:
410,97,62965,5,2,0:0:0:0:
338,145,63139,1,0,0:0:0:0:
270,95,63314,1,0,0:0:0:0:
198,189,63488,1,0,0:0:0:0:
36,39,63663,2,0,B|33:24|33:24|105:69,1,101.250003862381,10|0,0:0|0:0,0:0:0:0:
107,141,64012,2,0,L|140:137,1,33.7500012874604
45,111,64186,2,0,L|33:142,1,33.7500012874604
149,289,64361,6,0,L|49:305,1,101.250003862381,2|0,0:0|0:0,0:0:0:0:
34,315,64709,1,10,0:0:0:0:
260,144,64884,1,0,0:0:0:0:
269,160,64971,1,0,0:0:0:0:
340,148,65058,1,2,0:0:0:0:
350,164,65145,2,0,L|428:178,1,67.5000025749208
425,193,65407,1,10,0:0:0:0:
203,39,65581,1,0,0:0:0:0:
198,56,65669,1,0,0:0:0:0:
193,73,65756,5,10,0:0:0:0:
179,171,65930,1,2,0:0:0:0:
32,22,66105,1,10,0:0:0:0:
68,132,66279,1,2,0:0:0:0:
114,284,66454,5,10,0:0:0:0:
63,150,66628,1,2,0:0:0:0:
253,320,66802,2,0,L|262:280,1,33.7500012874604,10|8,0:0|0:0,0:0:0:0:
303,125,66977,2,0,L|312:85,1,33.7500012874604,10|8,0:0|0:0,0:0:0:0:
486,22,67151,6,0,L|502:135,1,90,6|0,0:0|0:0,0:0:0:0:
438,203,67413,2,0,L|422:291,1,90
440,352,67675,1,0,0:0:0:0:
313,280,67849,1,2,0:0:0:0:
351,204,68023,1,0,0:0:0:0:
351,204,68111,1,0,0:0:0:0:
351,204,68198,1,8,0:0:0:0:
177,203,68372,1,2,0:1:0:0:
47,49,68547,6,0,P|46:94|59:137,1,90,2|0,0:0|0:0,0:0:0:0:
54,355,68809,2,0,P|87:324|147:312,1,90
177,203,69071,1,0,0:0:0:0:
247,378,69245,1,2,0:0:0:0:
189,274,69419,1,0,0:0:0:0:
189,274,69507,1,0,0:0:0:0:
189,274,69594,1,8,0:0:0:0:
248,148,69768,1,0,0:0:0:0:
296,205,69942,5,4,0:3:0:0:
426,99,70116,1,0,0:0:0:0:
335,45,70204,2,0,L|369:90,1,45,0|8,0:0|0:0,0:0:0:0:
260,106,70465,1,0,0:0:0:0:
399,199,70640,1,2,0:0:0:0:
154,84,70814,5,0,0:0:0:0:
68,77,70901,2,0,L|114:91,1,45,0|8,0:0|0:0,0:0:0:0:
176,167,71163,5,2,0:1:0:0:
39,155,71250,2,0,L|96:170,1,45,0|2,0:0|0:0,0:0:0:0:
102,211,71512,5,0,0:0:0:0:
108,139,71599,1,0,0:0:0:0:
129,234,71686,2,0,L|224:242,1,90,8|0,0:0|0:0,0:0:0:0:
321,328,72035,1,2,0:0:0:0:
265,194,72209,1,0,0:0:0:0:
461,185,72384,1,8,0:0:0:0:
387,337,72558,1,8,0:0:0:0:
212,96,72733,5,6,0:0:0:0:
265,359,72907,2,0,L|158:370,1,90,0|8,0:0|0:0,0:0:0:0:
7,311,73256,2,0,L|115:316,2,90,0|8|0,0:0|0:0|0:0,0:0:0:0:
51,126,73779,1,8,0:0:0:0:
147,170,73954,1,2,0:1:0:0:
305,67,74128,1,2,0:0:0:0:
393,305,74302,5,0,0:0:0:0:
407,226,74390,1,0,0:0:0:0:
366,288,74477,1,8,0:0:0:0:
209,302,74651,1,0,0:0:0:0:
426,303,74826,5,2,0:0:0:0:
294,272,75000,1,0,0:0:0:0:
207,65,75175,1,8,0:0:0:0:
454,20,75349,1,0,0:0:0:0:
286,83,75523,5,2,0:0:0:0:
110,72,75698,1,0,0:0:0:0:
116,95,75785,1,0,0:0:0:0:
123,118,75872,1,0,0:0:0:0:
122,201,76047,1,2,0:0:0:0:
347,227,76221,5,2,0:0:0:0:
467,102,76395,1,0,0:0:0:0:
461,125,76482,1,0,0:0:0:0:
454,148,76569,1,0,0:0:0:0:
451,336,76744,1,2,0:0:0:0:
214,167,76919,5,2,0:0:0:0:
320,302,77093,1,0,0:0:0:0:
199,80,77268,1,2,0:0:0:0:
118,358,77442,1,8,0:0:0:0:
118,358,77529,1,8,0:0:0:0:
118,358,77616,1,8,0:0:0:0:
392,298,77791,1,8,0:0:0:0:
392,298,77878,1,8,0:0:0:0:
392,298,77965,1,8,0:0:0:0:
182,330,78140,1,8,0:0:0:0:
141,120,78314,6,0,B|122:48|122:48|147:66,1,90,6|0,0:0|0:0,0:0:0:0:
202,151,78576,2,0,B|149:203|149:203|152:172,1,90
14,265,78837,2,0,B|85:245|85:245|116:256,1,90,0|2,0:0|0:0,0:0:0:0:
254,334,79186,1,0,0:0:0:0:
284,338,79273,1,0,0:0:0:0:
314,342,79361,1,8,0:0:0:0:
466,292,79535,1,2,0:1:0:0:
437,102,79709,6,0,B|423:177|423:177|413:160,1,90,2|0,0:0|0:0,0:0:0:0:
250,105,79971,2,0,B|239:31|239:31|230:46,1,90
12,83,80233,2,0,L|108:71,1,90,0|2,0:0|0:0,0:0:0:0:
234,174,80581,1,0,0:0:0:0:
145,313,80756,1,8,0:0:0:0:
182,126,80930,1,0,0:0:0:0:
332,251,81105,5,4,0:3:0:0:
436,182,81279,1,0,0:0:0:0:
468,193,81366,1,0,0:0:0:0:
497,204,81454,2,0,L|407:200,1,90,8|0,0:0|0:0,0:0:0:0:
223,297,81802,1,2,0:0:0:0:
215,329,81889,1,0,0:0:0:0:
209,362,81977,1,0,0:0:0:0:
158,222,82151,1,8,0:0:0:0:
62,331,82326,2,0,L|111:320,1,45,2|0,0:1|0:0,0:0:0:0:
145,313,82500,5,6,0:0:0:0:
80,134,82675,1,0,0:0:0:0:
223,229,82849,1,0,0:0:0:0:
209,362,83023,1,0,0:0:0:0:
364,348,83198,5,0,0:0:0:0:
404,176,83372,1,8,0:0:0:0:
308,214,83547,1,8,0:0:0:0:
431,372,83721,1,10,0:0:0:0:
494,341,83895,5,0,0:0:0:0:
509,180,84070,1,0,0:0:0:0:
468,201,84157,2,0,B|352:192|352:192|377:178,1,135
506,53,84593,1,2,0:0:0:0:
401,120,84768,1,0,0:0:0:0:
370,122,84855,1,0,0:0:0:0:
338,124,84942,1,8,0:0:0:0:
226,68,85116,1,2,0:1:0:0:
125,144,85291,5,2,0:0:0:0:
46,348,85465,2,0,L|62:307,2,45,0|0|8,0:0|0:0|0:0,0:0:0:0:
135,321,85814,1,0,0:0:0:0:
38,125,85988,1,2,0:0:0:0:
271,265,86163,1,0,0:0:0:0:
302,267,86250,1,0,0:0:0:0:
334,269,86337,1,8,0:0:0:0:
459,354,86512,1,0,0:0:0:0:
489,146,86686,5,2,0:0:0:0:
327,339,86861,1,0,0:0:0:0:
359,337,86948,1,0,0:0:0:0:
390,335,87035,1,0,0:0:0:0:
263,376,87209,1,0,0:0:0:0:
459,354,87384,5,2,0:0:0:0:
301,158,87558,1,0,0:0:0:0:
248,154,87645,1,0,0:0:0:0:
196,151,87732,1,0,0:0:0:0:
302,267,87907,1,0,0:0:0:0:
105,351,88081,6,0,L|201:344,2,90,2|0|8,0:0|0:0|0:0,0:0:0:0:
112,190,88605,2,0,L|93:241,1,45,2|8,0:0|0:0,0:0:0:0:
70,291,88779,1,8,0:0:0:0:
33,36,88954,1,8,0:0:0:0:
39,83,89041,1,8,0:0:0:0:
46,130,89128,1,8,0:0:0:0:
100,95,89215,1,8,0:0:0:0:
155,62,89302,1,8,0:0:0:0:
155,62,89477,6,0,P|176:121|217:151,1,112.5,6|0,0:0|0:0,0:0:0:0:
332,163,89738,1,0,0:0:0:0:
302,188,89826,2,0,L|273:307,1,112.5,8|0,0:0|0:0,0:0:0:0:
419,365,90175,1,2,0:0:0:0:
476,224,90349,1,0,0:0:0:0:
397,244,90436,1,0,0:0:0:0:
483,259,90524,1,8,0:0:0:0:
485,100,90698,1,2,0:1:0:0:
418,93,90872,5,2,0:0:0:0:
225,131,91047,1,0,0:0:0:0:
140,123,91134,1,0,0:0:0:0:
215,108,91221,2,0,B|307:103|307:103|289:115,1,112.5,8|0,0:0|0:0,0:0:0:0:
158,324,91570,2,0,L|37:309,1,112.5,2|0,0:0|0:0,0:0:0:0:
39,222,91831,1,0,0:0:0:0:
69,287,91919,2,0,P|116:251|168:259,1,112.5,8|0,0:0|0:0,0:0:0:0:
26,341,92268,6,0,L|169:336,1,112.5,4|0,0:3|0:0,0:0:0:0:
253,237,92529,2,0,L|241:297,1,56.25,0|8,0:0|0:0,0:0:0:0:
392,183,92791,1,0,0:0:0:0:
465,366,92965,1,2,0:0:0:0:
309,292,93140,1,0,0:0:0:0:
395,257,93227,2,0,L|339:264,1,56.25,0|8,0:0|0:0,0:0:0:0:
450,61,93488,6,0,L|466:173,1,112.5,2|2,0:1|0:0,0:0:0:0:
396,380,93837,2,0,L|407:320,2,56.25,0|0|8,0:0|0:0|0:0,0:0:0:0:
241,348,94186,1,0,0:0:0:0:
199,115,94361,1,2,0:0:0:0:
27,273,94535,2,0,B|112:265|112:265|139:277,1,112.5,0|8,0:0|0:0,0:0:0:0:
254,217,94797,1,0,0:0:0:0:
211,280,94884,1,0,0:0:0:0:
211,280,95058,5,6,0:0:0:0:
252,85,95233,1,0,0:0:0:0:
223,13,95320,1,0,0:0:0:0:
229,107,95407,2,0,L|254:218,1,112.5,8|0,0:0|0:0,0:0:0:0:
97,195,95756,1,2,0:0:0:0:
80,41,95930,1,0,0:0:0:0:
68,119,96018,1,0,0:0:0:0:
53,36,96105,2,0,B|57:15|57:15|83:111,1,112.5,8|2,0:0|0:1,0:0:0:0:
429,44,96454,6,0,B|440:34|440:34|343:39,1,112.5,2|0,0:0|0:0,0:0:0:0:
300,44,96715,1,0,0:0:0:0:
364,70,96802,1,8,0:0:0:0:
137,112,96977,1,0,0:0:0:0:
465,142,97151,1,2,0:0:0:0:
395,292,97326,1,0,0:0:0:0:
370,369,97413,1,0,0:0:0:0:
425,312,97500,2,0,B|338:304|338:304|313:319,1,112.5,8|0,0:0|0:0,0:0:0:0:
201,210,97849,6,0,L|219:93,1,112.5,10|0,0:0|0:0,0:0:0:0:
129,19,98111,2,0,L|148:86,1,56.25,0|8,0:0|0:0,0:0:0:0:
83,332,98372,1,0,0:0:0:0:
128,161,98547,2,0,L|271:156,1,112.5,10|0,0:0|0:0,0:0:0:0:
373,291,98808,2,0,L|429:314,1,56.25,0|8,0:0|0:0,0:0:0:0:
378,73,99070,1,0,0:0:0:0:
250,338,99244,6,0,B|228:357|228:357|263:257,1,135.000005149842,8|0,0:0|0:0,0:0:0:0:
225,26,99593,2,0,B|197:12|197:12|247:122,1,135.000005149842,8|0,0:0|0:0,0:0:0:0:
267,179,99855,1,8,0:0:0:0:
293,189,99942,2,0,L|436:184,1,112.5,8|8,0:0|0:0,0:0:0:0:
493,193,100204,1,8,0:0:0:0:
427,207,100291,2,0,L|371:202,1,56.25,8|8,0:0|0:0,0:0:0:0:
195,197,100465,1,10,0:1:0:0:
41,43,100640,6,0,P|91:83|151:59,1,135.000005149842,6|0,0:0|0:0,0:0:0:0:
225,26,100901,1,0,0:0:0:0:
300,54,100988,1,8,0:0:0:0:
491,38,101163,1,8,0:1:0:0:
466,298,101337,1,2,0:0:0:0:
281,255,101512,2,0,L|205:264,1,67.5000025749208,8|8,0:1|0:1,0:0:0:0:
26,352,101686,2,0,P|76:311|140:327,1,135.000005149842,8|2,0:0|0:1,0:0:0:0:
93,145,102035,6,0,L|76:299,1,135.000005149842,2|8,0:0|0:1,0:0:0:0:
157,212,102296,1,0,0:0:0:0:
52,215,102383,1,8,0:0:0:0:
223,355,102558,1,8,0:1:0:0:
206,157,102732,1,2,0:0:0:0:
359,305,102907,2,0,L|446:280,1,67.5000025749208,8|8,0:1|0:1,0:0:0:0:
440,82,103081,2,0,L|457:236,1,135.000005149842,8|0,0:0|0:0,0:0:0:0:
353,30,103430,6,0,P|413:14|464:70,1,135.000005149842,4|8,0:3|0:1,0:0:0:0:
350,100,103692,2,0,L|268:89,1,67.5000025749208,8|8,0:1|0:0,0:0:0:0:
276,295,103954,1,8,0:1:0:0:
209,17,104128,1,2,0:0:0:0:
122,297,104302,2,0,L|40:286,1,67.5000025749208,8|8,0:1|0:1,0:0:0:0:
21,344,104477,1,8,0:0:0:0:
228,366,104651,1,2,0:1:0:0:
150,174,104826,5,2,0:0:0:0:
337,332,105000,1,8,0:1:0:0:
409,345,105087,1,0,0:0:0:0:
348,303,105175,2,0,B|458:315|458:315|482:305,1,135.000005149842,8|8,0:0|0:1,0:0:0:0:
457,107,105523,2,0,B|461:135|461:135|448:240,2,135.000005149842,2|0|8,0:0|0:0|0:0,0:0:0:0:
384,100,105959,1,8,0:1:0:0:
488,43,106047,1,8,0:1:0:0:
316,222,106221,6,0,P|255:211|227:147,1,135.000005149842,6|0,0:0|0:0,0:0:0:0:
248,76,106483,1,0,0:0:0:0:
314,40,106570,1,8,0:0:0:0:
42,26,106744,1,8,0:1:0:0:
317,222,106919,1,2,0:0:0:0:
44,296,107093,1,8,0:1:0:0:
108,254,107180,1,8,0:1:0:0:
8,269,107268,5,8,0:0:0:0:
358,308,107442,1,2,0:1:0:0:
321,321,107616,6,0,P|385:328|429:281,1,135.000005149842,2|8,0:0|0:1,0:0:0:0:
406,194,107878,1,0,0:0:0:0:
383,280,107965,1,8,0:0:0:0:
388,34,108140,1,8,0:1:0:0:
115,332,108314,1,2,0:0:0:0:
11,118,108488,1,8,0:1:0:0:
78,178,108576,1,8,0:1:0:0:
43,113,108663,6,0,L|23:258,2,135.000005149842,8|8|10,0:0|0:1|0:0,0:0:0:0:
335,91,109186,5,8,0:1:0:0:
266,177,109273,1,8,0:1:0:0:
353,110,109361,2,0,P|422:103|494:159,2,157.500001502037,8|8|10,0:0|0:1|0:0,0:0:0:0:
190,214,109884,5,8,0:1:0:0:
266,314,109971,1,8,0:1:0:0:
159,239,110059,2,0,P|90:232|6:315,2,180,8|8|10,0:0|0:1|0:0,0:0:0:0:
406,339,110581,6,0,L|428:205,1,135.000005149842,10|10,0:1|0:0,0:0:0:0:
375,24,110930,1,10,0:1:0:0:
405,86,111018,1,8,0:1:0:0:
466,111,111105,1,8,0:0:0:0:
212,275,111279,5,8,0:0:0:0:
141,297,111366,1,8,0:0:0:0:
98,238,111454,1,8,0:0:0:0:
141,179,111541,1,8,0:0:0:0:
211,202,111628,1,8,0:1:0:0:
160,239,112326,5,0,0:0:0:0:
