osu file format v14

[General]
AudioFilename: nanatsu issenzakura.mp3
AudioLeadIn: 0
PreviewTime: 22413
Countdown: 0
SampleSet: None
StackLeniency: 0.7
Mode: 0
LetterboxInBreaks: 0
WidescreenStoryboard: 0

[Editor]
DistanceSpacing: 0.8
BeatDivisor: 4
GridSize: 8
TimelineZoom: 1

[Metadata]
Title:Nanatsu Issenzakura
TitleUnicode:七つ一旋桜
Artist:A.SAKA
ArtistUnicode:A.SAKA
Creator:Hollow Wings
Version:Expert
Source:
Tags:pending cup 木製みゅーと Mokuse Mute 神楽ノ花 Kagura no Hana 1PSA Guu fanzhen0019
BeatmapID:676922
BeatmapSetID:214138

[Difficulty]
HPDrainRate:7
CircleSize:4
OverallDifficulty:7
ApproachRate:9
SliderMultiplier:2.1
SliderTickRate:1

[Events]
//Background and Video events
0,0,"nanatsu issenzakura.jpg",0,0
//Break Periods
2,45026,49458
2,50664,55388
//Storyboard Layer 0 (Background)
//Storyboard Layer 1 (Fail)
//Storyboard Layer 2 (Pass)
//Storyboard Layer 3 (Foreground)
//Storyboard Sound Samples

[TimingPoints]
175,348.837209302326,4,3,17,50,1,0
175,-133.333333333333,4,3,17,50,0,0
11337,-133.333333333333,4,3,17,60,0,0
19709,-133.333333333333,4,3,17,70,0,0
22151,-66.6666666666667,4,3,17,70,0,0
22500,-100,4,2,17,80,0,1
33314,-100,4,2,17,80,0,0
33663,-80,4,2,17,90,0,1
44826,-200,4,2,17,70,0,0
55988,-133.333333333333,4,3,17,70,0,0
65756,-133.333333333333,4,3,17,75,0,0
67151,-100,4,2,17,80,0,1
67326,-100,4,2,17,80,0,0
78314,-100,4,2,17,80,0,1
78488,-100,4,2,17,80,0,0
89477,-100,4,2,17,85,0,1
100291,-100,4,2,17,85,0,0
100640,-80,4,2,17,95,0,1
111802,-100,4,2,17,60,0,0

[Colours]
Combo1 : 233,92,96
Combo2 : 255,117,217
Combo3 : 152,79,251
Combo4 : 255,201,185

[HitObjects]
140,301,175,5,4,0:0:0:0:
27,256,523,6,0,L|48:333,1,78.7500030040742
246,247,872,2,0,L|234:324,1,78.7500030040742
128,192,1221,2,0,B|127:323|127:323|141:300,1,157.500006008148
454,178,1919,6,0,L|433:255,1,78.7500030040742
246,247,2268,2,0,L|234:170,1,78.7500030040742
353,114,2617,2,0,B|353:245|353:245|339:222,1,157.500006008148
134,123,3314,6,0,L|155:200,1,78.7500030040742
353,114,3663,2,0,L|341:191,1,78.7500030040742
246,247,4012,2,0,B|222:367|222:367|248:343,1,157.500006008148
196,16,4709,6,0,L|217:93,1,78.7500030040742
271,349,5058,2,0,L|288:260,1,78.7500030040742
363,142,5407,2,0,B|338:118|338:118|362:238,1,157.500006008148,0|4,0:0|0:0,0:0:0:0:
415,283,6105,5,0,2:0:0:0:
337,301,6279,1,0,2:0:0:0:
295,232,6454,1,0,2:0:0:0:
348,171,6628,1,0,2:0:0:0:
423,203,6802,1,0,2:0:0:0:
363,238,7151,5,0,0:0:0:0:
87,208,7500,1,0,2:0:0:0:
235,145,7674,1,0,2:0:0:0:
184,231,7849,1,0,2:0:0:0:
78,110,8023,1,0,2:0:0:0:
170,70,8197,1,0,2:0:0:0:
152,154,8547,5,0,0:0:0:0:
245,366,8895,1,0,2:0:0:0:
256,243,9070,1,0,2:0:0:0:
320,349,9243,5,0,2:0:0:0:
206,300,9593,1,0,2:0:0:0:
326,273,9942,1,0,2:0:0:0:
245,366,10291,1,0,2:0:0:0:
256,243,10640,1,0,2:0:0:0:
245,365,10814,6,0,P|207:376|169:365,2,78.7500030040742,0|0|0,0:0|0:0|0:0,0:0:0:0:
116,315,11337,6,0,B|84:299|84:299|206:300,1,157.500006008148,4|0,0:0|0:0,0:0:0:0:
245,365,11861,1,0,0:0:0:0:
256,243,12035,2,0,B|270:181|270:181|238:193,1,78.7500030040742,4|0,0:1|0:0,0:0:0:0:
124,144,12384,2,0,B|170:187|170:187|176:153,1,78.7500030040742
273,77,12733,6,0,B|212:95|212:95|238:117,1,78.7500030040742,0|0,0:0|0:0,0:0:0:0:
217,154,12994,1,0,0:0:0:0:
217,154,13081,1,0,0:0:0:0:
130,251,13257,1,0,0:0:0:0:
263,327,13431,5,0,0:0:0:0:
256,243,13605,1,0,0:0:0:0:
429,173,13779,1,0,0:0:0:0:
454,92,13953,1,0,0:0:0:0:
457,249,14128,6,0,L|469:326,1,78.7500030040742
327,105,14477,2,0,L|322:194,1,78.7500030040742,0|0,0:0|0:0,0:0:0:0:
431,210,14826,6,0,L|443:287,1,78.7500030040742,4|0,0:1|0:0,0:0:0:0:
301,66,15175,2,0,L|296:155,1,78.7500030040742
247,311,15523,6,0,P|208:320|169:315,1,78.7500030040742
137,188,15872,2,0,P|103:167|64:161,1,78.7500030040742
35,121,16221,6,0,P|73:127|107:147,1,78.7500030040742
138,273,16570,2,0,P|176:277|215:269,1,78.7500030040742
346,126,16919,6,0,B|470:109|470:109|449:134,1,157.500006008148,4|0,0:0|0:0,0:0:0:0:
388,218,17442,1,0,0:0:0:0:
388,218,17616,2,0,L|410:293,2,78.7500030040742,0|0|0,0:0|0:0|0:0,0:0:0:0:
388,217,18314,6,0,P|349:226|311:218,1,78.7500030040742
270,206,18576,1,0,0:0:0:0:
228,210,18663,2,0,L|187:218,1,39.3750015020371
126,181,18837,2,0,L|96:206,1,39.3750015020371
20,241,19012,5,0,0:0:0:0:
28,281,19099,1,0,0:0:0:0:
50,316,19186,1,0,0:0:0:0:
85,338,19273,1,0,0:0:0:0:
161,341,19361,5,0,0:0:0:0:
196,321,19448,1,0,0:0:0:0:
237,315,19535,1,0,0:0:0:0:
277,328,19622,1,0,0:0:0:0:
357,337,19709,6,0,B|454:344|454:344|441:328,1,118.125004506111,2|0,0:0|0:0,0:0:0:0:
361,181,20058,2,0,L|367:259,1,78.7500030040742
155,47,20407,2,0,B|58:40|58:40|71:56,1,118.125004506111,2|0,0:0|0:0,0:0:0:0:
151,203,20756,2,0,L|145:125,1,78.7500030040742
315,50,21105,6,0,P|353:54|385:76,1,78.7500030040742,2|0,0:0|0:0,0:0:0:0:
238,194,21454,2,0,P|222:158|225:119,1,78.7500030040742,2|0,0:0|0:0,0:0:0:0:
401,191,21802,2,0,P|377:222|342:238,1,78.7500030040742,2|8,0:0|0:2,0:0:0:0:
301,252,22064,1,8,0:2:0:0:
281,294,22151,6,0,L|202:295,1,78.7500030040742,2|0,0:0|0:0,0:0:0:0:
97,260,22326,1,8,0:2:0:0:
133,43,22500,6,0,B|118:131|118:131|127:155,1,105,6|0,0:0|0:0,0:0:0:0:
134,169,22762,1,0,0:0:0:0:
109,168,22849,1,8,0:0:0:0:
192,253,23023,1,0,0:0:0:0:
336,199,23198,6,0,B|266:142|266:142|242:137,1,105,2|0,0:0|0:0,0:0:0:0:
226,136,23460,1,0,0:0:0:0:
239,115,23547,1,8,0:0:0:0:
124,145,23721,1,2,0:1:0:0:
99,296,23895,6,0,B|182:264|182:264|198:245,1,105,2|0,0:0|0:0,0:0:0:0:
208,232,24157,1,0,0:0:0:0:
220,254,24244,1,8,0:0:0:0:
252,140,24418,1,0,0:0:0:0:
465,173,24593,6,0,B|381:204|381:204|365:223,1,105,2|0,0:0|0:0,0:0:0:0:
356,237,24855,1,0,0:0:0:0:
344,215,24942,1,8,0:0:0:0:
312,329,25116,1,0,0:0:0:0:
312,329,25291,5,4,0:3:0:0:
97,271,25466,1,0,0:0:0:0:
104,246,25552,1,0,0:0:0:0:
123,265,25640,1,8,0:0:0:0:
189,196,25815,1,0,0:0:0:0:
136,371,25989,1,2,0:0:0:0:
312,329,26163,1,0,0:0:0:0:
283,353,26249,1,0,0:0:0:0:
321,368,26337,1,8,0:0:0:0:
465,351,26512,1,2,0:1:0:0:
453,58,26686,6,0,B|440:145|440:145|467:122,1,105,2|0,0:0|0:0,0:0:0:0:
464,253,26948,1,0,0:0:0:0:
464,253,27035,2,0,B|394:198|394:198|400:233,1,105,8|0,0:0|0:0,0:0:0:0:
284,166,27384,2,0,B|365:132|365:132|332:120,1,105,2|0,0:0|0:0,0:0:0:0:
189,37,27733,1,8,0:0:0:0:
178,90,27820,1,8,0:0:0:0:
230,73,27907,1,8,0:0:0:0:
48,52,28081,5,4,0:0:0:0:
121,237,28256,2,0,L|102:187,1,52.5
128,105,28430,2,0,B|218:119|218:119|192:90,1,105,8|0,0:0|0:0,0:0:0:0:
208,108,28779,1,2,0:0:0:0:
121,237,28954,2,0,L|172:245,1,52.5
231,309,29128,2,0,B|173:379|173:379|211:371,1,105,8|2,0:0|0:1,0:0:0:0:
353,372,29477,5,2,0:0:0:0:
253,216,29651,2,0,L|321:228,1,52.5
416,241,29826,2,0,B|442:314|442:314|432:350,2,105,8|0|2,0:0|0:0|0:0,0:0:0:0:
409,98,30349,2,0,L|363:150,1,52.5
305,226,30524,2,0,B|227:212|227:212|202:185,1,105,8|0,0:0|0:0,0:0:0:0:
248,72,30872,5,10,0:0:0:0:
409,98,31047,2,0,L|465:90,2,52.5,0|0|0,0:0|0:0|0:0,0:0:0:0:
305,226,31395,1,2,0:0:0:0:
125,119,31570,5,10,0:0:0:0:
286,145,31745,2,0,L|342:137,2,52.5,0|0|2,0:0|0:0|0:0,0:0:0:0:
182,273,32093,1,0,0:0:0:0:
24,323,32268,6,0,B|25:335|25:335|77:259,1,105,10|0,0:0|0:0,2:0:0:0:
22,88,32616,2,0,B|9:83|9:83|50:166,1,105,10|0,0:0|0:0,2:0:0:0:
229,208,32878,1,8,0:0:0:0:
229,208,32965,2,0,B|239:200|239:200|146:193,1,105,10|8,0:0|0:0,2:0:0:0:
78,260,33227,1,8,0:0:0:0:
78,260,33314,2,0,L|139:265,1,52.5,10|0,0:0|0:0,0:0:0:0:
313,276,33488,1,10,0:1:0:0:
373,24,33663,6,0,B|386:40|386:40|409:155,1,131.25,4|0,0:0|0:0,0:0:0:0:
391,201,33925,1,0,0:0:0:0:
445,190,34012,1,8,0:0:0:0:
312,81,34186,1,0,0:1:0:0:
425,237,34361,1,2,0:0:0:0:
313,81,34535,2,0,L|325:145,1,65.625,8|8,0:1|0:1,0:0:0:0:
417,330,34709,2,0,L|390:201,1,131.25,8|2,0:0|0:1,0:0:0:0:
130,216,35059,6,0,B|137:196|137:196|225:118,1,131.25,2|0,0:0|0:0,0:0:0:0:
275,112,35321,1,0,0:0:0:0:
238,71,35408,1,8,0:0:0:0:
210,241,35582,1,8,0:1:0:0:
289,64,35757,1,2,0:0:0:0:
385,112,35931,2,0,L|336:155,1,65.625,8|8,0:1|0:1,0:0:0:0:
373,24,36105,2,0,L|274:111,1,131.25,8|0,0:0|0:0,0:0:0:0:
418,330,36454,6,0,B|397:333|397:333|286:296,1,131.25,4|8,0:3|0:1,0:0:0:0:
255,257,36716,1,0,0:0:0:0:
238,309,36803,1,8,0:0:0:0:
400,249,36977,1,8,0:1:0:0:
207,269,37152,1,2,0:0:0:0:
400,249,37326,2,0,L|338:227,1,65.625,8|8,0:1|0:1,0:0:0:0:
130,216,37500,2,0,L|254:257,1,131.25,8|2,0:0|0:1,0:0:0:0:
418,330,37849,5,2,0:0:0:0:
373,24,38023,2,0,L|359:92,1,65.625,8|0,0:1|0:0,0:0:0:0:
400,249,38198,1,8,0:0:0:0:
373,24,38372,1,8,0:1:0:0:
130,216,38547,5,10,0:0:0:0:
418,330,38721,1,8,0:1:0:0:
373,24,38895,1,8,0:1:0:0:
373,24,38983,1,8,0:1:0:0:
373,24,39070,1,8,0:0:0:0:
159,290,39244,6,0,B|141:297|141:297|196:200,1,131.25,6|0,0:0|0:0,0:0:0:0:
227,154,39506,1,0,0:0:0:0:
253,204,39593,1,8,0:0:0:0:
258,111,39768,1,8,0:1:0:0:
279,330,39942,1,2,0:0:0:0:
258,111,40116,2,0,L|250:36,1,65.625,8|8,0:1|0:1,0:0:0:0:
279,330,40291,2,0,B|294:353|294:353|274:233,1,131.25,8|2,0:0|0:1,0:0:0:0:
320,68,40640,6,0,B|338:61|338:61|283:158,1,131.25,2|8,0:0|0:1,0:0:0:0:
254,204,40902,1,0,0:0:0:0:
227,154,40989,1,8,0:0:0:0:
222,247,41164,1,8,0:1:0:0:
200,28,41338,1,2,0:0:0:0:
222,247,41512,2,0,L|230:322,1,65.625,8|8,0:1|0:1,0:0:0:0:
200,28,41687,2,0,B|184:5|184:5|205:124,1,131.25,8|0,0:0|0:0,0:0:0:0:
238,364,42035,5,2,0:0:0:0:
9,325,42209,1,8,0:1:0:0:
9,325,42297,1,8,0:1:0:0:
9,325,42384,2,0,P|73:334|136:320,1,131.25,8|8,0:0|0:1,0:0:0:0:
450,286,42733,1,2,0:0:0:0:
222,247,42907,1,8,0:1:0:0:
222,247,42995,1,8,0:1:0:0:
222,247,43082,2,0,P|285:256|349:241,1,131.25,8|8,0:0|0:1,0:0:0:0:
268,16,43430,6,0,B|291:119|291:119|271:96,1,131.25,10|8,0:0|0:1,0:0:0:0:
386,92,43692,1,8,0:1:0:0:
386,92,43779,2,0,B|354:193|354:193|348:163,1,131.25,10|8,0:0|0:1,0:0:0:0:
450,217,44041,1,8,0:0:0:0:
450,217,44128,2,0,B|372:289|372:289|382:260,1,131.25,10|8,0:0|0:1,0:0:0:0:
450,355,44390,1,8,0:1:0:0:
450,355,44477,2,0,L|386:369,3,65.625,10|0|8|0,0:0|0:0|0:0|0:0,0:0:0:0:
297,341,44826,5,2,0:1:0:0:
310,230,50058,6,0,P|271:198|219:202,1,105
110,158,55988,6,0,L|100:236,1,78.7500030040742
38,291,56250,2,0,P|90:317|147:303,1,118.125004506111
226,330,56686,5,0,0:0:0:0:
274,263,56861,1,0,0:0:0:0:
226,196,57035,1,0,0:0:0:0:
147,221,57209,1,0,0:0:0:0:
390,91,57384,6,0,L|399:169,1,78.7500030040742,2|0,0:1|0:0,0:0:0:0:
461,224,57646,2,0,P|409:249|352:235,1,118.125004506111
274,263,58081,6,0,L|260:300,1,39.3750015020371
226,196,58256,2,0,L|186:194,1,39.3750015020371
276,129,58430,2,0,L|264:91,1,39.3750015020371
355,155,58605,2,0,L|387:132,1,39.3750015020371
394,35,58779,6,0,L|471:22,1,78.7500030040742
332,79,59041,2,0,P|274:73|216:42,1,118.125004506111
332,79,59477,5,0,2:0:0:0:
219,235,59652,1,0,2:0:0:0:
331,197,59826,1,0,2:0:0:0:
148,139,60000,1,0,2:0:0:0:
148,139,60175,6,0,L|70:126,1,78.7500030040742,2|0,0:1|0:0,0:0:0:0:
209,182,60437,2,0,P|268:177|320:150,1,118.125004506111
209,182,60872,6,0,L|186:213,1,39.3750015020371
211,301,61047,2,0,L|234:332,1,39.3750015020371,2|0,0:0|0:0,0:0:0:0:
323,339,61221,2,0,L|360:326,1,39.3750015020371
394,243,61395,2,0,L|393:203,1,39.3750015020371,2|0,0:0|0:0,0:0:0:0:
321,149,61570,6,0,P|305:185|308:224,1,78.7500030040742,2|0,0:0|0:0,0:0:0:0:
308,224,61919,1,0,0:0:0:0:
308,224,62093,1,0,0:0:0:0:
370,307,62268,2,0,B|403:332|403:332|210:301,1,236.250009012223,10|0,0:0|0:0,0:0:0:0:
111,232,62965,6,0,P|150:230|186:216,1,78.7500030040742,2|0,0:0|0:0,0:0:0:0:
187,216,63314,1,0,0:0:0:0:
187,216,63488,1,0,0:0:0:0:
238,59,63663,2,0,B|217:37|217:37|251:160,1,157.500006008148,10|0,0:0|0:0,0:0:0:0:
325,90,64186,2,0,L|363:82,1,39.3750015020371
459,202,64361,6,0,B|488:194|488:194|365:162,1,157.500006008148,2|10,0:0|0:0,0:0:0:0:
388,261,64884,2,0,L|374:298,1,39.3750015020371
225,317,65058,2,0,B|216:346|216:346|305:255,1,157.500006008148,2|10,0:0|0:0,0:0:0:0:
209,226,65581,2,0,L|183:196,1,39.3750015020371
217,123,65756,5,10,0:0:0:0:
209,226,65930,1,2,0:0:0:0:
109,248,66105,1,10,0:0:0:0:
56,161,66279,1,2,0:0:0:0:
122,83,66454,5,10,0:0:0:0:
209,226,66628,1,10,0:0:0:0:
56,161,66802,2,0,L|106:166,1,39.3750015020371,10|8,0:0|0:0,0:0:0:0:
217,123,66977,2,0,L|256:122,1,39.3750015020371,10|8,0:0|0:0,0:0:0:0:
361,37,67151,6,0,B|436:12|436:12|471:21,1,105,6|0,0:0|0:0,0:0:0:0:
417,100,67413,2,0,B|401:177|401:177|375:203,1,105
333,118,67675,2,0,B|273:65|273:65|264:30,1,105,0|2,0:0|0:0,0:0:0:0:
65,69,68023,1,0,0:0:0:0:
93,77,68110,1,0,0:0:0:0:
122,83,68198,1,8,0:0:0:0:
205,25,68372,1,2,0:1:0:0:
71,350,68547,6,0,B|56:356|56:356|76:269,1,105,2|0,0:0|0:0,0:0:0:0:
223,256,68808,2,0,B|235:264|235:264|150:291,1,105
63,165,69070,2,0,B|64:149|64:149|129:210,1,105,0|2,0:0|0:0,0:0:0:0:
294,359,69419,1,0,0:0:0:0:
323,353,69507,1,0,0:0:0:0:
351,345,69594,1,8,0:0:0:0:
359,213,69768,1,0,0:0:0:0:
387,49,69942,6,0,P|399:99|445:135,1,105,4|0,0:3|0:0,0:0:0:0:
475,164,70204,1,0,0:0:0:0:
474,212,70291,2,0,L|450:314,1,105,8|0,0:0|0:0,0:0:0:0:
450,314,70640,1,2,0:0:0:0:
359,213,70814,1,0,0:0:0:0:
359,213,70901,1,0,0:0:0:0:
359,213,70988,1,8,0:0:0:0:
315,342,71163,1,2,0:1:0:0:
315,342,71250,1,0,0:0:0:0:
315,342,71337,5,2,0:0:0:0:
110,248,71512,2,0,L|57:251,1,52.5
20,289,71686,1,8,0:0:0:0:
103,343,71861,1,0,0:0:0:0:
110,248,72035,1,2,0:0:0:0:
190,305,72209,1,0,0:0:0:0:
190,305,72384,6,0,L|242:310,1,52.5,0|8,0:0|0:0,0:0:0:0:
333,295,72558,1,8,0:0:0:0:
333,295,72733,6,0,B|452:346|452:346|441:306,1,157.5,6|0,0:0|0:0,0:0:0:0:
415,247,73081,2,0,L|437:139,1,105,8|0,0:0|0:0,0:0:0:0:
395,40,73430,1,2,0:0:0:0:
395,40,73605,1,0,0:0:0:0:
395,40,73779,1,8,0:0:0:0:
395,40,73954,1,2,0:1:0:0:
435,144,74128,6,0,L|415:247,1,105,2|0,0:0|0:0,0:0:0:0:
424,262,74390,1,0,0:0:0:0:
433,278,74477,1,8,0:0:0:0:
334,190,74651,1,0,0:0:0:0:
433,278,74826,5,2,0:0:0:0:
436,144,75000,1,0,0:0:0:0:
334,190,75175,1,8,0:0:0:0:
395,40,75349,1,0,0:0:0:0:
167,42,75523,6,0,L|270:60,1,105,8|0,0:0|0:0,0:0:0:0:
279,72,75785,1,0,0:0:0:0:
288,84,75872,1,0,0:0:0:0:
89,118,76047,6,0,L|192:136,1,105,8|2,0:0|0:0,0:0:0:0:
270,59,76395,1,0,0:0:0:0:
279,72,76483,1,0,0:0:0:0:
288,84,76570,1,8,0:0:0:0:
4,157,76744,5,8,0:0:0:0:
232,344,76919,2,0,B|248:346|248:346|193:277,1,105,2|8,0:0|0:0,0:0:0:0:
58,320,77268,2,0,B|47:333|47:333|135:320,1,105,2|8,0:0|0:0,0:0:0:0:
165,181,77529,1,8,0:0:0:0:
164,181,77616,2,0,B|157:165|157:165|125:247,1,105,10|8,0:0|0:0,0:0:0:0:
194,277,77878,1,8,0:0:0:0:
194,277,77965,2,0,L|249:269,1,52.5,10|8,0:0|0:0,0:0:0:0:
349,311,78140,1,8,0:0:0:0:
349,311,78314,6,0,B|362:221|362:221|382:246,1,105,10|0,0:0|0:0,0:0:0:0:
379,140,78576,2,0,B|449:196|449:196|418:201,1,105
509,254,78837,2,0,B|424:286|424:286|436:257,1,105,0|2,0:0|0:0,0:0:0:0:
454,39,79186,1,0,0:0:0:0:
450,64,79273,1,0,0:0:0:0:
445,88,79361,1,8,0:0:0:0:
413,235,79535,1,2,0:1:0:0:
261,132,79709,6,0,L|143:125,1,105,2|0,0:0|0:0,0:0:0:0:
99,294,79971,2,0,L|164:195,1,105
44,72,80233,2,0,L|96:177,1,105,0|2,0:0|0:0,0:0:0:0:
261,132,80581,1,0,0:0:0:0:
99,294,80756,1,8,0:0:0:0:
44,72,80930,1,0,0:0:0:0:
241,46,81105,6,0,L|347:51,1,105,4|0,0:3|0:0,0:0:0:0:
371,125,81366,1,0,0:0:0:0:
394,114,81454,2,0,L|500:119,1,105,8|0,0:0|0:0,0:0:0:0:
354,205,81802,2,0,L|298:209,1,52.5,2|0,0:0|0:0,0:0:0:0:
196,215,81977,1,0,0:0:0:0:
432,213,82151,1,8,0:0:0:0:
276,226,82326,2,0,L|220:230,1,52.5,2|0,0:1|0:0,0:0:0:0:
117,241,82500,5,4,0:0:0:0:
154,147,82675,1,0,0:0:0:0:
181,313,82849,1,0,0:0:0:0:
24,254,83023,1,0,0:0:0:0:
146,164,83198,5,0,0:0:0:0:
40,251,83372,1,8,0:0:0:0:
168,298,83547,1,8,0:0:0:0:
117,241,83721,1,8,0:0:0:0:
362,163,83895,6,0,B|478:196|478:196|434:202,1,157.5,4|0,0:0|0:0,0:0:0:0:
380,249,84244,1,8,0:0:0:0:
198,225,84419,2,0,L|302:219,1,105,0|2,0:0|0:0,0:0:0:0:
362,330,84768,2,0,L|352:381,2,52.5,0|0|8,0:0|0:0|0:0,0:0:0:0:
310,100,85116,1,2,0:1:0:0:
86,160,85291,6,0,B|74:147|74:147|158:131,1,105,2|0,0:0|0:0,0:0:0:0:
147,212,85640,1,8,0:0:0:0:
329,188,85815,2,0,L|224:182,1,105,0|2,0:0|0:0,0:0:0:0:
165,293,86164,2,0,L|176:351,2,52.5,0|0|8,0:0|0:0|0:0,0:0:0:0:
158,133,86512,1,2,0:0:0:0:
329,188,86686,5,8,0:0:0:0:
418,260,86861,1,0,0:0:0:0:
408,291,86948,1,0,0:0:0:0:
441,286,87035,2,0,L|317:273,1,105,2|0,0:0|0:0,0:0:0:0:
158,133,87384,1,8,0:0:0:0:
76,197,87559,1,0,0:0:0:0:
86,228,87646,1,0,0:0:0:0:
53,223,87733,2,0,L|177:210,1,105,2|0,0:0|0:0,0:0:0:0:
418,259,88081,6,0,B|429:246|429:246|436:159,1,105,10|0,0:0|0:0,0:0:0:0:
278,78,88430,2,0,B|285:94|285:94|357:144,1,105,8|0,0:0|0:0,0:0:0:0:
501,47,88692,1,0,0:0:0:0:
501,47,88779,2,0,B|483:45|483:45|405:83,1,105,10|8,0:0|0:0,0:0:0:0:
436,159,89041,1,8,0:0:0:0:
436,159,89128,2,0,L|433:211,1,52.5,8|8,0:0|0:0,0:0:0:0:
427,334,89302,1,8,0:0:0:0:
301,86,89476,6,0,B|316:174|316:174|307:198,1,105,4|0,0:0|0:0,0:0:0:0:
299,213,89738,1,0,0:0:0:0:
327,213,89826,1,8,0:0:0:0:
422,256,90000,1,0,0:0:0:0:
118,225,90175,6,0,B|188:168|188:168|202:164,1,105,2|0,0:0|0:0,0:0:0:0:
231,164,90437,1,0,0:0:0:0:
217,139,90524,1,8,0:0:0:0:
205,37,90698,1,2,0:1:0:0:
335,319,90872,6,0,B|250:286|250:286|240:275,1,105,2|0,0:0|0:0,0:0:0:0:
224,251,91133,1,0,0:0:0:0:
212,276,91220,1,8,0:0:0:0:
127,337,91395,1,0,0:0:0:0:
16,269,91570,6,0,B|100:301|100:301|110:312,1,105,2|0,0:0|0:0,0:0:0:0:
127,337,91831,1,0,0:0:0:0:
139,312,91918,1,8,0:0:0:0:
224,251,92093,1,0,0:0:0:0:
224,251,92267,5,4,0:3:0:0:
382,221,92442,1,0,0:0:0:0:
375,196,92528,1,0,0:0:0:0:
356,215,92616,1,8,0:0:0:0:
259,127,92791,1,0,0:0:0:0:
317,344,92965,1,2,0:0:0:0:
479,183,93139,1,0,0:0:0:0:
470,222,93227,1,0,0:0:0:0:
508,207,93313,1,8,0:0:0:0:
224,251,93488,1,2,0:1:0:0:
356,140,93662,6,0,B|369:227|369:227|342:204,1,105,2|0,0:0|0:0,0:0:0:0:
433,123,93924,1,0,0:0:0:0:
433,123,94011,2,0,B|503:68|503:68|497:103,1,105,8|0,0:0|0:0,0:0:0:0:
381,65,94360,2,0,B|300:31|300:31|333:19,1,105,2|0,0:0|0:0,0:0:0:0:
224,251,94709,1,8,0:0:0:0:
213,304,94796,1,8,0:0:0:0:
265,287,94883,1,8,0:0:0:0:
477,347,95057,5,4,0:0:0:0:
194,353,95232,2,0,L|213:303,1,52.5
255,192,95407,2,0,B|165:206|165:206|191:177,2,105,8|0|2,0:0|0:0|0:0,0:0:0:0:
137,290,95930,2,0,L|84:298,1,52.5
28,149,96104,2,0,B|85:219|85:219|47:211,1,105,8|2,0:0|0:1,0:0:0:0:
44,69,96453,5,2,0:0:0:0:
276,125,96628,2,0,L|328:134,1,52.5
218,49,96802,2,0,B|192:122|192:122|202:158,2,105,8|0|2,0:0|0:0|0:0,0:0:0:0:
339,303,97326,2,0,L|321:253,1,52.5
160,241,97500,2,0,B|236:227|236:227|262:200,1,105,8|0,0:0|0:0,0:0:0:0:
218,49,97848,5,2,0:0:0:0:
160,241,98023,2,0,L|142:298,2,52.5,0|0|0,0:0|0:0|0:0,0:0:0:0:
151,13,98371,1,0,0:0:0:0:
359,67,98547,5,2,0:0:0:0:
302,259,98722,2,0,L|284:316,2,52.5,0|0|0,0:0|0:0|0:0,0:0:0:0:
292,31,99070,1,0,0:0:0:0:
408,318,99244,6,0,B|407:330|407:330|355:254,1,105,10|0,0:0|0:0,2:0:0:0:
410,83,99593,2,0,B|423:78|423:78|382:161,1,105,10|0,0:0|0:0,2:0:0:0:
203,203,99854,1,8,0:0:0:0:
203,203,99941,2,0,B|193:195|193:195|286:188,1,105,10|8,0:0|0:0,2:0:0:0:
354,255,100203,1,8,0:0:0:0:
354,255,100290,2,0,L|293:260,1,52.5,10|8,0:0|0:0,0:0:0:0:
119,271,100464,1,10,0:1:0:0:
94,9,100640,6,0,B|81:25|81:25|58:140,1,131.25,6|0,0:0|0:0,0:0:0:0:
48,187,100901,1,0,0:0:0:0:
100,170,100988,1,8,0:0:0:0:
27,304,101162,1,8,0:1:0:0:
203,203,101337,1,2,0:0:0:0:
119,271,101511,2,0,L|134:208,1,65.625,8|8,0:1|0:1,0:0:0:0:
94,9,101686,2,0,B|81:25|81:25|58:140,1,131.25,8|2,0:0|0:1,0:0:0:0:
316,214,102035,6,0,B|308:194|308:194|220:117,1,131.25,2|8,0:0|0:1,0:0:0:0:
185,85,102296,1,0,0:0:0:0:
174,139,102383,1,8,0:0:0:0:
94,9,102558,1,8,0:1:0:0:
93,211,102732,1,2,0:0:0:0:
93,211,102906,2,0,L|45:166,1,65.625,8|8,0:1|0:1,0:0:0:0:
316,214,103081,2,0,B|308:194|308:194|220:117,1,131.25,8|0,0:0|0:0,0:0:0:0:
27,303,103430,6,0,B|47:306|47:306|158:268,1,131.25,4|8,0:3|0:1,0:0:0:0:
204,254,103691,1,0,0:0:0:0:
163,218,103778,1,8,0:0:0:0:
316,214,103954,1,8,0:1:0:0:
141,112,104127,1,2,0:0:0:0:
242,151,104302,2,0,L|179:169,1,65.625,8|8,0:1|0:1,0:0:0:0:
27,303,104476,2,0,B|47:306|47:306|158:268,1,131.25,8|0,0:0|0:0,0:0:0:0:
94,9,104825,5,2,0:0:0:0:
27,303,104999,2,0,L|85:255,1,65.625,8|8,0:1|0:1,0:0:0:0:
316,214,105174,1,8,0:0:0:0:
27,303,105348,1,8,0:1:0:0:
316,214,105523,5,2,0:0:0:0:
27,303,105698,1,8,0:1:0:0:
94,9,105872,1,8,0:1:0:0:
94,9,105959,1,8,0:1:0:0:
94,9,106047,1,8,0:0:0:0:
411,42,106220,6,0,B|428:49|428:49|321:79,1,131.25,4|0,0:0|0:0,0:0:0:0:
267,95,106482,1,0,0:0:0:0:
279,41,106569,1,8,0:0:0:0:
72,114,106744,1,8,0:1:0:0:
332,24,106919,1,2,0:0:0:0:
116,144,107093,2,0,L|185:122,1,65.625,8|8,0:1|0:1,0:0:0:0:
321,79,107268,2,0,B|428:49|428:49|411:42,1,131.25,8|2,0:0|0:1,0:0:0:0:
414,331,107616,6,0,B|425:346|425:346|315:317,1,131.25,2|8,0:0|0:1,0:0:0:0:
262,304,107878,1,0,0:0:0:0:
300,264,107965,1,8,0:0:0:0:
84,223,108140,1,8,0:1:0:0:
354,275,108315,1,2,0:0:0:0:
107,271,108489,2,0,L|177:286,1,65.625,8|8,0:1|0:1,0:0:0:0:
316,317,108663,2,0,B|425:346|425:346|414:331,1,131.25,8|2,0:0|0:0,0:0:0:0:
283,117,109012,5,10,0:0:0:0:
150,358,109185,1,8,0:1:0:0:
150,358,109273,1,8,0:1:0:0:
150,358,109360,2,0,P|132:295|137:231,1,131.25,8|8,0:0|0:1,0:0:0:0:
220,25,109709,1,10,0:0:0:0:
233,299,109884,1,8,0:1:0:0:
233,299,109971,1,8,0:1:0:0:
233,299,110058,2,0,P|215:236|220:172,1,131.25,8|8,0:0|0:1,0:0:0:0:
84,175,110406,6,0,B|61:278|61:278|81:255,1,131.25,10|8,0:0|0:1,0:0:0:0:
153,221,110669,1,0,0:0:0:0:
153,221,110756,2,0,B|243:274|243:274|228:248,1,131.25,10|8,0:0|0:1,0:0:0:0:
221,171,111018,1,8,0:1:0:0:
221,171,111105,2,0,B|300:101|300:101|270:108,1,131.25,10|8,0:0|0:1,0:0:0:0:
193,86,111366,1,0,0:0:0:0:
193,86,111453,2,0,L|175:15,2,65.625,10|10|8,0:0|0:0|0:1,0:0:0:0:
109,92,112326,5,0,0:0:0:0:
