osu file format v14

[General]
AudioFilename: nanatsu issenzakura.mp3
AudioLeadIn: 0
PreviewTime: 22413
Countdown: 0
SampleSet: None
StackLeniency: 0.7
Mode: 0
LetterboxInBreaks: 0
WidescreenStoryboard: 0

[Editor]
DistanceSpacing: 0.9
BeatDivisor: 2
GridSize: 8
TimelineZoom: 1

[Metadata]
Title:Nanatsu Issenzakura
TitleUnicode:七つ一旋桜
Artist:A.SAKA
ArtistUnicode:A.SAKA
Creator:Hollow Wings
Version:Beginner
Source:
Tags:pending cup 木製みゅーと Mokuse Mute 神楽ノ花 Kagura no Hana 1PSA Guu fanzhen0019
BeatmapID:677243
BeatmapSetID:214138

[Difficulty]
HPDrainRate:3
CircleSize:3
OverallDifficulty:3
ApproachRate:3
SliderMultiplier:0.999999999999999
SliderTickRate:1

[Events]
//Background and Video events
0,0,"nanatsu issenzakura.jpg",0,0
//Break Periods
2,45026,48618
2,50606,54548
//Storyboard Layer 0 (Background)
//Storyboard Layer 1 (Fail)
//Storyboard Layer 2 (Pass)
//Storyboard Layer 3 (Foreground)
//Storyboard Sound Samples

[TimingPoints]
175,348.837209302326,4,3,17,50,1,0
175,-100,4,3,17,50,0,0
11337,-100,4,3,17,60,0,0
19709,-100,4,3,17,70,0,0
22151,-100,4,3,17,75,0,0
22500,-100,4,2,17,80,0,1
33314,-100,4,2,17,80,0,0
33663,-100,4,2,17,90,0,1
44826,-100,4,2,17,70,0,0
55988,-100,4,3,17,73,0,0
65756,-100,4,3,17,75,0,0
67151,-100,4,2,17,80,0,1
67326,-100,4,2,17,80,0,0
78314,-100,4,2,17,80,0,1
78488,-100,4,2,17,80,0,0
89477,-100,4,2,17,85,0,1
100291,-100,4,2,17,85,0,0
100640,-100,4,2,17,95,0,1
111802,-100,4,2,17,60,0,0

[Colours]
Combo1 : 233,92,96
Combo2 : 255,117,217
Combo3 : 152,79,251
Combo4 : 255,201,185

[HitObjects]
12,130,175,6,0,P|134:51|273:94,1,300,4|0,0:0|0:0,0:0:0:0:
203,151,1570,2,0,P|325:230|464:187,1,300
433,102,2965,6,0,P|345:217|377:359,1,300
288,373,4361,1,0,0:0:0:0:
442,280,5058,1,0,0:0:0:0:
262,285,5756,6,0,P|156:186|163:41,1,300,4|0,0:0|0:0,0:0:0:0:
232,98,7151,2,0,P|370:140|492:61,1,300
408,30,8547,6,0,L|203:14,2,200
245,107,10640,1,0,0:0:0:0:
364,241,11337,6,0,P|225:283|96:209,1,300,4|0,0:0|0:0,0:0:0:0:
10,232,12732,2,0,P|52:93|186:36,1,300
245,107,14128,6,0,P|344:105|435:64,1,200
483,238,15523,2,0,P|384:232|289:202,1,200
154,323,16919,5,4,0:0:0:0:
154,323,18314,1,0,0:0:0:0:
154,323,19709,6,0,P|253:321|349:349,1,200,2|2,0:0|0:0,0:0:0:0:
304,174,21105,2,0,P|289:122|257:84,1,99.9999999999999,2|2,0:0|0:0,0:0:0:0:
173,110,21803,2,0,P|123:110|77:129,1,99.9999999999999,2|2,0:0|0:0,0:0:0:0:
59,220,22500,6,0,P|151:334|297:350,1,300,6|8,0:0|0:0,0:0:0:0:
250,273,23895,2,0,P|342:159|487:143,1,300,2|8,0:0|0:0,0:0:0:0:
445,222,25291,6,0,P|303:178|199:71,1,300,4|8,0:3|0:0,0:0:0:0:
113,44,26686,2,0,P|85:86|69:133,1,99.9999999999999,2|8,0:0|0:0,0:0:0:0:
151,171,27384,2,0,P|169:215|171:285,1,99.9999999999999,2|8,0:0|0:0,0:0:0:0:
180,356,28081,6,0,P|329:359|469:310,1,300,6|8,0:0|0:0,0:0:0:0:
444,222,29476,2,0,P|308:179|283:39,1,300,2|8,0:0|0:0,0:0:0:0:
193,21,30872,6,0,P|186:119|220:213,1,200,10|10,0:0|0:0,0:0:0:0:
333,72,32268,2,0,P|371:103|394:147,1,99.9999999999999,10|8,0:0|0:0,0:0:0:0:
445,223,32965,1,10,0:0:0:0:
509,285,33314,1,8,0:0:0:0:
423,311,33663,6,0,P|274:302|135:356,1,300,4|8,0:0|0:0,0:0:0:0:
44,352,35058,2,0,P|94:221|235:221,1,300,2|8,0:0|0:0,0:0:0:0:
303,280,36454,6,0,P|365:146|328:4,1,300,4|8,0:3|0:0,0:0:0:0:
272,74,37849,2,0,P|223:103|178:114,1,99.9999999999999,2|8,0:0|0:0,0:0:0:0:
109,167,38547,2,0,P|60:154|18:127,1,99.9999999999999,2|8,0:0|0:0,0:0:0:0:
95,79,39244,6,0,P|223:151|265:292,1,300,6|8,0:0|0:0,0:0:0:0:
338,343,40639,2,0,P|390:204|507:112,1,300,2|8,0:0|0:0,0:0:0:0:
458,35,42035,6,0,P|365:48|258:35,1,200,2|2,0:0|0:0,0:0:0:0:
102,123,43431,2,0,P|151:126|198:144,1,99.9999999999999,2|8,0:0|0:0,0:0:0:0:
231,228,44128,1,0,0:0:0:0:
287,157,44477,1,8,0:0:0:0:
375,136,44826,5,2,0:1:0:0:
200,224,50058,6,0,P|245:202|295:200,1,99.9999999999999
48,359,55988,6,0,P|122:354|195:335,1,150,2|0,0:1|0:0,0:0:0:0:
391,225,57384,2,0,P|325:189|251:174,2,150
439,300,58779,6,0,P|370:330|296:335,1,150,2|0,0:1|0:0,0:0:0:0:
240,118,60175,2,0,P|167:103|100:70,2,150
186,192,61570,6,0,P|196:290|251:372,1,200,2|10,0:0|0:0,0:0:0:0:
295,198,62965,2,0,P|339:286|419:345,1,200,2|10,0:0|0:0,0:0:0:0:
395,166,64361,5,2,0:0:0:0:
502,310,65058,1,2,0:0:0:0:
488,130,65756,2,0,P|457:90|413:69,1,99.9999999999999,10|10,0:0|0:0,0:0:0:0:
323,68,66454,2,0,P|275:52|239:18,1,99.9999999999999,10|10,0:0|0:0,0:0:0:0:
186,90,67151,6,0,P|188:165|212:236,2,150,6|0|8,0:0|0:0|0:0,0:0:0:0:
114,34,68547,2,0,P|53:78|9:138,2,150,2|0|8,0:0|0:0|0:0,0:0:0:0:
185,90,69942,6,0,P|222:125|269:139,1,99.9999999999999,4|8,0:3|0:0,0:0:0:0:
346,92,70640,2,0,P|394:78|445:79,1,99.9999999999999,2|8,0:0|0:0,0:0:0:0:
421,166,71337,2,0,P|375:199|348:247,1,99.9999999999999,2|8,0:0|0:0,0:0:0:0:
276,284,72035,2,0,P|291:331|323:368,1,99.9999999999999,2|2,0:0|0:0,0:0:0:0:
414,363,72733,6,0,P|493:238|502:90,1,300,4|8,0:0|0:0,0:0:0:0:
423,44,74128,2,0,P|281:87|131:91,1,300,2|8,0:0|0:0,0:0:0:0:
46,61,75523,5,10,0:0:0:0:
57,242,76221,1,2,0:0:0:0:
171,380,76919,2,0,P|176:330|165:281,1,99.9999999999999,2|2,0:0|0:0,0:0:0:0:
132,198,77617,2,0,P|176:177|210:141,1,99.9999999999999,2|10,0:0|0:0,0:0:0:0:
279,196,78314,6,0,P|349:225|423:231,2,150,6|0|8,0:0|0:0|0:0,0:0:0:0:
218,263,79710,2,0,P|146:283|72:287,2,150,2|0|8,0:0|0:0|0:0,0:0:0:0:
285,323,81105,6,0,P|339:324|384:311,1,99.9999999999999,4|8,0:3|0:0,0:0:0:0:
465,274,81803,2,0,P|485:229|485:180,1,99.9999999999999,2|8,0:0|0:0,0:0:0:0:
395,169,82500,1,6,0:0:0:0:
257,52,83198,1,2,0:0:0:0:
436,44,83896,6,0,P|440:193|368:323,1,300,6|8,0:0|0:0,0:0:0:0:
279,314,85291,2,0,P|259:167|182:39,1,300,2|8,0:0|0:0,0:0:0:0:
91,38,86686,5,10,0:0:0:0:
38,210,87384,1,10,0:0:0:0:
211,160,88082,2,0,P|259:146|302:122,1,99.9999999999999,10|10,0:0|0:0,0:0:0:0:
347,201,88780,2,0,P|317:240|276:269,1,99.9999999999999,10|10,0:0|0:0,0:0:0:0:
228,345,89477,6,0,P|373:328|465:214,1,300,6|8,0:0|0:0,0:0:0:0:
465,123,90872,2,0,P|319:138|205:47,1,300,2|8,0:0|0:0,0:0:0:0:
118,71,92268,6,0,P|153:215|115:358,1,300,4|8,0:3|0:0,0:0:0:0:
204,366,93663,2,0,P|235:327|255:281,1,99.9999999999999,2|8,0:0|0:0,0:0:0:0:
302,202,94361,2,0,P|305:152|324:106,1,99.9999999999999,2|8,0:0|0:0,0:0:0:0:
402,62,95058,6,0,P|253:59|113:108,1,300,6|8,0:0|0:0,0:0:0:0:
158,185,96453,2,0,P|300:174|375:296,1,300,2|8,0:0|0:0,0:0:0:0:
462,274,97849,5,10,0:0:0:0:
385,111,98547,1,10,0:0:0:0:
222,187,99244,2,0,P|267:209|315:202,1,99.9999999999999,10|10,0:0|0:0,0:0:0:0:
308,292,99942,1,10,0:0:0:0:
218,299,100291,1,10,0:0:0:0:
153,361,100640,6,0,P|123:217|188:85,1,300,6|8,0:0|0:0,0:0:0:0:
273,53,102035,2,0,P|313:191|217:299,1,300,2|8,0:0|0:0,0:0:0:0:
284,360,103431,6,0,P|424:316|505:194,1,300,4|8,0:3|0:0,0:0:0:0:
415,200,104826,2,0,P|366:186|324:160,1,99.9999999999999,2|8,0:0|0:0,0:0:0:0:
398,107,105524,2,0,P|447:94|489:67,1,99.9999999999999,10|8,0:0|0:0,0:0:0:0:
413,17,106221,6,0,P|279:75|232:213,1,300,6|8,0:0|0:0,0:0:0:0:
146,240,107616,2,0,P|253:342|399:373,1,300,2|8,0:0|0:0,0:0:0:0:
379,285,109012,5,2,0:0:0:0:
398,107,109710,1,2,0:0:0:0:
232,177,110407,1,10,0:0:0:0:
256,192,110581,12,0,112325,0:0:0:0:
