osu file format v5

[General]
AudioFilename: 09 - O-Parts.mp3
AudioLeadIn: 0
PreviewTime: 96935
Countdown: 1
SampleSet: Normal
StackLeniency: 0.7
Mode: 0
LetterboxInBreaks: 0
SkinPreference:osu! Ends With You
EditorBookmarks: 15242,29101,37408,81716,89093,127862,135247,159247,166631,196170
EditorDistanceSpacing: 1.10000002384186

[Metadata]
Title:Ooparts
Artist:A. Tanaka, M. Matsuda
Creator:awp
Version:Ultimate
Source:TWEWY OST
Tags:TWEWY

[Difficulty]
HPDrainRate:7
CircleSize:6
OverallDifficulty:7
SliderMultiplier:2.4
SliderTickRate:2

[Events]
//Background and Video events
0,0,"bg.png"
//Break Periods
2,29293,36350
2,81908,87653
2,127596,134343
2,159447,165581
//Storyboard Layer 0 (Background)
//Storyboard Layer 1 (Failing)
//Storyboard Layer 2 (Passing)
//Storyboard Layer 3 (Foreground)
//Storyboard Sound Samples
//Background Colour Transformations
3,100,163,162,255
3,100,163,162,255
3,100,163,162,255
3,100,163,162,255
3,100,163,162,255
3,100,163,162,255
3,100,163,162,255
3,100,163,162,255
3,100,163,162,255
3,100,163,162,255
3,100,163,162,255
3,100,163,162,255
3,100,163,162,255
3,100,163,162,255
3,100,163,162,255
3,100,163,162,255
3,100,163,162,255
3,100,163,162,255
3,100,163,162,255
3,100,163,162,255
3,100,163,162,255
3,100,163,162,255
3,100,163,162,255
3,100,163,162,255

[TimingPoints]
15243,461.538461538462,4,1,0,100,1,0
88631,461.538461538462,4,2,0,100,0,0
96127,-100,4,2,0,50,0,0
96939,461.538461538462,4,1,0,100,0,0

[HitObjects]
64,80,15246,2,0,B|64:144,2,60
208,80,15704,1,0
472,200,16166,2,0,L|432:232|488:256|432:304|488:336,1,240
112,216,17089,2,0,L|32:216,2,60
216,320,17551,1,0
472,200,18012,2,0,L|472:144|424:144|424:80|344:80,1,240,0|0
168,56,18935,6,0,B|80:56,2,60
168,184,19396,1,0
80,336,19858,1,0
208,336,20089,1,0
336,336,20319,1,0
480,88,20781,5,0
432,136,20896,1,0
384,184,21012,1,0
288,72,21242,1,8
288,144,21358,1,8
288,216,21473,1,8
216,88,21704,1,0
168,136,21819,1,0
112,184,21935,1,0
8,88,22166,1,8
8,160,22281,1,8
8,232,22396,1,8
136,288,22627,6,0,L|136:344|216:344,1,120
336,288,23089,2,0,B|472:288,1,120
352,200,23550,1,0
472,136,23781,1,0
352,72,24012,1,4
24,192,24473,5,0
152,192,24704,2,0,L|152:264,3,60
296,256,25281,1,0
296,192,25396,1,0
424,128,25627,2,0,B|424:200,1,60
424,188,25858,2,0,B|424:264,2,60
280,192,26319,5,0
280,192,26435,1,0
280,192,26550,1,0
136,160,26781,2,0,B|136:232,1,60
232,328,27127,1,0
232,328,27243,1,0
232,328,27358,1,0
232,328,27473,1,0
376,360,27704,2,0,B|376:280,1,60
432,88,28166,6,0,L|304:88,1,120
248,88,28512,1,0
184,88,28627,2,0,L|184:192,1,60
184,288,28973,1,0
184,288,29089,1,4
96,232,37396,6,0,B|96:168,1,60
96,172,37627,2,0,B|168:208,1,60
149,198,37858,2,0,L|184:136|240:168,1,120
360,96,38319,6,0,L|416:152,1,60
448,192,38550,1,0
360,96,38781,1,0
416,352,39243,6,0,B|416:288,1,60
416,292,39473,2,0,B|344:328,1,60
363,318,39704,2,0,L|328:256|272:288,1,120
152,216,40166,6,0,L|96:272,1,60
64,312,40396,1,0
152,216,40627,1,0
96,56,41089,5,0
232,8,41319,1,8
288,56,41435,1,8
232,104,41550,1,8
368,56,41781,1,0
368,200,42012,1,0
424,328,42243,1,8
368,376,42358,1,8
312,328,42473,1,8
96,136,42935,6,0,B|176:72|264:136,3,180,0|0|0|0
184,304,44319,5,0
328,304,44550,6,0,L|328:176,1,120
464,240,45012,2,0,L|464:96,1,120
344,40,45473,2,0,B|136:40|392:120|160:136,1,240
32,144,46166,1,0
256,320,46627,6,0,B|184:272|256:224,1,120
384,280,47089,2,0,B|440:224|384:176,1,120
256,112,47550,2,0,B|184:64|256:16,1,120,0|0
312,32,47896,1,0
312,96,48012,1,0
56,40,48473,6,2,B|56:304,1,240
256,280,49166,1,8
456,280,49396,2,2,B|456:16,1,240
120,64,50319,5,0
120,136,50435,1,0
120,208,50550,1,0
200,64,50781,5,0
392,320,51243,5,0
392,248,51359,1,0
392,176,51474,1,0
312,320,51705,5,8
256,192,51935,5,8
256,192,52166,12,0,54935
256,192,55166,5,0
256,192,55396,5,8
392,48,55858,5,4
392,192,56089,1,8
256,48,56550,5,4
256,192,56781,1,8
128,48,57243,5,4
128,192,57473,1,8
400,264,57935,6,0,B|360:448|232:112|120:328,1,360
123,322,58743,1,0
123,322,58858,1,0
123,322,58973,1,0
123,322,59089,1,0
256,192,59550,12,0,60935
48,192,61627,5,8
152,328,61858,1,2
256,192,62088,1,8
368,328,62319,1,2
472,192,62550,1,2
256,192,63243,6,0,B|304:144,1,60
256,192,63473,2,0,B|168:280,2,120
171,276,64166,1,0
256,192,64396,1,0
480,368,64858,5,4
328,120,65319,1,0
272,152,65435,1,0
248,208,65550,1,0
272,264,65666,1,0
328,288,65781,1,0
416,208,66012,1,8
328,120,66243,1,8
32,328,66819,6,0,B|32:144,1,180,0|0
160,88,67396,1,0
448,88,67858,6,0,B|392:144,1,60
405,130,68089,2,0,B|312:224,2,120
405,130,68666,1,0
405,130,68781,5,0
256,128,69012,1,0
80,136,69473,6,0,B|32:192|80:248,1,120
208,192,69935,2,0,B|272:240|208:312,1,120
220,296,70281,1,0
120,48,70627,5,4
120,192,70858,1,8
256,48,71319,5,4
256,192,71550,1,8
384,48,72012,5,4
384,192,72242,1,8
112,264,72704,6,0,B|152:448|280:112|392:328,1,360
389,322,73512,1,0
389,322,73627,1,0
389,322,73742,1,0
389,322,73858,1,0
480,72,74204,6,0,B|480:256,1,180,0|0
352,320,74781,1,0
64,312,75243,6,0,B|120:256,1,60
107,270,75474,2,0,B|200:176,2,120
107,270,76051,1,0
107,270,76166,5,0
256,272,76397,1,0
432,264,76858,6,0,B|480:208|432:152,1,120
304,208,77320,2,0,B|240:160|304:88,1,120
292,104,77666,1,0
392,336,78012,5,4
392,192,78243,1,8
256,336,78704,5,4
256,192,78935,1,8
128,336,79397,5,4
128,192,79627,1,8
400,120,80089,6,0,B|360:-64|232:272|120:56,1,360
123,62,80897,1,0
123,62,81012,1,0
123,62,81127,1,0
123,62,81243,1,0
88,56,89089,6,0,B|128:16|152:88,1,60
72,192,89435,1,0
136,216,89550,1,0
280,216,89781,2,0,B|280:136,2,60
280,360,90243,1,0
280,216,90473,1,0
408,72,90935,6,0,B|448:112|376:144,1,60
272,88,91281,1,0
296,152,91396,1,0
128,288,91627,2,0,B|192:288,2,60
264,288,92089,1,0
400,288,92319,1,0
136,160,92781,6,0,B|40:152|72:264,1,120,0|0
64,229,93127,1,0
64,229,93243,2,0,B|104:280|144:272,1,60
256,272,93589,1,0
256,200,93704,2,0,B|256:64,2,120,0|0|0
344,40,94627,6,0,B|344:176,1,120
344,160,94973,2,0,B|408:160,2,60
128,160,95435,2,0,B|56:160,1,60
200,160,95781,1,0
344,160,96012,1,0
256,272,96243,1,4
256,192,96935,12,4,98319
256,192,98435,5,0
256,192,98550,1,0
256,192,98781,1,0
192,72,99243,6,0,B|192:144,2,60
328,72,99704,1,0
80,192,100166,6,0,B|128:240,1,60
122,234,100396,2,0,B|216:320,1,120
472,192,101089,1,0
408,192,101204,1,0
440,144,101319,1,0
440,288,101550,1,0
168,192,102012,6,0,B|168:288,1,60
168,312,102243,1,0
48,136,102473,1,0
48,136,102589,2,0,L|48:208,1,60
192,136,102935,1,0
192,136,103050,1,0
192,136,103166,2,0,B|272:136|272:224,1,120
32,88,103858,5,0
80,136,103973,1,0
128,184,104089,1,0
224,72,104319,1,8
224,144,104435,1,8
224,216,104550,1,8
296,88,104781,1,0
344,136,104896,1,0
400,184,105012,1,0
504,88,105243,1,8
504,160,105358,1,8
504,232,105473,1,8
296,288,105704,6,0,B|368:288,1,60
424,288,105935,2,0,B|384:224,2,60
136,336,106627,5,0
136,336,106743,1,0
56,216,106973,1,0
56,216,107089,1,0
408,152,107550,5,0
376,104,107666,1,0
320,80,107781,1,0
264,104,107896,1,0
232,152,108012,1,0
296,320,108474,5,0
240,344,108589,1,0
184,320,108704,1,0
152,272,108820,1,0
152,216,108935,1,0
408,192,109396,5,0
408,112,109627,1,0
408,112,109743,2,0,L|320:112,1,60
168,72,110204,6,0,B|112:48|56:104,1,120
160,160,110666,2,0,B|208:184|208:224,1,60
424,104,111243,6,0,B|384:168,2,60
304,104,111704,1,0
288,168,111819,1,0
256,224,111935,1,0
232,168,112050,1,0
216,104,112166,1,0
160,336,112627,5,8
352,336,112858,5,8
288,168,113089,6,0,B|232:152|264:224|152:224,2,120
104,80,114012,2,0,L|32:80,2,60
104,80,114358,1,0
104,80,114473,1,0
336,128,114935,5,0
336,184,115050,1,0
336,240,115166,1,0
336,296,115281,1,0
392,296,115396,1,0
440,72,115858,1,8
248,200,116319,1,8
72,80,116666,5,0
40,200,116897,2,0,L|120:200,1,60,0|0
72,312,117243,1,0
168,216,117473,5,0
208,88,117703,1,0
296,184,117935,1,0
320,128,118050,1,0
344,72,118166,1,0
448,144,118396,1,0
488,296,118627,5,0
440,248,118742,1,0
392,200,118858,1,0
296,312,119088,1,8
296,240,119204,1,8
296,168,119319,1,8
224,296,119550,1,0
176,248,119665,1,0
120,200,119781,1,0
16,296,120012,1,8
16,224,120127,1,8
16,152,120242,1,8
130,72,120473,5,0
130,72,120589,1,0
130,72,120704,2,0,B|264:72,1,120
400,192,121281,2,0,L|400:312|336:312,1,180
456,312,121858,1,0
248,192,122319,6,0,L|200:152|152:192,1,120
24,192,122781,2,0,L|64:152|120:192,1,120
136,240,123127,2,0,L|136:360,1,120
136,360,123473,1,0
256,336,123704,1,0
256,192,123935,6,0,B|128:192,1,120
256,192,124396,2,0,B|168:88,1,120
256,192,124858,2,0,B|312:128,2,60
256,192,125319,2,0,B|400:192,1,120
96,296,126012,6,0,B|160:296,1,60
156,296,126243,2,0,L|232:296,2,60
408,192,126935,2,0,B|344:192,1,60
348,192,127166,2,0,L|272:192,2,60
104,56,135243,6,0,L|104:120,1,60
104,116,135473,2,0,L|168:144,1,60
158,140,135704,2,0,L|120:200,1,60
125,190,135935,2,0,L|64:192,1,60
65,191,136166,2,0,L|96:248,1,60
93,243,136396,2,0,L|160:256|160:320,1,120
400,272,137089,5,0
336,272,137204,1,0
272,272,137319,1,0
272,152,137550,1,0
336,152,137666,1,0
400,152,137781,1,0
400,32,138012,1,0
272,32,138243,1,0
144,32,138473,1,0
392,336,138935,5,4
392,192,139166,1,8
256,336,139627,5,4
256,192,139858,1,8
128,336,140320,5,4
128,192,140550,1,8
256,192,141012,12,0,141704
256,192,141819,5,0
256,192,141935,1,0
256,192,142166,5,0
72,40,142627,6,0,L|152:40,1,60
192,40,142858,1,0
256,40,142973,1,0
256,104,143089,6,0,L|192:104,1,60
136,104,143319,1,0
72,104,143435,1,0
72,168,143550,6,0,L|72:232,1,60
72,288,143781,2,0,L|72:216,1,60
256,336,144473,5,0
256,336,144589,1,0
376,192,144819,1,0
376,192,144935,1,4
256,96,145166,1,0
136,192,145396,1,4
256,192,145512,12,0,147704
80,48,148166,6,0,L|80:184,1,120
168,280,148627,1,0
168,136,148858,1,0
256,48,149089,2,0,L|256:176,1,120,0|0
392,120,149550,1,0
472,240,149781,1,0
328,240,150012,2,0,B|256:344|184:240,3,180,0|0|0|8
256,144,151396,1,8
440,192,151858,6,0,L|440:136|360:136,2,120,0|0|0
72,192,152781,6,0,L|72:248|144:248,2,120,0|0|0
216,72,153704,6,0,L|296:72,1,60
416,72,154050,1,0
416,72,154166,1,0
416,72,154281,1,0
344,272,154627,2,0,L|264:272,1,60,0|0
136,272,154973,1,0
136,272,155089,1,0
136,272,155204,1,0
136,272,155319,1,0
136,272,155435,1,0
136,272,155550,5,0
136,128,155781,1,0
280,128,156012,1,0
312,80,156127,1,0
344,128,156243,1,0
320,248,156473,5,0
256,352,156704,1,0
192,248,156935,2,0,L|128:248,1,60
160,192,157166,1,0
392,40,157396,5,0
256,40,157627,5,0
192,40,157743,1,0
128,40,157858,1,0
184,144,158089,1,0
256,256,158319,5,0
256,192,158435,12,4,159243
416,152,166627,6,0,B|416:216,1,60
416,212,166858,2,0,B|344:176,1,60
363,186,167089,2,0,L|328:248|272:216,1,120
152,288,167550,6,0,L|96:232,1,60
64,192,167781,1,0
152,288,168012,1,0
96,32,168474,6,0,B|96:96,1,60
96,92,168704,2,0,B|168:56,1,60
149,66,168935,2,0,L|184:128|240:96,1,120
360,168,169397,6,0,L|416:112,1,60
448,72,169627,1,0
360,168,169858,1,0
416,328,170320,5,0
280,376,170550,1,0
224,328,170666,1,0
280,280,170781,1,0
144,328,171012,1,0
144,184,171243,1,0
88,56,171474,1,0
144,8,171589,1,0
200,56,171704,1,0
416,248,172166,6,0,B|336:312|248:248,3,180,0|0|0|0
328,80,173550,5,0
184,80,173781,6,0,L|184:208,1,120
48,144,174243,2,0,L|48:288,1,120
168,344,174704,2,0,B|376:344|120:264|352:248,1,240
480,240,175397,1,0
256,64,175858,6,0,B|328:112|256:160,1,120
259,157,176204,1,0
259,157,176319,1,0
152,216,176550,1,0
256,280,176781,2,0,B|328:328|256:376,1,120,0|0
200,360,177127,1,0
200,296,177243,1,0
456,344,177704,6,0,B|456:80,1,240
256,104,178397,1,0
56,104,178627,2,0,B|56:368,1,240
392,320,179550,5,0
392,248,179666,1,0
392,176,179781,1,0
312,320,180012,5,0
120,64,180474,5,0
120,136,180590,1,0
120,208,180705,1,0
200,64,180936,5,0
256,192,181166,5,0
256,192,181397,12,0,184166
256,192,184281,5,0
256,192,184397,1,0
256,192,184627,5,8
120,336,185089,5,4
120,192,185320,1,8
256,336,185781,5,4
256,192,186012,1,8
384,336,186474,5,4
384,192,186704,1,8
112,120,187166,6,0,B|152:-64|280:272|392:56,1,360
389,62,187974,1,0
389,62,188089,1,0
389,62,188204,1,0
389,62,188320,1,0
256,192,188781,12,0,190166
72,80,190627,5,0
72,200,190858,2,0,L|72:272,1,60
72,320,191089,1,0
312,320,191550,2,0,L|312:176,1,120
280,144,191896,1,0
344,144,192012,1,0
112,80,192473,5,4
112,200,192704,1,8
112,320,192935,1,0
112,320,193050,1,0
112,320,193166,1,4
232,320,193396,5,8
232,200,193627,1,0
232,80,193858,1,4
232,80,193973,1,0
232,80,194089,1,8
256,192,194550,12,4,196166
